osu file format v14

[General]
AudioFilename: audio.mp3
AudioLeadIn: 0
PreviewTime: 46260
Countdown: 0
SampleSet: Soft
StackLeniency: 0.6
Mode: 0
LetterboxInBreaks: 0
WidescreenStoryboard: 0

[Editor]
DistanceSpacing: 0.8
BeatDivisor: 4
GridSize: 4
TimelineZoom: 1

[Metadata]
Title:Snowblind Feat. Tasha Baxter
TitleUnicode:Snowblind Feat. Tasha Baxter
Artist:Au5
ArtistUnicode:Au5
Creator:Gero
Version:Snow
Source:
Tags:
BeatmapID:1878550
BeatmapSetID:899284

[Difficulty]
HPDrainRate:8
CircleSize:4
OverallDifficulty:8
ApproachRate:9
SliderMultiplier:1.8
SliderTickRate:1

[Events]
//Background and Video events
0,0,"BG.jpg",0,0
//Break Periods
2,1134,97291
//Storyboard Layer 0 (Background)
//Storyboard Layer 1 (Fail)
//Storyboard Layer 2 (Pass)
//Storyboard Layer 3 (Foreground)
//Storyboard Sound Samples

[TimingPoints]
500,434.782608695652,4,2,0,80,1,0
500,-142.857142857143,4,2,0,80,0,0
97891,-66.6666666666667,4,2,0,80,0,0
108326,-100,4,2,0,80,0,0

[Colours]
Combo1 : 217,116,98
Combo2 : 86,200,220

[HitObjects]
320,48,282,5,0,0:0:0:0:
320,48,391,1,0,0:0:0:0:
320,48,500,2,0,L|320:192,1,125.999996154785
188,256,97891,6,0,B|224:232|272:256|272:256|288:240|288:240|332:272|376:248,1,202.500007724762
352,52,98326,2,0,P|332:116|336:152,1,67.5000025749208
260,204,98543,2,0,P|248:128|248:116,1,67.5000025749208
176,56,98760,6,0,P|128:164|140:200,1,135.000005149842,8|0,1:0|0:0,0:0:0:0:
144,296,99086,1,0,0:0:0:0:
236,212,99195,2,0,B|176:208|176:208|108:236|108:236|36:220,1,202.500007724762
152,108,99630,6,0,L|248:104,1,67.5000025749208
332,48,99847,1,0,0:0:0:0:
332,48,99956,1,0,0:0:0:0:
332,48,100065,2,0,B|260:4|260:4|320:164,1,202.500007724762
408,200,100499,6,0,L|420:96,1,67.5000025749208,8|0,1:0|0:0,0:0:0:0:
324,256,100717,1,0,0:0:0:0:
324,256,100826,2,0,L|296:144,1,67.5000025749208
424,324,101043,1,0,0:0:0:0:
424,324,101152,2,0,L|456:248,1,67.5000025749208
320,376,101369,6,0,P|252:304|248:368,1,202.500007724762
328,344,101804,2,0,P|280:272|240:368,1,202.500007724762
300,280,102239,6,0,L|272:116,1,135.000005149842,8|0,1:0|0:0,0:0:0:0:
236,60,102565,1,0,0:0:0:0:
260,32,102673,2,0,L|220:264,1,202.500007724762
352,120,103108,6,0,L|340:68,1,45.0000017166138
400,128,103253,2,0,L|384:56,1,45.0000017166138
444,128,103398,2,0,L|432:60,1,45.0000017166138
492,164,103543,6,0,L|468:48,1,67.5000025749208
420,228,103760,2,0,L|400:148,1,67.5000025749208
312,272,103978,5,8,1:0:0:0:
312,272,104086,2,0,L|292:196,1,67.5000025749208,8|0,1:0|0:0,0:0:0:0:
192,320,104304,1,8,1:0:0:0:
192,320,104413,2,0,L|160:244,1,67.5000025749208
200,120,104630,2,0,L|236:196,1,67.5000025749208
308,52,104847,6,0,B|256:24|256:24|189:43|189:43|152:112,1,202.500007724762,4|0,0:0|0:0,0:0:0:0:
248,156,105282,2,0,L|376:176,1,67.5000025749208
488,68,105499,2,0,L|400:64,1,67.5000025749208
360,260,105717,6,0,P|336:156|292:188,1,202.500007724762
232,268,106152,2,0,L|236:380,2,90.0000034332277
320,184,106586,6,0,L|292:68,1,67.5000025749208
412,24,106804,2,0,L|404:112,1,67.5000025749208
152,68,107021,2,0,L|344:36,1,135.000005149842
164,176,107347,1,0,0:0:0:0:
164,176,107456,6,0,P|212:128|168:252,1,472.500018024445
248,212,108326,6,0,P|308:272|312:300,1,90
372,160,108760,2,0,B|404:296|396:272,1,90
464,196,109195,2,0,L|472:316,1,90
236,148,109630,1,0,0:0:0:0:
352,60,109847,1,0,0:0:0:0:
280,232,110065,6,0,P|312:172|352:160,1,90
456,188,110499,1,0,0:0:0:0:
332,304,110717,1,0,0:0:0:0:
396,32,110934,1,0,0:0:0:0:
408,264,111152,1,0,0:0:0:0:
