osu file format v14

[General]
AudioFilename: audio.mp3
AudioLeadIn: 0
PreviewTime: 260799
Countdown: 0
SampleSet: Soft
StackLeniency: 0.3
Mode: 0
LetterboxInBreaks: 0
WidescreenStoryboard: 0

[Editor]
Bookmarks: 228,27656,41370,55085,68799,82513,109942,123656,137370,144228,151085,164799,178513,205942,219656,233370,247085,260799,274513,281370,288228,301942,315656,343085,367728
DistanceSpacing: 1.1
BeatDivisor: 4
GridSize: 32
TimelineZoom: 2.599999

[Metadata]
Title:Singularity
TitleUnicode:Singularity
Artist:Au5
ArtistUnicode:Au5
Creator:Zer0-
Version:Event Horizon
Source:
Tags:dubstep trance electronic edm tech instrumental
BeatmapID:2492038
BeatmapSetID:1196347

[Difficulty]
HPDrainRate:6
CircleSize:4.2
OverallDifficulty:8.8
ApproachRate:9.3
SliderMultiplier:2.1
SliderTickRate:1

[Events]
//Background and Video events
0,0,"singuliarnost-kosmos-chernaia-dyra-odinochestvo-vozmezdie-zv.jpg",0,0
//Break Periods
//Storyboard Layer 0 (Background)
//Storyboard Layer 1 (Fail)
//Storyboard Layer 2 (Pass)
//Storyboard Layer 3 (Foreground)
//Storyboard Layer 4 (Overlay)
//Storyboard Sound Samples

[TimingPoints]
228,428.571428571429,4,2,1,100,1,0
228,-133.333333333333,4,2,2,30,0,0
13942,-133.333333333333,4,2,1,50,0,0
27656,-100,4,2,1,60,0,0
41370,-80,4,2,1,70,0,0
55085,-80,4,2,1,80,0,1
67942,-80,4,2,1,80,0,0
68799,-66.6666666666667,4,2,1,80,0,1
80799,-100,4,2,1,80,0,1
82513,-333.333333333333,4,2,2,30,0,0
84763,-333.333333333333,4,2,2,5,0,0
84870,-333.333333333333,4,2,2,30,0,0
85406,-333.333333333333,4,2,2,5,0,0
85513,-333.333333333333,4,2,2,30,0,0
85835,-333.333333333333,4,2,2,5,0,0
85942,-333.333333333333,4,2,2,30,0,0
89263,-333.333333333333,4,2,2,5,0,0
89370,-333.333333333333,4,2,2,30,0,0
91620,-333.333333333333,4,2,2,5,0,0
91727,-333.333333333333,4,2,2,30,0,0
92263,-333.333333333333,4,2,2,5,0,0
92370,-333.333333333333,4,2,2,30,0,0
92692,-333.333333333333,4,2,2,5,0,0
92799,-333.333333333333,4,2,2,30,0,0
93335,-333.333333333333,4,2,2,5,0,0
93442,-333.333333333333,4,2,2,30,0,0
96120,-333.333333333333,4,2,2,5,0,0
96227,-333.333333333333,4,2,2,30,0,0
98478,-333.333333333333,4,2,2,5,0,0
98585,-333.333333333333,4,2,2,30,0,0
99120,-333.333333333333,4,2,2,5,0,0
99227,-333.333333333333,4,2,2,30,0,0
99549,-333.333333333333,4,2,2,5,0,0
99656,-333.333333333333,4,2,2,30,0,0
102978,-333.333333333333,4,2,2,5,0,0
103085,-333.333333333333,4,2,2,30,0,0
105335,-333.333333333333,4,2,2,5,0,0
105442,-333.333333333333,4,2,2,30,0,0
105978,-333.333333333333,4,2,2,5,0,0
106085,-333.333333333333,4,2,2,30,0,0
106406,-333.333333333333,4,2,2,5,0,0
106513,-333.333333333333,4,2,2,30,0,0
107049,-333.333333333333,4,2,2,5,0,0
107156,-333.333333333333,4,2,2,30,0,0
109942,-166.666666666667,4,2,1,40,0,0
123656,-111.111111111111,4,2,1,50,0,0
137370,-111.111111111111,4,2,1,20,0,0
138228,-111.111111111111,4,2,1,30,0,0
139085,-111.111111111111,4,2,1,40,0,0
139942,-111.111111111111,4,2,1,50,0,0
140799,-111.111111111111,4,2,1,60,0,0
141656,-111.111111111111,4,2,1,70,0,0
142513,-111.111111111111,4,2,1,80,0,0
143370,-111.111111111111,4,2,1,80,0,0
144228,-83.3333333333333,4,2,1,80,0,0
150549,-83.3333333333333,4,2,1,90,0,0
151085,-100,4,2,1,100,0,1
151942,-50,4,2,1,100,0,1
154085,-40,4,2,1,100,0,1
154513,-133.333333333333,4,2,1,100,0,1
155370,-66.6666666666667,4,2,1,100,0,1
155799,-40,4,2,1,100,0,1
156228,-50,4,2,1,100,0,1
156870,-500,4,2,1,100,0,1
157085,-50,4,2,1,100,0,1
157513,-66.6666666666667,4,2,1,100,0,1
157942,-133.333333333333,4,2,1,100,0,1
158799,-50,4,2,1,100,0,1
159656,-40,4,2,1,100,0,1
160085,-100,4,2,1,100,0,1
160513,-50,4,2,1,100,0,1
161799,-66.6666666666667,4,2,1,100,0,1
162228,-40,4,2,1,100,0,1
162656,-50,4,2,1,100,0,1
163085,-50,4,2,1,100,0,0
163942,-100,4,2,1,100,0,0
164799,-50,4,2,1,100,0,1
165656,-133.333333333333,4,2,1,100,0,1
166728,-50,4,2,1,100,0,1
167370,-40,4,2,1,100,0,1
168228,-66.6666666666667,4,2,1,100,0,1
169085,-111.111111111111,4,2,1,100,0,1
170156,-50,4,2,1,100,0,1
171656,-100,4,2,1,100,0,1
172513,-66.6666666666667,4,2,1,100,0,1
172942,-50,4,2,1,100,0,1
173370,-40,4,2,1,100,0,1
173799,-66.6666666666667,4,2,1,100,0,1
174228,-50,4,2,1,100,0,1
174656,-66.6666666666667,4,2,1,100,0,1
175085,-100,4,2,1,100,0,1
175942,-50,4,2,1,100,0,1
177656,-200,4,2,1,100,0,1
178513,-100,4,2,1,80,0,0
181513,-181.818181818181,4,2,1,80,0,0
181942,-100,4,2,1,80,0,0
184513,-133.333333333333,4,2,1,80,0,0
185370,-100,4,2,1,80,0,0
188370,-181.818181818182,4,2,1,80,0,0
188799,-100,4,2,1,80,0,0
195228,-181.818181818182,4,2,1,80,0,0
195656,-100,4,2,1,80,0,0
198228,-133.333333333333,4,2,1,80,0,0
199085,-100,4,2,1,80,0,0
202085,-181.818181818182,4,2,1,80,0,0
202513,-100,4,2,1,80,0,0
205942,-200,4,2,1,80,0,0
207013,-133.333333333333,4,2,2,30,0,0
218263,-133.333333333333,4,2,1,50,0,0
219656,-100,4,2,1,60,0,0
233370,-80,4,2,1,70,0,0
247085,-80,4,2,1,80,0,1
259942,-80,4,2,1,80,0,0
260799,-66.6666666666667,4,2,1,80,0,1
269799,-100,4,2,1,80,0,1
270013,-200,4,2,1,80,0,1
270228,-133.333333333333,4,2,1,80,0,1
270442,-100,4,2,1,80,0,1
270656,-80,4,2,1,80,0,1
270870,-66.6666666666667,4,2,1,80,0,1
274513,-133.333333333333,4,2,1,30,0,0
277942,-133.333333333333,4,2,1,40,0,0
281370,-100,4,2,1,50,0,0
284799,-200,4,2,1,50,0,0
285228,-133.333333333333,4,2,1,50,0,0
285656,-100,4,2,1,50,0,0
286085,-80,4,2,1,50,0,0
286513,-100,4,2,1,50,0,0
288228,-100,4,2,1,100,0,1
289085,-50,4,2,1,100,0,1
291228,-40,4,2,1,100,0,1
291656,-133.333333333333,4,2,1,100,0,1
292513,-66.6666666666667,4,2,1,100,0,1
292942,-133.333333333333,4,2,1,100,0,1
293370,-50,4,2,1,100,0,1
294013,-500,4,2,1,100,0,1
294228,-50,4,2,1,100,0,1
294656,-66.6666666666667,4,2,1,100,0,1
295085,-133.333333333333,4,2,1,100,0,1
295942,-50,4,2,1,100,0,1
296799,-40,4,2,1,100,0,1
297228,-100,4,2,1,100,0,1
297656,-50,4,2,1,100,0,1
299370,-40,4,2,1,100,0,1
299799,-50,4,2,1,100,0,1
300228,-50,4,2,1,100,0,0
301085,-100,4,2,1,100,0,0
301942,-50,4,2,1,100,0,1
302799,-133.333333333333,4,2,1,100,0,1
303870,-50,4,2,1,100,0,1
304513,-133.333333333333,4,2,1,100,0,1
305370,-66.6666666666667,4,2,1,100,0,1
306228,-111.111111111111,4,2,1,100,0,1
307299,-50,4,2,1,100,0,1
308799,-133.333333333333,4,2,1,100,0,1
309656,-66.6666666666667,4,2,1,100,0,1
310085,-50,4,2,1,100,0,1
310513,-133.333333333333,4,2,1,100,0,1
310942,-100,4,2,1,100,0,1
311370,-50,4,2,1,100,0,1
311799,-66.6666666666667,4,2,1,100,0,1
312228,-100,4,2,1,100,0,1
313085,-50,4,2,1,100,0,1
314799,-200,4,2,1,100,0,1
315656,-100,4,2,1,80,0,0
318656,-181.818181818182,4,2,1,80,0,0
319085,-100,4,2,1,80,0,0
321656,-181.818181818182,4,2,1,80,0,0
322513,-100,4,2,1,80,0,0
325513,-181.818181818182,4,2,1,80,0,0
325942,-100,4,2,1,80,0,0
332370,-181.818181818182,4,2,1,80,0,0
332799,-100,4,2,1,80,0,0
335370,-133.333333333333,4,2,1,80,0,0
336228,-100,4,2,1,80,0,0
339228,-181.818181818182,4,2,1,80,0,0
339656,-100,4,2,1,80,0,0
343085,-333.333333333333,4,2,1,30,0,0
345335,-333.333333333333,4,2,2,5,0,0
345442,-333.333333333333,4,2,2,30,0,0
345978,-333.333333333333,4,2,2,5,0,0
346085,-333.333333333333,4,2,2,30,0,0
346406,-333.333333333333,4,2,2,5,0,0
346513,-333.333333333333,4,2,2,30,0,0
349835,-333.333333333333,4,2,2,5,0,0
349942,-333.333333333333,4,2,2,30,0,0
352192,-333.333333333333,4,2,2,5,0,0
352299,-333.333333333333,4,2,2,30,0,0
352835,-333.333333333333,4,2,2,5,0,0
352942,-333.333333333333,4,2,2,30,0,0
353263,-333.333333333333,4,2,2,5,0,0
353370,-333.333333333333,4,2,2,30,0,0
353906,-333.333333333333,4,2,2,5,0,0
354013,-333.333333333333,4,2,2,30,0,0
356692,-333.333333333333,4,2,2,5,0,0
356799,-333.333333333333,4,2,2,30,0,0
359049,-333.333333333333,4,2,2,5,0,0
359156,-333.333333333333,4,2,2,30,0,0
359692,-333.333333333333,4,2,2,5,0,0
359799,-333.333333333333,4,2,2,30,0,0
360120,-333.333333333333,4,2,2,5,0,0
360227,-333.333333333333,4,2,2,30,0,0
363549,-333.333333333333,4,2,2,5,0,0
363656,-333.333333333333,4,2,2,30,0,0
365906,-333.333333333333,4,2,2,5,0,0
366013,-333.333333333333,4,2,2,30,0,0
366549,-333.333333333333,4,2,2,5,0,0
366656,-333.333333333333,4,2,2,30,0,0
366978,-333.333333333333,4,2,2,5,0,0
367085,-333.333333333333,4,2,2,30,0,0
367620,-333.333333333333,4,2,2,5,0,0
367727,-333.333333333333,4,2,2,30,0,0

[Colours]
Combo1 : 232,233,180
Combo2 : 131,176,203

[HitObjects]
163,231,228,6,0,B|113:143|257:118|163:-8|78:17|67:89|111:129,1,315.000012016297,2|0,0:0|0:0,0:0:0:0:
253,244,1299,5,2,0:0:0:0:
319,211,1513,1,2,0:0:0:0:
392,215,1728,1,2,0:0:0:0:
453,254,1942,2,0,B|513:269|485:377|375:382|366:227|228:306,1,315.000012016297,2|0,0:0|0:0,0:0:0:0:
52,346,3013,5,2,0:0:0:0:
112,305,3227,1,2,0:0:0:0:
145,240,3442,1,2,0:0:0:0:
142,167,3656,2,0,B|90:-4|270:-11|229:171,1,315.000012016297,2|0,0:0|0:0,0:0:0:0:
112,305,4728,5,2,0:0:0:0:
176,337,4942,1,2,0:0:0:0:
249,333,5157,1,2,0:0:0:0:
310,293,5371,2,0,B|386:188|242:186|234:47|380:47|362:132,1,315.000012016297,2|0,0:0|0:0,0:0:0:0:
411,383,6442,5,2,0:0:0:0:
379,318,6656,1,2,0:0:0:0:
310,293,6870,1,2,0:0:0:0:
244,324,7085,2,0,B|150:227|96:407|-37:284|47:191|107:277,1,315.000012016297,2|0,0:0|0:0,0:0:0:0:
256,231,8156,5,2,0:0:0:0:
266,160,8370,1,2,0:0:0:0:
276,89,8585,1,2,0:0:0:0:
285,15,8799,2,0,B|182:2|202:132|323:196|163:278|144:191,1,315.000012016297,2|0,0:0|0:0,0:0:0:0:
35,95,9870,5,2,0:0:0:0:
85,42,10085,1,2,0:0:0:0:
157,35,10299,1,2,0:0:0:0:
222,68,10513,2,0,B|306:160|339:0|470:89|419:210|337:167,1,315.000012016297,2|0,0:0|0:0,0:0:0:0:
206,223,11585,5,2,0:0:0:0:
155,170,11800,1,2,0:0:0:0:
83,163,12014,1,2,0:0:0:0:
19,196,12228,2,0,B|8:351|183:237|189:367|74:434|70:313,1,315.000012016297,2|0,0:0|0:0,0:0:0:0:
70,54,13299,5,2,0:0:0:0:
132,91,13514,1,2,0:0:0:0:
145,162,13728,1,2,0:0:0:0:
106,224,13942,6,0,P|84:255|49:273,1,78.7500030040742,2|0,1:2|0:0,0:0:0:0:
176,267,14263,1,2,0:0:0:0:
189,257,14370,2,0,P|186:295|164:328,1,78.7500030040742,2|0,0:0|0:0,0:0:0:0:
270,259,14692,1,2,0:0:0:0:
277,243,14799,2,0,P|293:278|290:317,2,78.7500030040742,2|2|2,0:0|0:0|0:0,0:0:0:0:
403,284,15442,5,2,0:0:0:0:
403,284,15763,1,2,0:0:0:0:
403,284,16085,2,0,P|385:229|418:183,1,118.125004506111,2|0,0:0|0:0,0:0:0:0:
406,177,16513,2,0,P|421:120|411:62,1,118.125004506111,2|0,0:0|0:0,0:0:0:0:
324,41,16942,1,2,0:0:0:0:
320,56,17049,2,0,P|281:54|247:34,1,78.7500030040742,2|0,0:0|0:0,0:0:0:0:
177,93,17370,6,0,P|191:130|184:168,1,78.7500030040742,2|0,0:0|0:0,0:0:0:0:
56,196,17692,1,2,0:0:0:0:
46,183,17799,2,0,P|84:188|114:213,1,78.7500030040742,2|0,0:0|0:0,0:0:0:0:
73,338,18121,1,2,0:0:0:0:
57,340,18228,2,0,P|81:309|117:296,2,78.7500030040742,2|2|2,0:0|0:0|0:0,0:0:0:0:
207,352,18870,5,2,0:0:0:0:
207,352,19299,2,0,P|246:349|280:329,1,78.7500030040742,2|0,0:0|0:0,0:0:0:0:
292,339,19620,2,0,P|330:342|364:362,1,78.7500030040742,2|0,0:0|0:0,0:0:0:0:
376,355,19942,2,0,P|414:351|448:331,1,78.7500030040742,2|0,0:0|0:0,0:0:0:0:
462,342,20263,1,2,0:0:0:0:
462,342,20478,1,2,0:0:0:0:
465,314,20585,1,2,0:0:0:0:
467,287,20692,1,2,0:0:0:0:
470,259,20799,6,0,P|431:256|396:238,1,78.7500030040742,2|0,0:0|0:0,0:0:0:0:
406,148,21120,1,2,0:0:0:0:
415,137,21228,2,0,P|379:153|340:154,1,78.7500030040742,2|0,0:0|0:0,0:0:0:0:
303,72,21548,1,2,0:0:0:0:
305,57,21656,2,0,P|282:89|249:109,2,78.7500030040742,2|2|2,0:0|0:0|0:0,0:0:0:0:
179,54,22299,5,2,0:0:0:0:
179,54,22728,1,2,0:0:0:0:
120,95,22942,1,2,0:0:0:0:
107,164,23156,1,2,0:0:0:0:
238,229,23370,5,2,0:0:0:0:
166,214,23585,1,2,0:0:0:0:
181,141,23799,1,2,0:0:0:0:
253,156,24013,1,2,0:0:0:0:
276,305,24228,6,0,P|306:280|324:246,1,78.7500030040742,2|0,0:0|0:0,0:0:0:0:
382,348,24549,2,0,P|395:312|394:273,1,78.7500030040742,2|0,0:0|0:0,0:0:0:0:
495,332,24870,2,0,P|489:293|468:261,1,78.7500030040742,2|0,0:0|0:0,0:0:0:0:
417,198,25192,1,2,0:0:0:0:
413,181,25299,2,0,P|413:161|418:142,1,39.3750015020371,2|0,0:0|0:0,0:0:0:0:
451,46,25513,2,0,P|479:29|449:18,2,78.7500030040742,2|2|0,0:0|0:0|0:0,0:0:0:0:
452,47,26156,6,0,P|413:50|376:38,1,78.7500030040742,2|0,0:0|0:0,0:0:0:0:
322,87,26478,2,0,P|302:85|284:91,1,39.3750015020371,10|0,0:0|0:0,0:0:0:0:
214,72,26692,1,0,0:1:0:0:
196,102,26799,2,0,P|203:121|203:141,1,39.3750015020371,10|0,0:0|0:0,0:0:0:0:
286,185,27013,2,0,L|292:159,2,19.6875007510186,2|0|2,1:2|0:0|0:0,0:0:0:0:
322,248,27228,2,0,P|311:264|305:283,1,39.3750015020371,8|2,0:0|0:0,0:0:0:0:
215,321,27442,1,8,0:0:0:0:
136,318,27549,1,8,0:0:0:0:
79,260,27656,6,0,P|102:213|110:162,1,105,4|0,1:2|0:0,0:0:0:0:
205,178,27978,1,0,0:0:0:0:
212,151,28085,2,0,P|189:103|181:52,1,105,0|0,0:0|0:0,0:0:0:0:
98,42,28406,1,0,0:0:0:0:
89,18,28513,1,8,0:0:0:0:
182,53,28728,1,0,0:0:0:0:
275,18,28942,1,0,0:0:0:0:
369,52,29156,6,0,B|421:47|444:17|441:17|404:8,1,105,0|0,1:2|0:0,0:0:0:0:
332,120,29478,2,0,B|311:167|325:202|327:199|352:172,1,105,0|0,1:2|0:0,0:0:0:0:
292,53,29799,2,0,B|261:11|223:6|225:9|236:44,1,105,0|0,1:2|0:0,0:0:0:0:
168,118,30120,1,0,0:0:0:0:
168,118,30228,2,0,B|161:170,1,52.5,8|0,0:0|0:0,0:0:0:0:
161,170,30656,1,0,0:0:0:0:
169,193,30763,2,0,P|220:192|266:217,1,105,0|0,0:0|0:0,0:0:0:0:
352,308,31085,6,0,B|318:325|319:278|356:273|347:224,1,105,0|0,1:2|0:0,0:0:0:0:
317,89,31406,1,0,0:0:0:0:
311,74,31513,2,0,B|345:57|344:104|307:109|316:158,1,105,0|0,1:2|0:0,0:0:0:0:
266,217,31835,1,0,0:0:0:0:
266,217,31942,2,0,L|213:222,1,52.5,8|0,0:0|0:0,0:0:0:0:
213,221,32370,1,0,0:0:0:0:
90,333,32585,6,0,B|127:261|50:259|90:184,1,157.5
31,95,33013,6,0,P|81:109|133:109,1,105,0|0,1:2|0:0,0:0:0:0:
168,173,33335,2,0,P|218:158|270:158,1,105,0|8,1:2|0:0,0:0:0:0:
278,167,33603,1,8,0:0:0:0:
287,174,33656,2,0,L|279:248,2,52.5,8|8|0,0:0|0:0|1:0,0:0:0:0:
336,281,33978,2,0,P|354:299|364:323,1,52.5,8|0,0:0|0:0,0:0:0:0:
437,353,34192,1,0,1:2:0:0:
437,353,34299,2,0,P|440:327|453:304,1,52.5,8|0,0:0|0:0,0:0:0:0:
450,229,34513,6,0,P|423:185|379:156,1,105,4|0,1:2|0:0,0:0:0:0:
359,47,34835,1,0,0:0:0:0:
378,64,34942,2,0,P|332:88|280:91,1,105,0|0,0:0|0:0,0:0:0:0:
198,157,35263,1,0,0:0:0:0:
205,132,35370,1,12,0:0:0:0:
108,90,35585,1,0,0:0:0:0:
18,150,35799,1,0,0:0:0:0:
24,257,36013,6,0,B|123:297|102:192|206:196|202:262|162:266,1,210,0|0,1:2|0:0,0:0:0:0:
121,359,36656,1,0,0:0:0:0:
224,374,36870,1,0,1:2:0:0:
224,374,36978,1,0,1:0:0:0:
224,374,37085,1,8,0:0:0:0:
310,314,37299,1,0,0:0:0:0:
395,374,37513,1,0,0:0:0:0:
486,322,37728,1,0,0:0:0:0:
483,217,37942,6,0,B|439:156|543:148|486:71,2,157.5,0|0|0,1:2|0:0|0:0,0:0:0:0:
486,322,38799,1,8,0:0:0:0:
486,322,38906,1,0,0:0:0:0:
486,322,39013,1,0,0:0:0:0:
396,266,39228,1,0,0:0:0:0:
391,370,39442,1,0,0:0:0:0:
484,226,39656,5,2,1:2:0:0:
457,181,39763,1,2,0:0:0:0:
409,162,39870,1,2,0:0:0:0:
359,174,39977,1,2,0:0:0:0:
318,207,40085,5,2,0:0:0:0:
292,213,40192,1,2,1:2:0:0:
269,203,40299,1,2,0:0:0:0:
255,181,40406,1,2,0:0:0:0:
251,155,40513,6,0,L|244:92,1,52.5,10|0,0:0|0:0,0:0:0:0:
167,0,40728,1,2,0:0:0:0:
162,25,40835,2,0,L|156:77,1,52.5,10|0,0:0|0:0,0:0:0:0:
93,151,41049,5,2,0:0:0:0:
76,161,41156,1,2,0:0:0:0:
59,162,41263,1,2,0:0:0:0:
0,209,41370,6,0,P|45:255|108:268,1,131.25,4|0,1:2|0:0,0:0:0:0:
211,332,41692,1,0,0:0:0:0:
210,298,41799,2,0,P|218:234|241:172,1,131.25
329,50,42120,1,0,0:0:0:0:
328,83,42228,1,8,0:0:0:0:
343,213,42442,1,0,0:0:0:0:
470,180,42656,1,0,0:0:0:0:
328,83,42870,6,0,B|284:95|340:154|327:63|408:111,1,131.25,0|0,1:2|0:0,0:0:0:0:
512,126,43192,2,0,B|522:82|443:101|529:135|447:180,1,131.25,0|0,1:2|0:0,0:0:0:0:
382,263,43513,2,0,B|414:294|437:216|365:273|365:179,1,131.25,0|0,1:2|0:0,0:0:0:0:
268,6,43942,6,2,P|263:21|269:37,1,32.8125,10|2,0:0|0:0,0:0:0:0:
231,24,44049,2,2,P|235:40|248:51,1,32.8125
210,58,44156,2,2,P|222:69|238:73,1,32.8125
209,98,44263,2,2,P|224:103|239:98,1,32.8125
218,128,44370,2,0,P|218:160|234:188,1,65.625
326,170,44585,2,0,P|326:138|310:110,1,65.625
133,115,44799,6,0,P|131:179|159:240,1,131.25,0|0,1:2|0:0,0:0:0:0:
187,364,45120,1,0,0:0:0:0:
212,384,45228,2,0,P|239:324|237:259,1,131.25,0|0,1:2|0:0,0:0:0:0:
254,179,45549,1,0,0:0:0:0:
238,150,45656,1,8,0:0:0:0:
126,218,45870,1,0,0:0:0:0:
124,86,46085,1,0,0:0:0:0:
238,150,46299,6,0,B|340:110|383:190|351:233|301:218,1,196.875
301,214,46728,2,0,P|293:278|333:328,1,131.25,0|0,1:2|0:0,0:0:0:0:
261,377,47049,2,0,P|209:338|146:347,1,131.25,0|0,1:2|0:0,0:0:0:0:
134,353,47317,1,8,0:0:0:0:
125,358,47370,2,0,P|112:327|108:295,2,65.625,8|8|0,0:0|0:0|1:2,0:0:0:0:
168,257,47692,2,0,P|179:226|184:194,1,65.625,8|0,0:0|0:0,0:0:0:0:
246,157,47906,1,0,1:2:0:0:
246,157,48013,2,0,P|234:126|229:94,1,65.625,8|0,0:0|0:0,0:0:0:0:
163,47,48228,6,0,P|210:89|274:87,1,131.25,4|0,1:2|0:0,0:0:0:0:
362,34,48549,1,0,0:0:0:0:
358,1,48656,2,0,P|344:63|378:117,1,131.25
445,207,48978,1,0,0:0:0:0:
432,237,49085,1,12,0:0:0:0:
329,319,49299,1,0,0:0:0:0:
271,201,49513,1,0,0:0:0:0:
185,301,49728,6,0,B|210:288|195:237|128:250|152:328|37:311,1,196.875,0|0,1:2|0:0,0:0:0:0:
31,302,50156,1,0,0:0:0:0:
103,192,50370,1,0,0:0:0:0:
84,61,50585,1,0,1:2:0:0:
84,61,50692,1,0,1:0:0:0:
84,61,50799,6,2,L|79:93,1,32.8125,10|2,0:0|0:0,0:0:0:0:
108,72,50906,2,2,L|103:104,1,32.8125
132,83,51013,2,2,L|127:115,1,32.8125
156,94,51120,2,2,L|151:126,1,32.8125
178,99,51228,2,0,P|208:87|240:90,1,65.625
304,134,51442,2,0,P|334:145|366:142,1,65.625
419,196,51656,6,0,B|348:214|329:331|424:355|433:259,1,196.875,0|0,1:2|0:0,0:0:0:0:
494,241,52085,2,0,L|501:88,1,131.25
466,17,52513,1,8,0:0:0:0:
466,17,52620,1,0,0:0:0:0:
466,17,52728,1,0,0:0:0:0:
363,92,52942,1,0,0:0:0:0:
261,8,53156,1,0,0:0:0:0:
138,51,53370,5,2,1:2:0:0:
110,40,53477,1,2,0:0:0:0:
82,31,53584,1,2,0:0:0:0:
54,22,53692,2,10,L|27:-2,1,32.8125
81,21,53799,5,10,0:0:0:0:
113,58,53906,1,10,0:0:0:0:
121,108,54013,1,2,1:2:0:0:
101,154,54120,1,10,0:0:0:0:
73,196,54228,1,2,1:2:0:0:
71,247,54335,1,10,0:0:0:0:
96,290,54442,2,10,L|109:319,1,32.8125
128,244,54549,5,2,1:2:0:0:
182,209,54656,1,10,0:0:0:0:
246,207,54763,1,2,0:0:0:0:
302,239,54870,1,10,0:0:0:0:
333,296,54977,1,10,0:0:0:0:
387,245,55085,5,4,1:2:0:0:
390,225,55192,1,0,0:0:0:0:
394,206,55299,1,0,0:0:0:0:
398,187,55406,1,0,0:0:0:0:
448,133,55513,5,8,0:0:0:0:
444,113,55620,1,0,0:0:0:0:
440,94,55727,1,0,0:0:0:0:
436,75,55834,1,0,0:0:0:0:
376,30,55942,5,0,1:2:0:0:
361,41,56049,1,0,0:0:0:0:
343,50,56156,1,0,0:0:0:0:
325,57,56263,1,0,0:0:0:0:
261,96,56370,5,8,0:0:0:0:
241,98,56477,1,0,0:0:0:0:
221,97,56584,1,0,0:0:0:0:
202,94,56691,1,0,0:0:0:0:
138,57,56799,5,0,1:2:0:0:
127,72,56906,1,0,0:0:0:0:
118,90,57013,1,0,0:0:0:0:
111,108,57120,1,0,0:0:0:0:
56,159,57227,5,8,0:0:0:0:
54,179,57334,1,0,0:0:0:0:
55,199,57441,1,0,0:0:0:0:
58,218,57548,1,0,0:0:0:0:
114,265,57656,6,0,L|106:340,3,65.625,0|0|0|0,1:2|0:0|0:0|0:0,0:0:0:0:
162,380,58085,5,10,0:0:0:0:
227,372,58192,1,2,0:0:0:0:
292,365,58299,1,2,0:0:0:0:
357,358,58406,1,2,0:0:0:0:
411,308,58513,5,0,1:2:0:0:
419,290,58620,1,0,0:0:0:0:
418,270,58727,1,0,0:0:0:0:
410,253,58834,1,0,0:0:0:0:
341,226,58942,5,8,0:0:0:0:
332,243,59049,1,0,0:0:0:0:
333,263,59156,1,0,0:0:0:0:
341,280,59263,1,0,0:0:0:0:
410,253,59370,5,0,1:2:0:0:
407,233,59477,1,0,0:0:0:0:
397,216,59584,1,0,0:0:0:0:
381,205,59691,1,0,0:0:0:0:
333,263,59799,6,0,P|334:295|355:330,3,65.625,8|0|0|0,0:0|0:0|0:0|0:0,0:0:0:0:
381,205,60228,5,2,1:2:0:0:
371,187,60335,1,2,0:0:0:0:
307,140,60442,5,2,0:0:0:0:
297,158,60549,1,2,0:0:0:0:
233,205,60656,5,10,0:0:0:0:
223,187,60763,1,2,0:0:0:0:
159,140,60871,5,2,0:0:0:0:
149,158,60978,1,0,1:2:0:0:
69,172,61085,6,0,L|92:240,2,65.625,2|8|0,1:2|0:0|0:0,0:0:0:0:
11,332,61406,1,2,1:2:0:0:
11,332,61513,2,0,L|84:311,1,65.625,10|0,0:0|0:0,0:0:0:0:
159,356,61728,2,0,L|232:335,1,65.625,2|0,0:0|1:2,0:0:0:0:
312,310,61942,5,0,1:2:0:0:
315,290,62049,1,0,0:0:0:0:
317,270,62156,1,0,0:0:0:0:
317,251,62263,1,0,0:0:0:0:
265,197,62370,5,8,0:0:0:0:
265,178,62477,1,0,0:0:0:0:
267,158,62584,1,0,0:0:0:0:
270,138,62692,1,0,0:0:0:0:
336,105,62799,6,0,P|338:73|334:40,3,65.625,0|0|0|0,1:2|0:0|0:0|0:0,0:0:0:0:
270,138,63228,5,10,0:0:0:0:
206,128,63335,1,2,0:0:0:0:
169,76,63442,1,2,0:0:0:0:
181,13,63549,1,2,0:0:0:0:
243,55,63656,5,0,1:2:0:0:
236,73,63763,1,0,0:0:0:0:
224,88,63870,1,0,0:0:0:0:
208,99,63977,1,0,0:0:0:0:
141,132,64085,5,8,0:0:0:0:
134,113,64192,1,0,0:0:0:0:
122,98,64299,1,0,0:0:0:0:
106,87,64406,1,0,0:0:0:0:
43,123,64513,6,0,P|33:93|37:60,3,65.625,0|0|0|0,1:2|0:0|0:0|0:0,0:0:0:0:
93,187,64942,5,10,0:0:0:0:
85,252,65049,1,2,0:0:0:0:
77,317,65156,1,2,0:0:0:0:
70,382,65263,1,2,0:0:0:0:
139,351,65370,5,0,1:2:0:0:
157,346,65477,1,0,0:0:0:0:
176,351,65584,1,0,0:0:0:0:
190,365,65691,1,0,0:0:0:0:
261,351,65799,5,8,0:0:0:0:
279,356,65906,1,0,0:0:0:0:
298,351,66013,1,0,0:0:0:0:
312,337,66120,1,0,0:0:0:0:
365,285,66228,6,0,L|427:305,3,65.625,0|0|0|0,1:2|0:0|0:0|0:0,0:0:0:0:
366,215,66656,5,10,0:0:0:0:
428,200,66763,1,2,0:0:0:0:
458,144,66870,1,2,0:0:0:0:
436,84,66977,1,2,0:0:0:0:
363,97,67085,5,0,1:2:0:0:
344,91,67192,1,0,0:0:0:0:
324,92,67299,1,0,0:0:0:0:
306,100,67406,1,0,0:0:0:0:
253,156,67513,5,8,0:0:0:0:
234,163,67620,1,0,0:0:0:0:
215,164,67727,1,0,0:0:0:0:
196,159,67834,1,0,0:0:0:0:
195,86,67942,6,2,P|179:87|164:93,1,32.8125,2|2,1:2|0:0,0:0:0:0:
191,67,68049,2,2,P|175:64|159:65,1,32.8125
191,46,68156,2,2,P|176:40|161:36,1,32.8125
199,29,68263,2,2,P|186:18|172:11,1,32.8125
265,60,68370,6,0,L|264:91,1,32.8125,8|0,0:0|0:0,0:0:0:0:
335,32,68478,2,0,L|334:-1,1,32.8125,8|0,0:0|0:0,0:0:0:0:
405,59,68585,2,0,L|404:91,1,32.8125,8|0,0:0|0:0,0:0:0:0:
475,32,68692,2,0,L|474:-1,1,32.8125,8|0,0:0|0:0,0:0:0:0:
504,104,68799,5,6,0:2:0:0:
495,142,68906,1,2,0:0:0:0:
487,180,69013,1,2,0:0:0:0:
479,219,69120,1,2,0:0:0:0:
470,256,69228,2,0,P|450:290|448:329,1,78.7500030040742,10|0,0:0|0:0,0:0:0:0:
345,253,69442,1,2,0:0:0:0:
345,253,69549,2,0,P|345:292|362:327,1,78.7500030040742,2|0,0:0|1:2,0:0:0:0:
234,312,69763,1,2,0:0:0:0:
234,312,69870,2,0,P|253:345|286:367,1,78.7500030040742,2|0,0:0|0:0,0:0:0:0:
345,253,70085,5,10,0:0:0:0:
339,207,70192,1,2,0:0:0:0:
304,177,70299,1,2,0:0:0:0:
258,178,70406,1,2,0:0:0:0:
225,211,70513,5,2,1:2:0:0:
188,224,70620,1,2,0:0:0:0:
149,219,70727,1,2,0:0:0:0:
117,197,70834,1,2,0:0:0:0:
98,163,70942,2,0,L|108:85,1,78.7500030040742,10|2,0:0|0:0,0:0:0:0:
201,18,71156,1,2,0:0:0:0:
201,18,71264,2,0,L|211:96,1,78.7500030040742,2|2,0:0|1:2,0:0:0:0:
303,163,71478,1,2,0:0:0:0:
303,163,71585,2,0,L|313:84,1,78.7500030040742,2|2,0:0|0:0,0:0:0:0:
374,22,71799,5,10,0:0:0:0:
399,40,71906,1,2,0:0:0:0:
429,48,72013,1,2,0:0:0:0:
460,43,72120,1,2,0:0:0:0:
486,26,72228,5,2,1:2:0:0:
493,65,72335,1,2,0:0:0:0:
485,103,72442,1,2,0:0:0:0:
464,136,72549,1,2,0:0:0:0:
432,158,72656,2,0,P|413:192|413:231,1,78.7500030040742,10|2,0:0|0:0,0:0:0:0:
512,347,72870,1,0,0:0:0:0:
512,347,72978,2,0,P|492:313|458:294,1,78.7500030040742,2|2,0:0|1:2,0:0:0:0:
308,321,73192,1,0,0:0:0:0:
308,321,73299,2,0,P|346:320|380:300,1,78.7500030040742,2|2,0:0|0:0,0:0:0:0:
311,154,73513,5,10,0:0:0:0:
265,166,73620,1,2,0:0:0:0:
219,178,73727,1,2,0:0:0:0:
174,190,73834,1,2,0:0:0:0:
128,202,73942,5,2,1:2:0:0:
67,159,74049,1,2,0:0:0:0:
86,88,74156,1,2,0:0:0:0:
159,82,74263,1,2,0:0:0:0:
190,149,74370,5,10,0:0:0:0:
153,147,74477,1,2,0:0:0:0:
135,114,74584,1,2,0:0:0:0:
156,83,74691,1,2,0:0:0:0:
194,86,74798,5,2,1:2:0:0:
176,77,74906,1,2,0:0:0:0:
169,59,75013,1,2,0:0:0:0:
175,41,75120,1,2,1:2:0:0:
192,32,75228,2,0,P|230:40|260:65,1,78.7500030040742,10|2,0:0|1:2,0:0:0:0:
362,57,75442,2,0,P|374:94|367:132,1,78.7500030040742,2|10,0:0|0:0,0:0:0:0:
272,168,75656,5,2,1:2:0:0:
234,180,75763,1,2,0:0:0:0:
204,205,75870,1,2,0:0:0:0:
186,240,75977,1,2,0:0:0:0:
182,279,76085,2,0,P|220:279|254:259,1,78.7500030040742,10|2,0:0|0:0,0:0:0:0:
219,114,76299,1,2,0:0:0:0:
219,114,76406,2,0,P|237:148|271:167,1,78.7500030040742,2|2,0:0|1:2,0:0:0:0:
380,63,76620,1,2,0:0:0:0:
380,63,76728,2,0,P|359:96|360:135,1,78.7500030040742,2|2,0:0|0:0,0:0:0:0:
336,312,76942,5,10,0:0:0:0:
401,346,77049,1,2,0:0:0:0:
457,297,77156,1,2,0:0:0:0:
433,228,77263,1,2,0:0:0:0:
359,225,77370,5,2,1:2:0:0:
319,227,77477,1,2,0:0:0:0:
282,216,77584,1,2,0:0:0:0:
251,192,77691,1,2,0:0:0:0:
230,159,77799,2,0,L|233:81,1,78.7500030040742,10|2,0:0|0:0,0:0:0:0:
151,249,78013,1,2,0:0:0:0:
151,249,78120,2,0,L|154:327,1,78.7500030040742,2|2,0:0|1:2,0:0:0:0:
71,159,78335,1,2,0:0:0:0:
71,159,78442,2,0,L|74:80,1,78.7500030040742,2|2,0:0|0:0,0:0:0:0:
230,159,78656,5,10,0:0:0:0:
260,165,78763,1,2,0:0:0:0:
290,158,78870,1,2,0:0:0:0:
315,139,78977,1,2,0:0:0:0:
328,111,79085,5,2,1:2:0:0:
358,86,79192,1,2,0:0:0:0:
396,85,79299,1,2,0:0:0:0:
429,106,79406,1,2,0:0:0:0:
441,142,79513,2,0,P|449:181|438:218,1,78.7500030040742,10|2,0:0|0:0,0:0:0:0:
305,241,79728,1,2,0:0:0:0:
305,241,79835,2,0,P|313:203|339:174,1,78.7500030040742,2|2,0:0|1:2,0:0:0:0:
388,321,80049,1,2,0:0:0:0:
388,321,80156,2,0,P|358:346|321:355,1,78.7500030040742,2|2,0:0|0:0,0:0:0:0:
208,342,80370,5,10,0:0:0:0:
160,340,80477,1,2,0:0:0:0:
113,338,80584,1,2,0:0:0:0:
66,336,80691,1,2,0:0:0:0:
19,334,80799,2,0,L|11:273,1,52.5,2|2,1:2|0:0,0:0:0:0:
92,262,81013,1,2,0:0:0:0:
92,262,81120,2,0,L|99:210,1,52.5,2|2,1:2|0:0,0:0:0:0:
0,73,81335,5,10,0:0:0:0:
34,115,81442,1,2,1:2:0:0:
88,133,81549,1,2,1:2:0:0:
142,118,81656,2,0,L|200:96,1,52.5,10|2,0:0|0:0,0:0:0:0:
362,1,81870,1,2,1:2:0:0:
346,53,81977,2,0,L|334:114,1,52.5,10|0,0:0|0:0,0:0:0:0:
338,302,82192,1,2,1:2:0:0:
300,262,82299,2,0,L|252:219,1,52.5,8|0,0:0|0:0,0:0:0:0:
142,118,82513,6,0,B|98:57|9:106|2:239|175:200|127:325,1,330.749989906311,6|0,0:0|0:0,0:0:0:0:
127,338,84870,6,0,P|165:330|201:344,1,78.7499975967408,2|0,0:0|0:0,0:0:0:0:
214,349,85513,2,0,L|224:298,1,47.2499985580445,2|0,0:0|0:0,0:0:0:0:
231,288,85942,6,0,B|189:283|124:222|291:109|267:224|300:275|401:269|503:170|380:16|286:100,1,488.249985099793,2|0,0:0|0:0,0:0:0:0:
279,109,89370,6,0,B|193:-26|80:271|8:108,1,330.749989906311,2|0,0:0|0:0,0:0:0:0:
9,131,91728,6,0,L|19:209,1,78.7499975967408,2|0,0:0|0:0,0:0:0:0:
21,229,92370,2,0,P|55:248|58:254,1,47.2499985580445,2|0,0:0|0:0,0:0:0:0:
63,273,92799,6,0,B|110:295|133:240,1,78.7499975967408,2|0,0:0|0:0,0:0:0:0:
146,235,93442,6,0,P|177:320|265:168,1,393.749987983704,2|0,0:0|0:0,0:0:0:0:
259,163,96228,6,0,B|190:174|166:88|236:-10|409:144,1,330.749989906311,2|0,0:0|0:0,0:0:0:0:
426,148,98585,6,0,P|408:182|401:221,1,78.7499975967408,2|0,0:0|0:0,0:0:0:0:
386,234,99228,2,0,P|401:253|405:276,1,47.2499985580445,2|0,0:0|0:0,0:0:0:0:
421,307,99656,6,0,B|256:202|247:393|39:383|17:246|127:163|170:239,1,488.249985099793,2|0,0:0|0:0,0:0:0:0:
166,241,103085,6,0,B|293:224|158:12|128:229|24:164|29:75|85:61,1,330.749989906311,2|0,0:0|0:0,0:0:0:0:
81,52,105442,6,0,P|116:70|155:68,1,78.7499975967408,2|0,0:0|0:0,0:0:0:0:
163,81,106085,2,0,P|183:67|206:62,1,47.2499985580445,2|0,0:0|0:0,0:0:0:0:
223,76,106513,6,0,P|235:40|272:35,1,78.7499975967408,2|0,0:0|0:0,0:0:0:0:
294,33,107156,6,0,B|209:255|430:326|455:141|381:112,1,393.749987983704,2|0,0:0|0:0,0:0:0:0:
392,101,109942,6,0,B|284:54|284:152|180:103,1,220.499993270874,6|0,1:2|0:0,0:0:0:0:
171,92,110799,2,0,B|217:240|100:258|80:183,1,220.499993270874,2|0,0:0|0:0,0:0:0:0:
69,189,111656,6,0,P|111:234|171:227,1,125.999996154785,2|0,0:0|0:0,0:0:0:0:
370,244,112299,2,0,P|309:236|267:320,1,157.499995193482,2|0,0:0|0:0,0:0:0:0:
277,320,112942,2,0,P|281:275|257:232,1,94.499997116089,2|0,0:0|0:0,0:0:0:0:
241,217,113370,6,0,L|244:185,1,31.4999990386963,2|0,0:0|0:0,0:0:0:0:
169,201,113585,2,0,L|172:169,1,31.4999990386963,2|0,0:0|0:0,0:0:0:0:
97,185,113799,2,0,L|100:153,1,31.4999990386963,2|0,0:0|0:0,0:0:0:0:
76,260,114013,5,2,0:0:0:0:
76,260,114120,2,0,P|60:255|48:246,1,31.4999990386963,2|0,0:0|0:0,0:0:0:0:
129,321,114335,1,2,0:0:0:0:
129,321,114442,2,0,P|113:325|101:334,1,31.4999990386963,2|0,0:0|0:0,0:0:0:0:
202,334,114656,2,0,L|205:365,1,31.4999990386963,2|0,0:0|0:0,0:0:0:0:
271,302,114870,5,2,0:0:0:0:
271,302,114978,2,0,P|286:306|298:315,1,31.4999990386963,2|0,0:0|0:0,0:0:0:0:
323,240,115192,1,2,0:0:0:0:
323,240,115299,2,0,P|339:236|351:227,1,31.4999990386963,2|0,0:0|0:0,0:0:0:0:
300,142,115513,2,0,P|296:157|289:172,1,31.4999990386963,2|0,0:0|0:0,0:0:0:0:
221,196,115728,5,2,0:0:0:0:
221,196,115835,2,0,L|189:192,1,31.4999990386963,2|0,0:0|0:0,0:0:0:0:
130,153,116049,1,2,0:0:0:0:
130,153,116156,2,0,L|98:156,1,31.4999990386963,2|0,0:0|0:0,0:0:0:0:
57,214,116370,2,0,L|25:210,1,31.4999990386963,2|0,0:0|0:0,0:0:0:0:
139,239,116585,5,2,0:0:0:0:
139,239,116692,1,2,0:0:0:0:
139,239,116799,2,0,B|207:384|35:397|64:289,1,220.499993270874,2|0,0:0|0:0,0:0:0:0:
44,318,117656,2,0,B|105:213|-28:202|57:95,1,220.499993270874,2|0,0:0|0:0,0:0:0:0:
30,97,118513,6,0,P|86:122|137:91,1,125.999996154785,2|0,0:0|0:0,0:0:0:0:
296,42,119156,2,0,P|366:19|412:78,1,157.499995193482,2|0,0:0|0:0,0:0:0:0:
426,93,119799,2,0,P|397:129|400:176,1,94.499997116089,2|0,0:0|0:0,0:0:0:0:
412,191,120228,6,0,P|401:203|396:218,1,31.4999990386963,2|0,0:0|0:0,0:0:0:0:
335,261,120442,2,0,P|345:272|350:287,1,31.4999990386963,2|0,0:0|0:0,0:0:0:0:
412,330,120656,2,0,P|401:341|396:356,1,31.4999990386963,2|0,0:0|0:0,0:0:0:0:
322,371,120870,5,2,0:0:0:0:
322,371,120978,2,0,L|292:361,1,31.4999990386963,2|0,0:0|0:0,0:0:0:0:
233,321,121192,1,2,0:0:0:0:
233,321,121300,2,0,L|203:330,1,31.4999990386963,2|0,0:0|0:0,0:0:0:0:
144,372,121513,2,0,L|114:362,1,31.4999990386963,2|0,0:0|0:0,0:0:0:0:
70,301,121728,5,2,0:0:0:0:
70,301,121835,2,0,P|73:285|80:271,1,31.4999990386963,2|0,0:0|0:0,0:0:0:0:
20,229,122049,1,2,0:0:0:0:
20,229,122156,2,0,P|16:213|9:199,1,31.4999990386963,2|0,0:0|0:0,0:0:0:0:
70,157,122370,2,0,P|73:141|80:127,1,31.4999990386963,2|0,0:0|0:0,0:0:0:0:
146,87,122585,1,2,0:0:0:0:
146,87,122692,2,0,P|154:101|154:117,1,31.4999990386963,2|0,0:0|0:0,0:0:0:0:
230,136,122906,1,2,0:0:0:0:
230,136,123013,1,2,0:0:0:0:
230,136,123120,2,0,L|232:116,1,15.7499995193482,2|0,1:2|1:2,0:0:0:0:
276,145,123228,5,2,1:2:0:0:
332,153,123335,1,2,1:2:0:0:
388,162,123442,1,2,1:2:0:0:
444,171,123549,1,2,1:2:0:0:
500,180,123656,6,0,B|591:62|463:17|334:106|542:188|460:270,1,330.749989906311,6|0,1:2|0:0,0:0:0:0:
480,272,124513,2,0,B|351:171|338:386|175:270,1,330.749989906311,2|0,0:0|0:0,0:0:0:0:
159,282,125370,6,0,P|188:218|178:149,1,141.749995674133,2|0,0:0|0:0,0:0:0:0:
189,137,125799,2,0,P|194:115|208:96,1,47.2499985580445,2|0,0:0|0:0,0:0:0:0:
184,23,126013,2,0,P|233:71|302:77,1,141.749995674133,2|0,0:0|0:0,0:0:0:0:
312,95,126442,2,0,P|335:92|355:104,1,47.2499985580445,2|0,0:0|0:0,0:0:0:0:
392,207,126656,2,0,P|378:146|319:166,1,141.749995674133,2|0,0:0|0:0,0:0:0:0:
288,237,127085,6,0,P|286:261|295:282,1,47.2499985580445,2|0,0:0|0:0,0:0:0:0:
366,314,127299,2,0,P|387:303|402:284,1,47.2499985580445,2|0,0:0|0:0,0:0:0:0:
392,208,127513,2,0,P|372:194|349:191,1,47.2499985580445,2|0,0:0|0:0,0:0:0:0:
288,238,127728,5,2,0:0:0:0:
288,238,127835,2,0,P|264:239|243:230,1,47.2499985580445,2|0,0:0|0:0,0:0:0:0:
171,249,128049,1,2,0:0:0:0:
171,249,128156,2,0,P|149:238|135:220,1,47.2499985580445,2|0,0:0|0:0,0:0:0:0:
64,201,128370,2,0,P|50:181|47:158,1,47.2499985580445,2|0,0:0|0:0,0:0:0:0:
79,274,128585,5,2,0:0:0:0:
79,274,128692,2,0,P|81:297|77:320,1,47.2499985580445,2|0,0:0|0:0,0:0:0:0:
142,362,128906,1,2,0:0:0:0:
142,362,129013,2,0,P|160:347|182:339,1,47.2499985580445,2|0,0:0|0:0,0:0:0:0:
258,344,129228,2,0,P|279:353|297:368,1,47.2499985580445,2|0,0:0|0:0,0:0:0:0:
223,276,129442,5,2,0:0:0:0:
223,276,129549,2,0,P|221:252|225:229,1,47.2499985580445,2|0,0:0|0:0,0:0:0:0:
161,197,129763,1,2,0:0:0:0:
161,197,129870,2,0,P|162:173|158:150,1,47.2499985580445,2|0,0:0|0:0,0:0:0:0:
220,110,130085,1,2,0:0:0:0:
220,110,130192,2,0,P|218:86|222:63,1,47.2499985580445,2|0,0:0|0:0,0:0:0:0:
280,170,130406,1,2,0:0:0:0:
280,170,130513,6,0,B|376:109|378:262|521:201|511:102|438:55|378:106,1,330.749989906311,2|0,0:0|0:0,0:0:0:0:
381,81,131370,6,0,B|266:50|144:110|188:238|256:246,1,330.749989906311,2|0,0:0|0:0,0:0:0:0:
251,272,132228,6,0,P|309:268|381:325,1,141.749995674133,2|0,0:0|0:0,0:0:0:0:
391,330,132656,2,0,P|393:306|407:287,1,47.2499985580445,2|0,0:0|0:0,0:0:0:0:
501,278,132870,6,0,P|475:225|390:191,1,141.749995674133,2|0,0:0|0:0,0:0:0:0:
380,185,133298,2,0,P|398:171|408:149,1,47.2499985580445,2|0,0:0|0:0,0:0:0:0:
332,127,133513,2,0,P|264:142|201:111,1,141.749995674133,2|0,0:0|0:0,0:0:0:0:
189,100,133942,6,0,L|191:147,1,47.2499985580445,2|0,0:0|0:0,0:0:0:0:
125,180,134156,2,0,L|127:227,1,47.2499985580445,2|0,0:0|0:0,0:0:0:0:
194,263,134370,2,0,L|196:310,1,47.2499985580445,2|0,0:0|0:0,0:0:0:0:
137,358,134585,5,2,0:0:0:0:
137,358,134692,2,0,P|117:344|94:342,1,47.2499985580445,2|0,0:0|0:0,0:0:0:0:
1,306,134906,1,2,0:0:0:0:
1,306,135013,2,0,P|24:302|44:290,1,47.2499985580445,2|0,0:0|0:0,0:0:0:0:
141,273,135228,2,0,P|119:262|105:243,1,47.2499985580445,2|0,0:0|0:0,0:0:0:0:
40,168,135442,5,2,0:0:0:0:
40,168,135549,2,0,P|34:191|38:215,1,47.2499985580445,2|0,0:0|0:0,0:0:0:0:
111,140,135763,1,2,0:0:0:0:
111,140,135870,2,0,P|115:116|110:94,1,47.2499985580445,2|0,0:0|0:0,0:0:0:0:
38,65,136085,2,0,P|34:41|40:19,1,47.2499985580445,2|0,0:0|0:0,0:0:0:0:
118,21,136299,5,2,0:0:0:0:
118,21,136406,2,0,P|141:25|161:37,1,47.2499985580445,2|0,0:0|0:0,0:0:0:0:
216,120,136620,1,2,0:0:0:0:
216,120,136728,1,2,0:0:0:0:
216,120,136835,2,0,L|251:98,1,23.6249992790222,8|8,0:0|0:0,0:0:0:0:
284,85,136942,5,8,0:0:0:0:
360,96,137049,1,8,0:0:0:0:
397,165,137156,1,8,0:0:0:0:
367,236,137263,1,8,0:0:0:0:
292,256,137370,5,12,1:2:0:0:
288,260,137799,1,8,0:2:0:0:
222,170,138228,5,8,0:2:0:0:
214,162,138657,1,8,0:2:0:0:
181,287,139085,5,8,0:2:0:0:
165,303,139514,1,8,0:2:0:0:
144,121,139942,5,8,0:2:0:0:
112,89,140371,1,8,0:2:0:0:
87,284,140799,5,8,0:2:0:0:
23,348,141228,1,8,0:2:0:0:
294,223,141656,5,8,0:2:0:0:
390,319,142085,1,8,0:2:0:0:
137,125,142513,5,8,0:2:0:0:
7,254,142942,1,8,0:2:0:0:
315,90,143370,5,8,0:2:0:0:
491,265,143799,1,8,0:2:0:0:
256,248,144013,5,0,0:0:0:0:
256,248,144120,1,0,0:0:0:0:
255,248,144228,2,0,P|268:219|270:187,1,62.9999980773926,2|0,1:2|0:0,0:0:0:0:
346,164,144442,2,0,P|333:135|331:103,1,62.9999980773926,2|0,0:0|0:0,0:0:0:0:
274,50,144656,2,0,P|215:72|152:67,1,125.999996154785,2|0,0:0|0:0,0:0:0:0:
79,68,144978,2,0,P|69:38|74:7,1,62.9999980773926,2|0,0:0|0:0,0:0:0:0:
120,139,145192,1,2,0:0:0:0:
120,139,145299,2,0,P|125:169|115:199,1,62.9999980773926,2|0,0:0|0:0,0:0:0:0:
49,249,145513,2,0,P|109:231|164:257,1,125.999996154785,2|0,0:0|0:0,0:0:0:0:
273,209,145835,6,0,P|259:237|255:268,1,62.9999980773926,2|0,0:0|0:0,0:0:0:0:
372,268,146049,1,2,0:0:0:0:
372,268,146156,2,0,P|367:236|354:208,1,62.9999980773926,2|0,0:0|0:0,0:0:0:0:
319,142,146370,2,0,L|343:11,1,125.999996154785,2|0,0:0|0:0,0:0:0:0:
424,19,146692,2,0,P|453:28|484:22,1,62.9999980773926,2|0,0:0|0:0,0:0:0:0:
434,128,146906,1,2,0:0:0:0:
434,128,147013,2,0,P|464:121|487:100,1,62.9999980773926,2|0,0:0|0:0,0:0:0:0:
392,206,147228,2,0,P|382:235|388:266,1,62.9999980773926,2|0,0:0|0:0,0:0:0:0:
484,330,147442,5,0,0:0:0:0:
484,330,147549,1,0,0:0:0:0:
484,330,147656,2,0,P|493:300|487:269,1,62.9999980773926,8|0,0:0|0:0,0:0:0:0:
308,239,147870,5,0,0:0:0:0:
308,239,147977,1,0,0:0:0:0:
308,239,148084,2,0,P|306:270|320:297,1,62.9999980773926,8|0,0:0|0:0,0:0:0:0:
487,229,148299,5,0,0:0:0:0:
487,229,148406,1,0,0:0:0:0:
487,229,148513,2,0,P|480:198|459:175,1,62.9999980773926,8|0,0:0|0:0,0:0:0:0:
295,313,148728,5,0,0:0:0:0:
295,313,148835,1,0,0:0:0:0:
295,313,148942,2,0,P|309:340|335:357,1,62.9999980773926,8|0,0:0|0:0,0:0:0:0:
501,302,149156,5,8,0:0:0:0:
487,229,149263,1,8,0:0:0:0:
473,156,149370,1,8,0:0:0:0:
473,156,150549,6,0,L|510:140,2,31.4999990386963,8|0|0,0:3|0:0|0:3,0:0:0:0:
397,161,150763,1,8,0:3:0:0:
339,112,150870,1,8,0:3:0:0:
263,110,150978,1,8,0:3:0:0:
202,163,151085,6,0,B|174:169|161:202|161:202|180:238|256:229,1,157.5,4|0,1:2|0:0,0:0:0:0:
343,286,151513,5,0,0:2:0:0:
360,290,151584,5,0,0:2:0:0:
378,291,151655,5,0,0:2:0:0:
395,289,151727,5,0,0:2:0:0:
412,284,151798,5,0,0:2:0:0:
428,277,151870,5,0,0:2:0:0:
442,267,151942,6,0,B|512:204|497:106|497:106|465:184|383:157,1,315,8|0,0:0|0:0,0:0:0:0:
160,101,152370,1,0,0:0:0:0:
90,124,152478,1,0,0:0:0:0:
90,198,152585,1,0,0:0:0:0:
160,220,152692,1,0,0:0:0:0:
202,161,152799,6,0,B|147:82|147:82|120:299,1,315,0|0,1:2|0:0,0:0:0:0:
406,331,153228,1,0,0:0:0:0:
442,267,153335,1,0,0:0:0:0:
406,203,153442,1,0,0:0:0:0:
442,139,153549,1,0,0:0:0:0:
406,75,153656,2,0,P|405:30|446:47,1,105,8|0,0:0|0:0,0:0:0:0:
202,161,153870,5,0,0:0:0:0:
193,176,153978,1,0,0:0:0:0:
144,115,154085,2,0,B|96:100|96:100|58:114|58:114|19:105,1,131.25
303,120,154299,1,0,0:0:0:0:
312,135,154407,1,0,0:0:0:0:
361,74,154514,6,0,B|406:81|430:33|430:33|449:138|371:77|409:237,1,275.62501051426,0|0,1:2|0:0,0:0:0:0:
447,354,155370,2,0,B|485:342|485:342|499:305,1,78.7500030040742,8|0,0:0|0:0,0:0:0:0:
403,213,155585,2,0,B|365:225|365:225|350:261,1,78.7500030040742
324,356,155799,6,2,B|274:329|221:339|221:339|182:321|168:280|168:280|119:299|91:344|91:344|35:321|12:265,1,393.75,2|0,0:1|0:0,0:1:0:0:
112,87,156228,5,0,1:2:0:0:
159,33,156335,1,0,0:2:0:0:
230,20,156442,1,0,0:2:0:0:
294,54,156549,1,0,0:2:0:0:
323,120,156656,2,0,B|315:224,1,105
421,282,156870,6,0,L|419:292,1,10.5,0|0,1:2|0:0,0:0:0:0:
265,362,157085,6,0,P|344:256|410:373,1,315,8|0,0:0|0:0,0:0:0:0:
283,357,157513,2,0,P|343:278|393:364,1,236.250009012223
170,252,157942,6,0,B|240:208|261:319|115:392|121:208|15:298,1,275.62501051426,4|0,1:2|0:0,0:0:0:0:
26,313,158799,6,0,B|59:268|59:268|28:165|28:165|107:14,1,315,8|0,0:0|0:0,0:0:0:0:
223,24,159228,5,0,0:0:0:0:
248,89,159335,1,0,0:0:0:0:
317,100,159442,1,0,0:0:0:0:
369,52,159549,1,0,0:0:0:0:
436,73,159656,6,0,B|431:154|431:154|422:165|422:165|412:258|412:258|406:269|406:269|395:360|395:360|358:255,1,393.75,0|0,1:2|0:0,0:0:0:0:
221,267,160085,6,0,B|136:213|96:312|148:322,1,157.5
36,321,160513,6,0,B|37:246|101:186|101:186|162:244|157:331,1,315,8|0,0:0|0:0,0:0:0:0:
394,335,160942,5,0,0:0:0:0:
464,358,161049,1,0,0:0:0:0:
507,298,161156,1,0,0:0:0:0:
463,239,161263,1,0,0:0:0:0:
393,261,161370,6,0,B|294:199|413:135|283:94|283:94|338:130|319:185,1,315,0|0,1:2|0:0,0:0:0:0:
215,204,161799,2,0,B|182:239|182:239|183:270,1,78.7500030040742
245,354,162013,2,0,B|277:318|277:318|276:287,1,78.7500030040742
322,173,162228,6,0,B|333:125|278:91|278:91|118:120|118:120|98:157|98:157|2:175,1,393.75,8|0,0:0|0:0,0:0:0:0:
0,355,162656,5,0,0:0:0:0:
72,340,162763,1,0,0:0:0:0:
144,326,162870,1,0,0:0:0:0:
216,311,162977,1,0,0:0:0:0:
288,245,163085,5,2,1:2:0:0:
333,205,163192,1,2,0:0:0:0:
330,144,163299,1,2,0:0:0:0:
281,109,163406,1,2,0:0:0:0:
222,127,163513,5,2,0:0:0:0:
192,118,163620,1,2,0:0:0:0:
169,97,163727,1,2,0:0:0:0:
158,68,163834,1,2,0:0:0:0:
161,37,163942,6,0,L|151:12,1,26.25,8|0,0:0|0:0,0:0:0:0:
205,35,164049,2,0,L|208:8,1,26.25
243,54,164156,2,0,L|258:33,1,26.25
273,89,164263,2,0,L|297:78,1,26.25
312,157,164370,6,0,L|301:181,1,26.25
355,159,164477,2,0,L|358:185,1,26.25
393,140,164584,2,0,L|408:160,1,26.25
423,105,164691,2,0,L|447:115,1,26.25
494,55,164799,6,0,L|501:175,1,105,4|0,1:2|0:0,0:0:0:0:
413,341,165013,1,0,0:0:0:0:
403,360,165120,1,0,0:0:0:0:
351,289,165228,2,0,L|357:184,1,105
233,67,165442,1,0,0:0:0:0:
223,48,165549,1,0,0:0:0:0:
183,126,165657,6,0,B|196:206|124:229|124:229|254:335|96:359|130:298,1,315.000012016297,8|0,0:0|1:2,0:0:0:0:
129,300,166728,6,0,B|176:282|176:282|226:303,1,105
368,206,166942,2,0,B|321:224|321:224|270:202,1,105
231,31,167156,1,0,0:0:0:0:
246,41,167263,1,0,0:0:0:0:
323,73,167370,6,2,B|428:1|425:151|550:93|552:60|552:23|511:-8|472:39|472:39|403:131|501:325|501:325|403:131|265:205,1,918.75,10|0,1:2|0:1,0:1:0:0:
195,268,168228,6,0,B|251:275|265:333|265:333|247:260|271:201,1,236.250009012223,0|0,1:2|0:0,0:0:0:0:
181,351,168656,2,0,L|103:358,1,78.7500030040742
0,237,168870,2,0,L|78:244,1,78.7500030040742
111,103,169085,6,0,B|73:68|86:-61|263:-38|252:157|151:213,1,377.999988464356,8|0,0:0|1:2,0:0:0:0:
157,209,170156,6,0,P|164:260|200:297,1,105
359,198,170370,2,0,P|318:229|304:279,1,105
384,383,170585,5,0,1:2:0:0:
395,367,170692,1,0,0:0:0:0:
453,309,170799,2,0,B|461:284|461:284|438:205,1,105,8|0,0:0|0:0,0:0:0:0:
248,27,171013,1,0,0:0:0:0:
259,43,171120,1,0,0:0:0:0:
317,101,171227,2,0,B|332:144|276:150|302:204,1,105
271,343,171442,1,0,0:0:0:0:
344,340,171549,1,0,0:0:0:0:
303,278,171656,6,0,B|165:187|192:349|76:339|9:204|144:147|177:221,1,367.5,4|0,1:2|0:0,0:0:0:0:
169,357,172513,6,0,P|93:355|19:216,1,236.250009012223,8|0,0:0|0:0,0:0:0:0:
16,94,172942,5,0,0:0:0:0:
53,35,173049,1,0,0:0:0:0:
123,23,173156,1,0,0:0:0:0:
178,69,173263,1,0,0:0:0:0:
180,140,173370,6,0,B|221:209|300:167|300:167|253:226|306:288|306:288|378:251|356:183,1,393.75,0|0,1:2|0:0,0:0:0:0:
435,77,173799,6,0,B|409:85|401:145|418:141,1,78.7500030040742
504,204,174013,2,0,B|478:198|440:246|457:251,1,78.7500030040742
512,345,174228,6,0,B|382:343|382:343|371:359|371:359|201:356,1,315,8|0,0:0|0:0,0:0:0:0:
108,277,174656,6,0,P|127:311|121:349,1,78.7500030040742
17,363,174870,2,0,P|0:328|5:290,1,78.7500030040742
53,219,175085,6,0,B|-5:117|144:127|133:-11|-12:8|44:82,1,262.5,0|0,1:2|0:0,0:0:0:0:
161,83,175728,1,0,0:0:0:0:
167,100,175835,1,0,0:0:0:0:
196,168,175942,6,0,B|261:111|337:166|337:166|430:231|491:171,1,315,8|0,0:0|0:0,0:0:0:0:
452,34,176370,5,0,0:0:0:0:
389,68,176477,1,0,0:0:0:0:
373,137,176584,1,0,0:0:0:0:
407,198,176692,1,0,0:0:0:0:
331,284,176799,5,2,1:2:0:0:
288,328,176906,1,2,0:0:0:0:
226,334,177013,1,2,0:0:0:0:
176,299,177120,1,2,0:0:0:0:
159,238,177228,5,2,0:0:0:0:
139,213,177335,1,2,0:0:0:0:
110,202,177442,1,2,0:0:0:0:
79,206,177549,1,2,0:0:0:0:
55,224,177656,6,0,P|75:339|132:339,1,183.75,8|0,0:0|0:0,0:0:0:0:
121,327,178513,6,0,B|196:263|291:327|291:327|383:388|461:326,1,367.5,6|0,1:2|0:0,0:0:0:0:
477,343,179370,2,0,P|457:179|495:27,1,315,14|0,0:0|0:0,0:0:0:0:
404,66,180120,5,0,1:2:0:0:
404,66,180228,2,0,B|286:2|299:158|167:136|168:31,1,262.5,2|0,1:2|0:0,0:0:0:0:
162,70,180870,1,2,0:0:0:0:
0,196,181085,2,0,P|49:140|130:141,1,157.5,10|0,0:0|0:0,0:0:0:0:
159,255,181513,6,0,P|129:223|89:209,1,86.6250026435853,2|0,0:0|0:0,0:0:0:0:
78,215,181942,6,0,P|103:210|126:197,1,52.5,2|0,1:2|0:0,0:0:0:0:
192,151,182156,2,0,P|217:156|240:169,1,52.5,2|0,0:0|0:0,0:0:0:0:
306,215,182370,2,0,P|331:210|354:197,1,52.5,2|0,0:0|0:0,0:0:0:0:
435,217,182585,1,2,0:0:0:0:
435,217,182692,1,2,0:0:0:0:
434,217,182799,2,0,P|422:240|421:266,1,52.5,8|0,0:0|0:0,0:0:0:0:
512,355,183013,2,0,P|497:333|475:319,1,52.5,2|0,0:0|0:0,0:0:0:0:
302,344,183228,2,0,P|353:356|402:339,1,105,2|0,0:0|0:0,0:0:0:0:
421,266,183549,5,2,1:2:0:0:
421,266,183656,2,0,L|435:162,1,105,0|0,1:2|0:0,0:0:0:0:
338,224,183978,2,0,L|324:120,1,105,0|0,1:2|0:0,0:0:0:0:
241,215,184299,2,0,L|248:163,1,52.5,0|0,1:2|0:0,0:0:0:0:
146,145,184513,6,0,B|252:10|41:14|45:111|195:144|107:205,1,275.62501051426,8|0,0:0|0:0,0:0:0:0:
113,197,185370,6,0,B|53:175|50:314|206:349|207:131|359:248,1,367.5,6|0,1:2|0:0,0:0:0:0:
377,271,186228,2,0,B|374:177|365:49|560:104|479:222,1,315,14|0,0:0|0:0,0:0:0:0:
288,152,186978,5,0,1:2:0:0:
288,152,187085,2,0,B|248:87|277:4|277:4|248:87|172:99,1,262.5,2|0,1:2|0:0,0:0:0:0:
201,84,187728,1,2,0:0:0:0:
24,60,187942,2,0,P|90:99|121:170,1,157.5,8|0,0:0|0:0,0:0:0:0:
23,244,188370,6,0,P|41:205|35:163,1,86.6250026435853,2|0,0:0|0:0,0:0:0:0:
10,260,188799,6,0,P|35:254|64:258,1,52.5,2|0,1:2|0:0,0:0:0:0:
132,239,189013,2,0,P|157:246|179:265,1,52.5,2|0,0:0|0:0,0:0:0:0:
248,281,189228,2,0,P|265:300|275:327,1,52.5,2|0,2:0|2:0,2:0:0:0:
362,359,189442,1,2,0:0:0:0:
362,359,189549,1,2,0:0:0:0:
362,359,189656,2,0,P|369:333|388:311,1,52.5,8|0,2:0|2:0,2:0:0:0:
333,257,189870,2,0,P|319:234|295:218,1,52.5,2|0,2:0|2:0,2:0:0:0:
333,150,190085,2,0,P|358:104|406:86,1,105,2|0,2:0|2:0,2:0:0:0:
468,180,190406,5,2,1:2:0:0:
468,180,190513,2,0,L|416:169,1,52.5,0|0,1:2|0:0,0:0:0:0:
366,100,190728,2,0,L|314:110,1,52.5,2|0,1:2|0:0,0:0:0:0:
264,180,190942,2,0,L|212:169,1,52.5,2|0,0:0|0:0,0:0:0:0:
162,100,191156,1,0,0:0:0:0:
162,100,191263,1,0,1:2:0:0:
162,100,191370,2,0,L|58:118,1,105,8|0,0:0|0:0,0:0:0:0:
27,137,191692,6,0,L|21:103,1,26.25
12,169,191799,1,2,0:0:0:0:
0,219,191906,1,2,0:0:0:0:
20,267,192013,1,2,0:0:0:0:
64,295,192120,1,2,0:0:0:0:
115,292,192228,6,0,B|346:146|423:339|301:355,1,367.5,6|0,1:2|0:0,0:0:0:0:
288,357,193085,2,0,B|197:222|365:225|264:61,1,315,14|0,0:0|0:0,0:0:0:0:
372,70,193835,5,2,1:2:0:0:
372,70,193942,2,0,B|483:117|528:36|420:-19|381:111|444:170,1,262.5,0|0,1:2|0:0,0:0:0:0:
439,178,194585,1,2,0:0:0:0:
463,346,194799,2,0,P|431:275|362:241,1,157.5,8|0,0:0|0:0,0:0:0:0:
291,319,195228,6,0,P|333:315|373:331,1,86.6250026435853,2|0,0:0|0:0,0:0:0:0:
275,327,195656,6,0,P|280:301|273:275,1,52.5,2|0,1:2|0:0,0:0:0:0:
290,203,195870,2,0,P|309:185|334:176,1,52.5,2|0,0:0|0:0,0:0:0:0:
220,224,196085,2,0,P|195:217|175:200,1,52.5,2|0,0:0|0:0,0:0:0:0:
93,252,196299,1,2,0:0:0:0:
93,252,196406,1,2,0:0:0:0:
93,252,196513,2,0,L|95:313,1,52.5,8|0,0:0|0:0,0:0:0:0:
167,288,196728,2,0,L|169:349,1,52.5,2|0,0:0|0:0,0:0:0:0:
242,376,196942,2,0,L|238:267,1,105,2|0,0:0|0:0,0:0:0:0:
215,190,197263,5,2,1:2:0:0:
215,190,197370,2,0,P|240:144|286:122,1,105,0|0,1:2|0:0,0:0:0:0:
393,236,197692,2,0,P|350:206|298:207,1,105,0|0,1:2|0:0,0:0:0:0:
273,302,198013,2,0,P|294:287|319:279,1,52.5,0|0,1:2|0:0,0:0:0:0:
440,331,198228,6,0,B|477:286|516:158|422:134|359:184|393:236,1,275.62501051426,8|0,0:0|0:0,0:0:0:0:
372,247,199085,6,0,P|217:267|302:172,1,367.5,6|0,1:2|0:0,0:0:0:0:
291,161,199942,2,0,B|216:162|200:251|200:251|101:289|43:206,1,315,14|0,0:0|0:0,0:0:0:0:
98,103,200692,5,2,1:2:0:0:
98,103,200799,2,0,B|184:111|215:24|215:24|162:-15|113:21,1,262.5,0|0,1:2|0:0,0:0:0:0:
104,17,201442,1,2,0:0:0:0:
291,161,201656,2,0,P|283:83|342:33,1,157.5,8|0,0:0|0:0,0:0:0:0:
438,121,202085,6,0,P|400:104|359:115,1,86.6250026435853,2|0,0:0|0:0,0:0:0:0:
454,118,202513,6,0,L|451:170,1,52.5,2|0,1:2|0:0,0:0:0:0:
502,226,202728,2,0,L|473:270,1,52.5,2|0,0:0|0:0,0:0:0:0:
489,343,202942,2,0,L|442:366,1,52.5,2|0,0:0|0:0,0:0:0:0:
379,287,203156,1,2,0:0:0:0:
379,287,203263,1,2,0:0:0:0:
379,287,203370,2,0,L|369:352,1,52.5,8|0,0:0|0:0,0:0:0:0:
314,241,203585,2,0,L|304:176,1,52.5,2|0,0:0|0:0,0:0:0:0:
264,301,203799,2,0,L|159:297,1,105,2|0,0:0|0:0,0:0:0:0:
116,237,204120,5,2,1:2:0:0:
116,237,204228,2,0,L|124:153,1,52.5,0|0,1:2|0:0,0:0:0:0:
195,143,204442,2,0,L|199:195,1,52.5,2|0,0:0|0:0,0:0:0:0:
274,237,204656,2,0,L|278:184,1,52.5,2|0,0:0|0:0,0:0:0:0:
357,164,204870,1,2,0:0:0:0:
357,164,204978,2,0,P|381:172|401:189,1,52.5,2|0,0:0|0:0,0:0:0:0:
352,250,205192,1,2,0:0:0:0:
352,250,205299,1,2,0:0:0:0:
352,250,205406,2,0,P|362:258|370:272,1,26.25,8|0,0:3|0:0,0:0:0:0:
345,230,205513,5,8,0:3:0:0:
349,177,205620,1,8,0:3:0:0:
354,125,205727,1,8,0:3:0:0:
359,73,205834,1,8,0:3:0:0:
364,20,205942,6,0,L|424:31,2,52.5,4|0|0,1:2|0:0|0:0,0:0:0:0:
364,20,207013,5,2,0:0:0:0:
300,66,207228,1,2,0:0:0:0:
267,137,207442,1,2,0:0:0:0:
273,214,207656,2,0,B|338:166|271:88|193:85|171:173|212:227|114:260|93:204,1,315.000012016297,2|0,0:0|0:0,0:0:0:0:
169,318,208728,5,2,0:0:0:0:
237,357,208942,1,2,0:0:0:0:
305,318,209156,1,2,0:0:0:0:
373,357,209370,2,0,B|452:392|509:358|541:224|403:192|362:281|424:309,1,315.000012016297,2|0,0:0|0:0,0:0:0:0:
498,169,210442,5,2,0:0:0:0:
495,89,210656,1,2,0:0:0:0:
424,51,210870,1,2,0:0:0:0:
357,93,211085,2,0,B|200:17|208:181|60:97,1,315.000012016297,2|0,0:0|0:0,0:0:0:0:
202,228,212156,5,2,0:0:0:0:
207,306,212370,1,2,0:0:0:0:
129,311,212585,1,2,0:0:0:0:
124,233,212799,2,0,B|84:179|169:62|351:250,1,315.000012016297,2|0,0:0|0:0,0:0:0:0:
454,338,213870,5,2,0:0:0:0:
458,259,214085,1,2,0:0:0:0:
454,180,214299,1,2,0:0:0:0:
458,101,214513,2,0,B|468:57|539:84|525:194|406:205|400:57|273:142,1,315.000012016297,2|0,0:0|0:0,0:0:0:0:
66,287,215585,5,2,0:0:0:0:
129,333,215799,1,2,0:0:0:0:
204,311,216013,1,2,0:0:0:0:
231,236,216228,2,0,B|270:152|144:177|140:13|320:13|254:167,1,315.000012016297,2|0,0:0|0:0,0:0:0:0:
60,286,217299,5,2,0:0:0:0:
35,211,217513,1,2,0:0:0:0:
50,133,217728,1,2,0:0:0:0:
18,60,217942,2,0,L|95:71,1,78.7500030040742,2|0,0:0|0:0,0:0:0:0:
171,21,218263,6,0,L|165:-5,2,19.6875007510186,0|0|2,1:2|0:0|0:0,0:0:0:0:
229,67,218478,2,0,P|249:65|267:71,1,39.3750015020371,8|0,0:0|0:0,0:0:0:0:
322,129,218692,1,0,0:1:0:0:
346,159,218799,2,0,L|349:203,1,39.3750015020371,10|0,0:0|0:0,0:0:0:0:
238,168,219013,2,0,L|244:142,2,19.6875007510186,0|0|0,0:0|0:0|1:2,0:0:0:0:
192,227,219228,2,0,L|189:271,1,39.3750015020371,8|0,0:0|0:0,0:0:0:0:
291,335,219442,1,8,0:0:0:0:
366,312,219549,1,8,0:0:0:0:
440,333,219656,6,0,B|489:193|346:248|296:94|550:102|431:244,1,315,4|0,1:2|0:0,0:0:0:0:
366,312,220513,2,0,B|267:349|277:223|140:288,1,210,8|0,0:0|0:0,0:0:0:0:
53,345,221156,6,0,P|67:294|71:242,1,105,0|0,1:2|0:0,0:0:0:0:
170,275,221478,2,0,P|157:224|135:176,1,105,0|0,1:2|0:0,0:0:0:0:
236,155,221799,2,0,P|199:117|156:87,1,105,0|0,1:2|0:0,0:0:0:0:
296,82,222120,1,0,1:0:0:0:
295,82,222228,2,0,P|312:61|331:44,1,52.5,8|0,0:0|0:0,0:0:0:0:
474,0,222442,5,2,0:0:0:0:
442,77,222656,1,2,0:0:0:0:
474,154,222870,1,2,0:0:0:0:
425,223,223085,6,0,B|460:172|387:125|310:217,1,157.5,0|0,1:2|0:0,0:0:0:0:
204,256,223513,2,0,P|256:260|301:284,1,105,0|0,1:2|0:0,0:0:0:0:
384,349,223835,1,0,1:0:0:0:
384,349,223942,2,0,L|379:282,1,52.5,8|0,0:0|0:0,0:0:0:0:
330,195,224156,1,2,0:0:0:0:
301,284,224370,1,2,0:0:0:0:
212,255,224585,1,2,0:0:0:0:
243,160,224799,6,0,L|246:200,2,26.25,2|0|0,0:0|0:0|0:0,0:0:0:0:
332,134,225013,6,0,P|352:87|345:36,1,105,0|0,1:2|0:0,0:0:0:0:
258,73,225335,2,0,P|217:105|165:110,1,105,0|0,1:2|0:0,0:0:0:0:
157,115,225603,1,0,0:0:0:0:
147,118,225656,2,0,L|151:64,2,52.5,8|8|0,0:0|0:0|1:2,0:0:0:0:
97,180,225978,2,0,P|71:172|46:179,1,52.5,8|0,0:0|0:0,0:0:0:0:
46,299,226192,1,0,0:0:0:0:
46,299,226299,2,0,P|53:274|72:257,1,52.5,8|0,0:0|0:0,0:0:0:0:
262,312,226513,6,0,B|340:365|374:191|222:194|235:354|111:314,1,315,4|0,1:2|0:0,0:0:0:0:
47,178,227370,2,0,B|-39:42|125:18|104:127,1,210,8|0,0:0|0:0,0:0:0:0:
235,194,228013,6,0,P|286:198|333:176,2,105,0|0|0,1:2|0:0|0:0,0:0:0:0:
142,243,228656,1,0,0:0:0:0:
269,330,228870,1,0,1:2:0:0:
269,330,228977,1,0,1:0:0:0:
269,330,229085,2,0,P|270:303|279:279,1,52.5,8|0,0:0|0:0,0:0:0:0:
370,198,229299,5,2,0:0:0:0:
452,212,229513,1,2,0:0:0:0:
505,148,229728,1,2,0:0:0:0:
470,72,229942,6,0,P|379:121|278:99,1,210,0|4,1:2|0:1,0:0:0:0:
111,119,230585,1,0,0:0:0:0:
111,119,230692,1,0,0:0:0:0:
111,119,230799,2,0,P|53:125|147:237,1,315,8|0,0:0|0:0,0:0:0:0:
161,2,231656,5,2,1:2:0:0:
188,47,231763,1,2,0:0:0:0:
236,66,231870,1,2,0:0:0:0:
286,54,231977,1,2,0:0:0:0:
327,21,232085,5,2,0:0:0:0:
353,15,232192,1,2,1:2:0:0:
376,25,232299,1,2,0:0:0:0:
390,47,232406,1,2,0:0:0:0:
394,73,232513,6,0,L|401:136,1,52.5,10|0,0:0|0:0,0:0:0:0:
491,151,232728,1,2,0:0:0:0:
486,176,232835,2,0,L|480:228,1,52.5,10|0,0:0|0:0,0:0:0:0:
377,338,233049,5,2,0:0:0:0:
360,328,233156,1,2,0:0:0:0:
343,327,233263,1,2,0:0:0:0:
329,330,233370,6,0,L|361:196,1,131.25,4|0,1:2|0:0,0:0:0:0:
242,276,233799,2,0,L|238:138,1,131.25
155,330,234228,2,0,L|123:196,1,131.25,8|0,0:0|0:0,0:0:0:0:
43,66,234656,1,0,0:0:0:0:
43,66,234870,6,0,B|-1:78|44:124|44:53|124:90,1,131.25,0|0,1:2|0:0,0:0:0:0:
253,122,235192,2,0,B|297:134|252:180|252:109|172:146,1,131.25,0|0,1:2|0:0,0:0:0:0:
43,178,235513,2,0,B|-1:190|44:236|44:165|124:202,1,131.25,0|0,1:2|0:0,0:0:0:0:
283,327,235942,6,2,P|268:324|257:310,1,32.8125,10|2,0:0|0:0,0:0:0:0:
249,350,236049,2,2,P|238:338|234:322,1,32.8125
209,351,236156,2,2,P|206:335|210:319,1,32.8125
174,332,236263,2,2,P|177:316|189:306,1,32.8125
152,309,236370,2,0,L|145:243,1,65.625
76,319,236585,2,0,L|69:253,1,65.625
61,155,236799,6,0,P|67:215|158:172,1,196.875,0|0,1:2|0:0,0:0:0:0:
295,62,237228,2,0,P|239:37|231:137,1,196.875,0|0,1:2|0:0,0:0:0:0:
258,311,237656,2,0,P|306:275|224:218,1,196.875,8|0,0:0|0:0,0:0:0:0:
148,306,238085,1,0,0:0:0:0:
148,306,238299,6,0,L|160:109,1,196.875
145,84,238728,2,0,P|209:89|271:67,1,131.25,0|0,1:2|0:0,0:0:0:0:
314,129,239049,2,0,P|378:123|440:145,1,131.25,0|0,1:2|0:0,0:0:0:0:
449,151,239317,1,8,0:0:0:0:
458,159,239370,2,0,L|472:89,2,65.625,8|8|0,0:0|0:0|1:2,0:0:0:0:
492,231,239692,2,0,P|480:261|460:287,1,65.625,8|0,0:0|0:0,0:0:0:0:
408,346,239906,1,0,2:2:0:0:
408,346,240013,2,0,P|381:325|350:312,1,65.625,8|0,2:0|2:0,2:0:0:0:
250,272,240228,6,0,P|198:311|179:372,1,131.25,4|0,1:2|0:0,0:0:0:0:
262,190,240656,2,0,P|202:164|139:179,1,131.25
338,161,241085,2,0,P|330:96|286:49,1,131.25,12|0,0:0|0:0,0:0:0:0:
448,184,241513,1,0,0:0:0:0:
448,184,241728,6,0,B|473:197|458:248|391:235|415:157|274:130|207:148|218:262|275:271,1,328.125,0|0,1:2|0:0,0:0:0:0:
347,335,242370,2,0,P|314:329|284:340,1,65.625
185,333,242585,1,0,1:2:0:0:
185,333,242692,1,0,1:0:0:0:
185,333,242799,6,2,L|190:301,1,32.8125,10|2,0:0|0:0,0:0:0:0:
161,322,242906,2,2,L|166:290,1,32.8125
137,311,243013,2,2,L|142:279,1,32.8125
113,300,243120,2,2,L|118:268,1,32.8125
90,295,243228,2,0,P|59:302|33:322,1,65.625
63,192,243442,2,0,P|40:168|10:156,1,65.625
151,134,243656,6,0,P|240:169|330:136,1,196.875,0|0,1:2|0:0,0:0:0:0:
373,70,244085,2,0,L|364:281,1,196.875
396,340,244513,2,0,L|264:332,1,131.25,8|0,0:0|0:0,0:0:0:0:
133,216,244942,2,0,L|264:208,1,131.25
370,120,245370,5,2,1:2:0:0:
365,90,245477,1,2,0:0:0:0:
359,61,245584,1,2,0:0:0:0:
353,32,245692,2,10,L|360:-3,1,32.8125
334,54,245799,5,10,0:0:0:0:
297,86,245906,1,10,0:0:0:0:
247,94,246013,1,2,1:2:0:0:
201,74,246120,1,10,0:0:0:0:
159,46,246228,1,2,1:2:0:0:
108,44,246335,1,10,0:0:0:0:
65,69,246442,2,10,L|36:82,1,32.8125
94,102,246549,5,2,1:2:0:0:
108,166,246656,1,10,0:0:0:0:
122,230,246763,1,2,0:0:0:0:
137,294,246870,1,8,0:0:0:0:
151,358,246977,1,8,0:0:0:0:
209,310,247085,5,4,1:2:0:0:
226,300,247192,1,0,0:0:0:0:
245,294,247299,1,0,0:0:0:0:
264,292,247406,1,0,0:0:0:0:
325,340,247513,5,8,0:0:0:0:
344,338,247620,1,0,0:0:0:0:
363,332,247727,1,0,0:0:0:0:
380,322,247834,1,0,0:0:0:0:
439,275,247942,5,0,1:2:0:0:
441,255,248049,1,0,0:0:0:0:
443,235,248156,1,0,0:0:0:0:
445,216,248263,1,0,0:0:0:0:
384,174,248370,5,8,0:0:0:0:
382,154,248477,1,0,0:0:0:0:
380,134,248584,1,0,0:0:0:0:
378,115,248691,1,0,0:0:0:0:
324,64,248799,5,0,1:2:0:0:
304,60,248906,1,0,0:0:0:0:
285,63,249013,1,0,0:0:0:0:
267,72,249120,1,0,0:0:0:0:
223,135,249228,5,8,0:0:0:0:
203,138,249335,1,0,0:0:0:0:
184,135,249442,1,0,0:0:0:0:
166,126,249549,1,0,0:0:0:0:
120,72,249656,6,0,L|112:-3,3,65.625,0|0|0|0,1:2|0:0|0:0|0:0,0:0:0:0:
91,141,250085,5,10,0:0:0:0:
83,206,250192,1,2,0:0:0:0:
76,271,250299,1,2,0:0:0:0:
69,336,250406,1,2,0:0:0:0:
137,366,250513,5,0,1:2:0:0:
146,348,250620,1,0,0:0:0:0:
159,333,250727,1,0,0:0:0:0:
176,323,250834,1,0,0:0:0:0:
237,283,250942,5,8,0:0:0:0:
256,284,251049,1,0,0:0:0:0:
275,280,251156,1,0,0:0:0:0:
292,271,251263,1,0,0:0:0:0:
361,239,251371,5,0,1:2:0:0:
379,247,251478,1,0,0:0:0:0:
394,261,251585,1,0,0:0:0:0:
403,277,251692,1,0,0:0:0:0:
462,326,251799,6,0,P|479:298|489:267,3,65.625,8|0|0|0,0:0|0:0|0:0|0:0,0:0:0:0:
393,373,252228,5,2,1:2:0:0:
382,355,252335,1,2,0:0:0:0:
318,308,252442,5,2,0:0:0:0:
307,326,252549,1,2,0:0:0:0:
244,372,252656,5,10,0:0:0:0:
234,355,252763,1,2,0:0:0:0:
170,308,252871,5,2,0:0:0:0:
160,326,252978,1,0,1:2:0:0:
88,355,253085,6,0,L|93:289,2,65.625,2|8|0,1:2|0:0|0:0,0:0:0:0:
73,201,253406,1,0,1:2:0:0:
73,201,253513,2,0,L|8:195,1,65.625,10|0,0:0|0:0,0:0:0:0:
173,255,253727,2,0,L|239:261,1,65.625,2|0,0:0|1:2,0:0:0:0:
383,297,253942,5,0,1:2:0:0:
386,277,254049,1,0,0:0:0:0:
388,257,254156,1,0,0:0:0:0:
388,238,254263,1,0,0:0:0:0:
336,184,254370,5,8,0:0:0:0:
336,165,254477,1,0,0:0:0:0:
338,145,254584,1,0,0:0:0:0:
341,125,254692,1,0,0:0:0:0:
407,92,254799,6,0,L|493:75,3,65.625,0|0|0|0,1:2|0:0|0:0|0:0,0:0:0:0:
345,46,255228,5,10,0:0:0:0:
281,56,255335,1,2,0:0:0:0:
244,108,255442,1,2,0:0:0:0:
256,171,255549,1,2,0:0:0:0:
321,211,255656,5,0,1:2:0:0:
340,212,255763,1,0,0:0:0:0:
360,213,255870,1,0,0:0:0:0:
379,214,255977,1,0,0:0:0:0:
393,287,256085,5,8,0:0:0:0:
374,288,256192,1,0,0:0:0:0:
354,289,256299,1,0,0:0:0:0:
335,290,256406,1,0,0:0:0:0:
266,320,256513,6,0,L|276:384,3,65.625,0|0|0|0,1:2|0:0|0:0|0:0,0:0:0:0:
211,267,256942,5,10,0:0:0:0:
149,250,257049,1,2,0:0:0:0:
92,280,257156,1,2,0:0:0:0:
71,341,257263,1,2,0:0:0:0:
153,329,257370,5,0,1:2:0:0:
158,311,257477,1,0,0:0:0:0:
153,292,257584,1,0,0:0:0:0:
139,278,257691,1,0,0:0:0:0:
76,233,257799,5,8,0:0:0:0:
71,215,257906,1,0,0:0:0:0:
76,196,258013,1,0,0:0:0:0:
90,182,258120,1,0,0:0:0:0:
152,147,258228,6,0,L|159:73,3,65.625,0|0|0|0,1:2|0:0|0:0|0:0,0:0:0:0:
214,189,258656,5,10,0:0:0:0:
276,174,258763,1,2,0:0:0:0:
306,118,258870,1,2,0:0:0:0:
284,58,258977,1,2,0:0:0:0:
338,9,259085,5,0,1:2:0:0:
357,3,259192,1,0,0:0:0:0:
377,4,259299,1,0,0:0:0:0:
395,12,259406,1,0,0:0:0:0:
426,79,259513,5,8,0:0:0:0:
407,86,259620,1,0,0:0:0:0:
388,87,259727,1,0,0:0:0:0:
369,82,259834,1,0,0:0:0:0:
309,129,259942,6,2,P|293:128|278:122,1,32.8125,2|2,1:2|0:0,0:0:0:0:
305,148,260049,2,2,P|289:151|273:150,1,32.8125
305,169,260156,2,2,P|290:175|275:179,1,32.8125
313,186,260263,2,2,P|300:197|286:204,1,32.8125
380,150,260370,6,0,L|389:118,1,32.8125,8|0,0:0|0:0,0:0:0:0:
437,190,260478,2,0,L|460:167,1,32.8125,8|0,0:0|0:0,0:0:0:0:
465,254,260585,2,0,L|496:246,1,32.8125,8|0,0:0|0:0,0:0:0:0:
458,323,260692,2,0,L|489:332,1,32.8125,8|0,0:0|0:0,0:0:0:0:
415,381,260799,6,0,P|322:353|264:379,1,157.500006008148,6|0,1:2|0:0,0:0:0:0:
42,323,261120,1,2,0:0:0:0:
81,384,261228,2,0,L|92:226,1,157.500006008148,10|0,0:0|0:0,0:0:0:0:
102,0,261549,1,2,0:0:0:0:
31,0,261656,2,0,P|62:22|100:31,1,78.7500030040742,2|0,1:2|0:0,0:0:0:0:
263,5,261870,2,0,P|231:27|193:36,1,78.7500030040742,2|0,0:0|0:0,0:0:0:0:
24,142,262085,2,0,P|58:121|97:116,1,78.7500030040742,10|0,0:0|0:0,0:0:0:0:
255,156,262299,2,0,P|226:131|189:119,1,78.7500030040742,2|0,0:0|0:0,0:0:0:0:
56,235,262513,5,0,1:2:0:0:
86,299,262620,2,0,P|78:261|86:223,1,78.7500030040742,2|0,0:0|0:0,0:0:0:0:
191,249,262835,1,0,0:0:0:0:
184,319,262942,2,0,P|196:282|301:270,1,157.500006008148,10|0,0:0|0:0,0:0:0:0:
496,315,263263,1,0,0:0:0:0:
442,364,263370,2,0,B|327:195|485:193|428:295,1,236.250009012223,2|0,1:2|0:0,0:0:0:0:
300,381,263799,1,10,0:0:0:0:
254,325,263906,2,0,P|177:310|104:337,1,157.500006008148,2|0,0:0|0:0,0:0:0:0:
0,244,264228,6,0,L|21:88,1,157.500006008148,2|0,1:2|0:0,0:0:0:0:
193,0,264549,1,2,0:0:0:0:
144,55,264656,2,0,P|219:46|276:124,1,157.500006008148,10|0,0:0|0:0,0:0:0:0:
333,236,264978,1,2,0:0:0:0:
257,243,265085,2,0,P|264:204|288:174,1,78.7500030040742,2|0,1:2|0:0,0:0:0:0:
376,173,265299,2,0,P|400:203|408:242,1,78.7500030040742,2|0,0:0|0:0,0:0:0:0:
237,325,265513,2,0,P|202:306|181:273,1,78.7500030040742,10|0,0:0|0:0,0:0:0:0:
430,321,265728,2,0,P|464:302|485:269,1,78.7500030040742,2|0,0:0|0:0,0:0:0:0:
334,384,265942,5,0,1:2:0:0:
334,384,266156,2,0,L|328:305,1,78.7500030040742,2|0,0:0|0:0,0:0:0:0:
287,174,266370,1,10,0:0:0:0:
217,193,266478,2,0,L|288:227,1,78.7500030040742,2|0,0:0|0:0,0:0:0:0:
422,257,266691,1,2,0:0:0:0:
440,187,266799,2,0,L|374:231,1,78.7500030040742,2|0,1:2|0:0,0:0:0:0:
237,291,267013,2,0,L|308:326,1,78.7500030040742,2|0,0:0|0:0,0:0:0:0:
217,193,267228,5,10,0:0:0:0:
158,306,267335,1,10,0:0:0:0:
149,310,267549,5,10,0:0:0:0:
90,197,267656,2,0,L|122:17,1,157.500006008148,2|0,1:2|0:0,0:0:0:0:
310,40,267978,1,2,0:0:0:0:
350,102,268085,2,0,P|398:24|456:51,1,157.500006008148,10|0,0:0|0:0,0:0:0:0:
458,202,268406,1,2,0:0:0:0:
387,215,268513,2,0,P|425:226|458:247,1,78.7500030040742,2|0,1:2|0:0,0:0:0:0:
315,284,268728,2,0,P|325:322|324:362,1,78.7500030040742,2|0,0:0|0:0,0:0:0:0:
124,215,268942,2,0,P|86:226|53:247,1,78.7500030040742,10|0,0:0|0:0,0:0:0:0:
196,284,269157,2,0,P|186:322|188:362,1,78.7500030040742,2|0,0:0|0:0,0:0:0:0:
255,161,269370,5,2,1:2:0:0:
255,161,269585,6,0,L|248:82,1,78.7500030040742,2|0,0:0|0:0,0:0:0:0:
151,69,269799,6,0,L|165:119,1,52.5,10|0,0:0|0:0,0:0:0:0:
77,138,270013,6,0,L|74:111,1,26.25,2|0,0:0|0:0,0:0:0:0:
143,223,270228,6,0,P|126:232|107:238,1,39.3750015020371,2|0,1:2|0:0,0:0:0:0:
234,249,270442,6,2,P|222:273|204:292,1,52.5
320,223,270656,6,0,P|325:256|318:288,1,65.625,10|0,0:0|0:0,0:0:0:0:
372,162,270870,6,0,P|399:190|414:227,1,78.7500030040742,2|0,0:0|0:0,0:0:0:0:
495,337,271085,6,0,P|418:326|348:360,1,157.500006008148,2|0,1:2|0:0,0:0:0:0:
204,292,271406,1,2,0:0:0:0:
248,346,271513,2,0,P|246:307|234:264,1,78.7500030040742,8|0,0:0|0:0,0:0:0:0:
320,223,271728,2,0,P|330:145|359:72,1,157.500006008148,2|0,0:0|1:2,0:0:0:0:
512,80,272049,1,2,0:0:0:0:
480,15,272156,2,0,P|444:0|406:7,1,78.7500030040742,2|0,0:0|0:0,0:0:0:0:
236,122,272370,2,0,P|267:99|279:62,1,78.7500030040742,10|0,0:0|0:0,0:0:0:0:
389,139,272585,2,0,P|384:100|358:71,1,78.7500030040742,2|0,0:0|0:0,0:0:0:0:
199,54,272799,5,0,1:2:0:0:
199,54,273013,1,2,0:0:0:0:
125,58,273120,2,0,P|86:62|50:79,1,78.7500030040742,2|0,1:2|0:0,0:0:0:0:
46,197,273335,1,10,0:0:0:0:
46,197,273442,1,2,1:2:0:0:
50,201,273549,1,0,1:2:0:0:
116,159,273656,2,0,P|154:163|190:180,1,78.7500030040742,10|0,0:0|0:0,0:0:0:0:
336,289,273870,1,0,1:2:0:0:
270,247,273977,2,0,P|232:251|196:268,1,78.7500030040742,10|0,0:0|0:0,0:0:0:0:
118,362,274192,1,0,1:2:0:0:
118,362,274299,1,8,0:0:0:0:
118,362,274406,1,0,1:0:0:0:
78,294,274513,6,0,L|94:202,1,78.7500030040742,14|0,1:2|0:0,0:0:0:0:
94,203,274835,1,2,0:0:0:0:
97,188,274942,2,0,L|113:96,1,78.7500030040742,10|0,0:0|0:0,0:0:0:0:
113,97,275263,1,2,0:0:0:0:
116,82,275370,2,0,L|132:-10,1,78.7500030040742,10|0,0:0|0:0,0:0:0:0:
11,112,275799,1,10,0:0:0:0:
11,112,276013,1,2,0:0:0:0:
256,176,276228,5,8,0:2:0:0:
256,176,276656,1,8,0:2:0:0:
256,176,277085,1,8,0:2:0:0:
256,176,277513,1,8,0:2:0:0:
434,294,277942,6,0,L|418:202,1,78.7500030040742,10|0,0:0|0:0,0:0:0:0:
418,203,278264,1,2,0:0:0:0:
415,188,278371,2,0,L|399:96,1,78.7500030040742,10|0,0:0|0:0,0:0:0:0:
399,97,278692,1,2,0:0:0:0:
396,82,278799,2,0,L|380:-10,1,78.7500030040742,10|0,0:0|0:0,0:0:0:0:
501,112,279228,1,10,0:0:0:0:
501,112,279442,1,2,0:0:0:0:
256,176,279656,5,8,0:0:0:0:
256,176,280084,1,8,0:0:0:0:
256,176,280513,1,8,0:0:0:0:
256,176,280941,1,8,0:0:0:0:
222,310,281370,6,0,P|183:278|131:275,1,105,0|0,1:2|0:0,0:0:0:0:
125,283,281692,1,2,0:0:0:0:
118,290,281799,2,0,P|146:246|194:228,1,105,2|0,0:0|0:0,0:0:0:0:
201,234,282121,1,2,0:0:0:0:
210,238,282228,2,0,P|170:205|118:201,1,105,2|0,0:0|0:0,0:0:0:0:
92,81,282656,1,2,0:0:0:0:
92,81,282870,1,2,0:0:0:0:
260,121,283085,6,0,P|312:122|361:104,1,105,2|0,0:0|0:0,0:0:0:0:
368,113,283406,1,2,0:0:0:0:
376,120,283513,2,0,P|400:166|440:199,1,105,2|0,0:0|0:0,0:0:0:0:
436,209,283834,1,2,0:0:0:0:
431,218,283942,2,0,P|403:262|394:313,1,105,2|0,0:0|0:0,0:0:0:0:
486,361,284370,1,2,0:0:0:0:
486,361,284585,1,2,0:0:0:0:
277,343,284799,6,0,L|225:350,1,52.5,2|0,0:0|0:0,0:0:0:0:
217,354,285120,1,2,0:0:0:0:
209,357,285228,2,0,L|160:294,1,78.7500030040742,2|0,0:0|0:0,0:0:0:0:
152,289,285548,1,2,0:0:0:0:
145,284,285656,2,0,L|184:186,1,105,2|0,0:0|0:0,0:0:0:0:
185,175,285978,1,2,0:0:0:0:
186,167,286085,2,0,L|315:149,1,131.25,2|0,0:0|0:0,0:0:0:0:
325,143,286405,1,2,0:0:0:0:
332,140,286513,5,2,0:0:0:0:
311,93,286620,1,2,0:0:0:0:
331,46,286727,1,2,0:0:0:0:
378,28,286834,1,2,0:0:0:0:
425,49,286941,5,2,0:0:0:0:
446,64,287049,1,2,0:0:0:0:
472,60,287156,1,2,0:0:0:0:
489,41,287263,1,2,0:0:0:0:
489,15,287370,5,2,0:0:0:0:
476,16,287477,1,2,0:0:0:0:
463,19,287584,1,2,0:0:0:0:
451,24,287692,2,0,L|460:61,1,26.25,8|0,0:3|0:0,0:0:0:0:
414,54,287799,1,8,0:3:0:0:
395,101,287906,1,8,0:3:0:0:
414,149,288013,1,8,0:3:0:0:
460,172,288120,1,8,0:3:0:0:
509,156,288228,6,0,B|521:127|484:86|484:86|427:105|430:137,1,157.5,4|0,1:2|0:0,0:0:0:0:
329,279,288656,5,0,0:0:0:0:
326,302,288727,5,0,0:0:0:0:
307,314,288799,5,0,0:0:0:0:
285,311,288871,5,0,0:0:0:0:
272,294,288942,5,0,0:0:0:0:
275,272,289014,5,0,0:0:0:0:
294,259,289085,6,0,B|334:220|421:18|162:37|256:181,1,315,8|0,0:0|0:0,0:0:0:0:
149,302,289513,1,0,0:0:0:0:
77,288,289620,1,0,0:0:0:0:
25,237,289727,1,0,0:0:0:0:
10,166,289834,1,0,0:0:0:0:
36,99,289942,6,0,B|79:39|170:26|170:26|176:115|113:175,1,315,0|0,1:2|0:0,0:0:0:0:
36,318,290370,1,0,0:0:0:0:
109,313,290477,1,0,0:0:0:0:
182,309,290584,1,0,0:0:0:0:
256,305,290691,1,0,0:0:0:0:
329,301,290799,2,0,B|357:270|357:270|357:206,1,105,8|0,0:0|0:0,0:0:0:0:
348,62,291013,5,0,0:0:0:0:
334,52,291120,1,0,0:0:0:0:
399,119,291228,2,0,B|449:102|449:102|461:148|461:148|408:169,1,131.25
168,111,291442,1,0,0:0:0:0:
154,101,291549,1,0,0:0:0:0:
219,168,291657,6,0,B|223:82|388:179|157:220|274:339,1,275.62501051426,0|0,1:2|0:0,0:0:0:0:
284,344,292513,6,0,L|360:324,1,78.7500030040742,8|0,0:0|0:0,0:0:0:0:
166,283,292728,2,0,L|89:263,1,78.7500030040742
335,235,292942,6,0,B|368:229|368:229|373:232|373:232|417:225|417:225|419:221|419:221|465:211,1,118.125004506111
475,108,293370,5,0,1:2:0:0:
474,34,293478,1,0,0:0:0:0:
404,11,293585,1,0,0:0:0:0:
361,71,293692,1,0,0:0:0:0:
403,129,293799,2,0,P|357:106|307:116,1,105
223,56,294013,6,0,L|213:56,1,10.5,0|0,1:2|0:0,0:0:0:0:
306,116,294228,6,0,P|168:158|105:27,1,315,8|0,0:0|0:0,0:0:0:0:
279,126,294656,2,0,P|170:144|113:48,1,236.250009012223
58,259,295085,6,0,B|94:154|12:100|-137:265|106:240|59:326,1,275.62501051426,4|0,1:2|0:0,0:0:0:0:
78,303,295942,6,0,B|124:327|173:298|173:298|183:308|183:308|264:246|376:302,1,315,12|0,0:0|0:0,0:0:0:0:
479,345,296370,5,0,0:0:0:0:
481,271,296477,1,0,0:0:0:0:
484,198,296584,1,0,0:0:0:0:
487,124,296691,1,0,0:0:0:0:
490,51,296799,6,0,B|401:9|300:61|300:61|297:200|170:215,1,393.75,0|0,1:2|0:0,0:0:0:0:
124,117,297228,6,0,P|194:116|194:45,1,157.5
15,67,297656,6,0,B|37:23|37:23|300:60,1,315,8|0,0:0|0:0,0:0:0:0:
481,211,298085,5,0,0:0:0:0:
443,269,298192,1,0,0:0:0:0:
374,261,298299,1,0,0:0:0:0:
350,196,298406,1,0,0:0:0:0:
398,146,298513,6,0,B|324:100|251:150|251:150|179:205|105:157,1,315,0|0,1:2|0:0,0:0:0:0:
19,233,298942,2,0,B|6:254|6:254|35:342,1,105
118,359,299156,2,0,B|130:337|130:337|101:249,1,105
52,62,299370,6,0,B|182:25|249:152|249:152|172:205|104:156,1,393.75,8|0,0:0|0:0,0:0:0:0:
209,302,299799,5,0,0:0:0:0:
270,336,299906,1,0,0:0:0:0:
329,299,300014,1,0,0:0:0:0:
336,230,300121,1,0,0:0:0:0:
435,183,300228,5,2,1:2:0:0:
482,222,300335,1,2,0:0:0:0:
494,283,300442,1,2,0:0:0:0:
466,337,300549,1,2,0:0:0:0:
409,362,300656,5,2,0:0:0:0:
393,335,300763,1,2,0:0:0:0:
389,304,300870,1,2,0:0:0:0:
399,275,300977,1,2,0:0:0:0:
421,252,301086,6,0,L|442:235,1,26.25,8|0,0:0|0:0,0:0:0:0:
383,228,301193,2,0,L|393:203,1,26.25
341,225,301300,2,0,L|338:199,1,26.25
298,241,301407,2,0,L|282:219,1,26.25
228,298,301513,6,0,L|243:319,1,26.25
184,313,301620,2,0,L|186:338,1,26.25
142,310,301727,2,0,L|131:334,1,26.25
104,286,301834,2,0,L|82:302,1,26.25
53,223,301942,6,0,L|68:120,1,105,4|0,1:2|0:0,0:0:0:0:
160,35,302156,1,0,0:0:0:0:
171,23,302263,1,0,0:0:0:0:
205,94,302370,2,0,L|219:197,1,105
311,282,302585,1,0,0:0:0:0:
322,294,302692,1,0,0:0:0:0:
356,223,302799,6,0,B|496:37|278:-11|297:117,1,315.000012016297,8|0,0:0|1:2,0:0:0:0:
296,111,303870,6,0,L|191:116,1,105
116,246,304085,2,0,L|220:251,1,105
418,295,304299,1,0,0:0:0:0:
413,277,304406,1,0,0:0:0:0:
356,223,304513,6,0,B|222:165|232:340|75:260,1,275.62501051426,8|0,0:0|0:0,0:0:0:0:
41,326,305370,6,0,P|86:251|26:121,1,236.250009012223,0|0,1:2|0:0,0:0:0:0:
82,8,305799,2,0,P|80:46|101:79,1,78.7500030040742
219,77,306013,2,0,P|184:95|166:129,1,78.7500030040742
235,174,306228,6,0,B|360:225|363:111|544:19|536:309|371:176,1,377.999988464356,8|0,0:0|1:2,0:0:0:0:
404,198,307299,6,0,P|389:247|393:299,1,105
497,379,307513,2,0,P|512:329|508:277,1,105
329,357,307728,5,0,1:2:0:0:
313,362,307835,1,0,0:0:0:0:
246,321,307942,2,0,L|143:344,1,105,8|0,0:0|0:0,0:0:0:0:
0,253,308156,1,0,0:0:0:0:
16,258,308263,1,0,0:0:0:0:
80,216,308370,2,0,L|182:239,1,105
271,160,308585,1,0,0:0:0:0:
275,87,308692,1,0,0:0:0:0:
212,46,308799,6,0,B|158:24|158:24|183:239,1,275.62501051426,4|0,1:2|0:0,0:0:0:0:
130,358,309656,2,0,P|230:332|184:240,1,236.250009012223,8|0,0:0|0:0,0:0:0:0:
20,266,310085,5,0,0:0:0:0:
76,220,310192,1,0,0:0:0:0:
100,151,310299,1,0,0:0:0:0:
85,80,310406,1,0,0:0:0:0:
35,28,310513,6,0,B|65:144|16:136|10:98,1,118.125004506111,0|0,1:2|0:0,0:0:0:0:
6,111,310942,6,0,B|15:157|84:139|44:23,1,157.5
137,42,311370,6,0,B|224:38|224:38|244:61|244:61|446:56,1,315,8|0,0:0|0:0,0:0:0:0:
479,154,311799,2,0,B|492:193|492:193|472:225,1,78.7500030040742
376,211,312013,2,0,B|363:172|363:172|382:139,1,78.7500030040742
418,300,312228,6,0,B|295:230|283:376|155:294,1,262.5,0|0,1:2|0:0,0:0:0:0:
54,275,312870,1,0,0:0:0:0:
60,294,312978,1,0,0:0:0:0:
96,364,313085,6,0,L|105:49,1,315,8|0,0:0|0:0,0:0:0:0:
205,230,313513,5,0,0:0:0:0:
272,253,313620,1,0,0:0:0:0:
338,225,313727,1,0,0:0:0:0:
370,160,313834,1,0,0:0:0:0:
350,55,313941,5,2,1:2:0:0:
315,107,314049,1,2,0:0:0:0:
312,169,314156,1,2,0:0:0:0:
338,225,314263,1,2,0:0:0:0:
389,262,314370,5,2,0:0:0:0:
398,231,314477,1,2,0:0:0:0:
396,200,314584,1,2,0:0:0:0:
385,170,314691,1,2,0:0:0:0:
364,147,314799,6,0,P|346:91|437:111,1,183.75,8|0,0:0|0:0,0:0:0:0:
447,121,315656,6,0,B|426:42|550:50|562:169|386:236|421:367,1,367.5,6|0,1:2|0:0,0:0:0:0:
405,370,316513,2,0,P|261:312|110:348,1,315,14|0,0:0|0:0,0:0:0:0:
93,262,317263,5,0,1:2:0:0:
93,262,317370,2,0,P|90:128|162:169,1,262.5,2|0,1:2|0:0,0:0:0:0:
152,163,318013,1,2,0:0:0:0:
258,167,318228,2,2,P|334:152|377:89,1,157.5,10|0,0:0|0:0,0:0:0:0:
295,6,318656,6,0,P|304:47|282:84,1,86.6250026435853,2|0,0:0|0:0,0:0:0:0:
311,7,319085,6,0,P|337:7|362:14,1,52.5,2|0,1:2|0:0,0:0:0:0:
423,58,319299,2,0,P|436:80|443:105,1,52.5,2|0,0:0|0:0,0:0:0:0:
435,179,319513,2,0,P|422:202|403:220,1,52.5,2|0,0:0|0:0,0:0:0:0:
346,271,319728,1,2,0:0:0:0:
346,271,319835,1,2,0:0:0:0:
346,271,319942,2,0,L|349:323,1,52.5,8|0,0:0|0:0,0:0:0:0:
269,372,320156,2,0,L|272:319,1,52.5,2|0,0:0|0:0,0:0:0:0:
188,218,320370,2,0,L|195:323,1,105,2|0,0:0|0:0,0:0:0:0:
135,366,320692,5,2,1:2:0:0:
135,366,320799,2,0,P|84:376|36:358,1,105,0|0,1:2|0:0,0:0:0:0:
68,287,321120,2,0,P|34:247|25:196,1,105,0|0,1:2|0:0,0:0:0:0:
101,188,321442,2,0,P|107:162|119:139,1,52.5,0|0,1:2|0:0,0:0:0:0:
45,86,321656,6,0,B|92:117|143:88|143:88|200:57|237:85,1,202.125006168366,8|0,0:0|0:0,0:0:0:0:
249,100,322513,6,0,B|277:104|308:88|308:88|357:61|329:14|329:14|288:44|308:88|308:88|350:187|276:229,1,367.5,6|0,1:2|0:0,0:0:0:0:
301,233,323370,2,0,P|162:227|173:366,1,315,14|0,0:0|0:0,0:0:0:0:
259,359,324121,5,0,1:2:0:0:
259,359,324228,2,0,P|338:304|478:378,1,262.5,2|0,1:2|0:0,0:0:0:0:
461,374,324871,1,2,0:0:0:0:
324,224,325085,2,0,P|334:147|387:89,1,157.5,8|0,0:0|0:0,0:0:0:0:
483,143,325513,6,0,P|440:148|407:175,1,86.6250026435853,2|0,0:0|0:0,0:0:0:0:
498,133,325942,6,0,L|502:80,1,52.5,2|0,1:2|0:0,0:0:0:0:
425,16,326156,2,0,L|429:68,1,52.5,2|0,0:0|0:0,0:0:0:0:
352,133,326370,2,0,L|356:80,1,52.5,2|0,0:0|0:0,0:0:0:0:
304,27,326585,1,2,0:0:0:0:
304,27,326692,1,2,0:0:0:0:
304,27,326799,2,0,P|278:27|253:34,1,52.5,8|0,2:0|2:0,2:0:0:0:
183,26,327013,2,0,P|169:48|163:73,1,52.5,2|0,0:0|2:0,2:0:0:0:
120,130,327228,2,0,P|132:153|220:184,1,105,2|0,0:0|2:0,2:0:0:0:
218,265,327549,5,2,1:2:0:0:
218,265,327656,2,0,L|208:316,1,52.5,0|0,1:2|0:0,0:0:0:0:
280,359,327870,2,0,L|290:308,1,52.5,2|0,0:0|0:0,0:0:0:0:
290,235,328085,2,0,L|341:244,1,52.5,2|0,0:0|0:0,0:0:0:0:
247,173,328299,1,0,0:0:0:0:
247,173,328406,1,0,1:2:0:0:
247,173,328513,2,0,L|143:191,1,105,8|0,1:2|0:0,0:0:0:0:
128,214,328835,6,0,L|103:223,1,26.25
135,165,328942,1,2,0:0:0:0:
134,113,329049,1,2,0:0:0:0:
98,77,329156,1,2,0:0:0:0:
47,77,329263,1,2,0:0:0:0:
12,114,329370,6,0,B|-16:195|162:253|141:12|342:165,1,367.5,6|0,1:2|0:0,0:0:0:0:
327,170,330228,6,0,B|399:152|438:85|438:85|399:152|431:256,1,315,14|0,0:0|0:0,0:0:0:0:
482,342,330978,5,2,1:2:0:0:
482,342,331085,2,0,L|215:332,1,262.5,0|0,1:2|0:0,0:0:0:0:
210,341,331728,1,2,0:0:0:0:
58,362,331942,2,0,P|50:284|92:220,1,157.5,8|0,0:0|0:0,0:0:0:0:
193,252,332371,6,0,P|154:269|127:303,1,86.6250026435853,2|0,0:0|0:0,0:0:0:0:
208,259,332799,6,0,P|207:285|215:310,1,52.5,2|0,1:2|0:0,0:0:0:0:
285,274,333013,2,0,P|297:296|317:314,1,52.5,2|0,0:0|0:0,0:0:0:0:
359,248,333228,2,0,P|381:261|407:267,1,52.5,2|0,0:0|0:0,0:0:0:0:
473,228,333442,1,2,0:0:0:0:
473,228,333549,1,2,0:0:0:0:
473,228,333656,2,0,L|475:167,1,52.5,8|0,0:0|0:0,0:0:0:0:
413,136,333870,2,0,L|411:75,1,52.5,2|0,0:0|0:0,0:0:0:0:
467,36,334085,2,0,L|362:29,1,105,2|0,0:0|0:0,0:0:0:0:
308,86,334406,5,2,1:2:0:0:
308,86,334513,2,0,P|335:130|331:181,1,105,0|0,1:2|0:0,0:0:0:0:
179,217,334835,2,0,P|226:194|251:149,1,105,0|0,1:2|0:0,0:0:0:0:
182,80,335156,2,0,P|184:105|178:131,1,52.5,0|0,1:2|0:0,0:0:0:0:
51,219,335371,6,0,B|14:174|-25:46|69:22|132:72|98:124,1,275.62501051426,8|0,0:0|0:0,0:0:0:0:
111,140,336228,6,0,B|190:83|278:141|278:141|377:208|455:144,1,367.5,6|0,1:2|0:0,0:0:0:0:
459,130,337085,2,0,B|496:56|339:38|345:180|518:175|423:300,1,315,14|0,0:0|0:0,0:0:0:0:
352,353,337835,5,2,1:2:0:0:
351,353,337942,2,0,P|308:244|202:294,1,262.5,0|0,1:2|0:0,0:0:0:0:
217,301,338585,1,2,0:0:0:0:
113,241,338799,2,0,P|67:177|90:103,1,157.5,8|0,0:0|0:0,0:0:0:0:
216,115,339228,6,0,P|175:129|146:161,1,86.6250026435853,2|0,0:0|0:0,0:0:0:0:
229,102,339656,6,0,P|234:77|234:51,1,52.5,2|0,1:2|0:0,0:0:0:0:
296,135,339870,2,0,P|313:115|326:92,1,52.5,2|0,0:0|0:0,0:0:0:0:
338,196,340085,2,0,P|363:188|385:174,1,52.5,2|0,0:0|0:0,0:0:0:0:
464,162,340299,1,0,0:0:0:0:
464,162,340406,1,0,0:0:0:0:
464,162,340513,2,0,P|464:188|456:213,1,52.5,8|0,0:0|0:0,0:0:0:0:
396,256,340728,2,0,P|395:282|403:307,1,52.5,2|0,0:0|0:0,0:0:0:0:
452,365,340942,2,0,P|401:351|350:359,1,105,2|0,0:0|0:0,0:0:0:0:
266,369,341263,5,2,1:2:0:0:
266,369,341370,2,0,L|217:348,1,52.5,0|0,1:2|0:0,0:0:0:0:
143,297,341585,2,0,L|191:276,1,52.5,2|0,0:0|0:0,0:0:0:0:
266,225,341799,2,0,L|217:204,1,52.5,2|0,0:0|0:0,0:0:0:0:
155,155,342013,1,2,0:0:0:0:
155,155,342120,1,2,0:0:0:0:
155,155,342228,2,0,L|158:102,1,52.5,8|0,0:0|0:0,0:0:0:0:
223,24,342442,2,0,L|226:76,1,52.5,2|0,0:0|0:0,0:0:0:0:
272,135,342656,5,0,0:0:0:0:
287,134,342763,1,0,0:0:0:0:
303,134,342870,1,0,0:0:0:0:
319,134,342977,1,0,0:0:0:0:
334,134,343085,6,0,B|383:63|310:26|183:32|326:195|164:222,1,330.749989906311,2|0,1:2|0:0,0:0:0:0:
149,217,345442,6,0,P|164:235|171:288,1,78.7499975967408,2|0,0:0|0:0,0:0:0:0:
190,312,346085,2,0,P|167:320|150:335,1,47.2499985580445,2|0,0:0|0:0,0:0:0:0:
136,351,346513,6,0,B|59:385|-43:237|201:236|211:87|82:36|-23:70|19:190,1,488.249985099793,2|0,0:0|0:0,0:0:0:0:
17,207,349942,6,0,P|159:211|314:96,1,330.749989906311,2|0,0:0|0:0,0:0:0:0:
310,128,352299,6,0,P|295:164|296:203,1,78.7499975967408,2|0,0:0|0:0,0:0:0:0:
277,225,352942,2,0,P|288:245|292:268,1,47.2499985580445,2|0,0:0|0:0,0:0:0:0:
280,293,353370,6,0,P|319:291|352:312,1,78.7499975967408,2|0,0:0|0:0,0:0:0:0:
369,295,354013,6,0,B|358:420|527:381|547:226|335:270|438:101,1,393.749987983704,2|0,0:0|0:0,0:0:0:0:
457,97,356799,6,0,B|290:21|302:197|136:104,1,330.749989906311,2|0,0:0|0:0,0:0:0:0:
136,91,359156,2,0,L|141:169,1,78.7499975967408,2|0,0:0|0:0,0:0:0:0:
159,186,359799,2,0,L|155:233,1,47.2499985580445,2|0,0:0|0:0,0:0:0:0:
148,256,360228,6,0,B|166:342|244:330|378:213|99:227|102:31|412:18|306:213,1,488.249985099793,2|0,0:0|0:0,0:0:0:0:
318,226,363656,6,0,B|401:148|429:294|545:253|567:104|423:110|424:187,1,330.749989906311,2|0,0:0|0:0,0:0:0:0:
405,190,366013,6,0,P|416:228|414:267,1,78.7499975967408,2|0,0:0|0:0,0:0:0:0:
437,283,366656,2,0,P|426:320|425:339,1,47.2499985580445,2|0,0:0|0:0,0:0:0:0:
400,341,367085,6,0,P|363:329|321:334,1,78.7499975967408,2|0,0:0|0:0,0:0:0:0:
315,343,367728,5,2,0:0:0:0:
