osu file format v14

[General]
AudioFilename: Au5 - Singularity.mp3
AudioLeadIn: 0
PreviewTime: 260750
Countdown: 0
SampleSet: Soft
StackLeniency: 0.3
Mode: 0
LetterboxInBreaks: 0
WidescreenStoryboard: 0

[Editor]
DistanceSpacing: 1.2
BeatDivisor: 8
GridSize: 4
TimelineZoom: 4.400004

[Metadata]
Title:Singularity
TitleUnicode:Singularity
Artist:Au5
ArtistUnicode:Au5
Creator:Xelite
Version:Quantum Leap
Source:
Tags:
BeatmapID:1352102
BeatmapSetID:637320

[Difficulty]
HPDrainRate:4.5
CircleSize:3.8
OverallDifficulty:8.3
ApproachRate:9.8
SliderMultiplier:2
SliderTickRate:1

[Events]
//Background and Video events
0,0,"background_.jpg",0,0
//Break Periods
2,96366,150070
//Storyboard Layer 0 (Background)
//Storyboard Layer 1 (Fail)
//Storyboard Layer 2 (Pass)
//Storyboard Layer 3 (Foreground)
//Storyboard Sound Samples

[TimingPoints]
274,428.571428571429,4,2,0,10,1,0
274,-200,4,2,0,10,0,0
9900,-166.666666666667,4,2,0,15,0,0
13800,-125,4,1,0,35,0,0
27500,-200,4,1,0,30,0,0
29000,-200,4,1,0,40,0,0
29309,-200,4,1,0,5,0,0
29488,-200,4,1,0,40,0,0
29738,-200,4,1,0,5,0,0
29809,-200,4,1,0,40,0,0
30024,-200,4,1,0,5,0,0
30095,-200,4,1,0,40,0,0
39595,-50,4,1,0,40,0,0
41309,-100,4,1,0,40,0,0
42809,-83.3333333333333,4,1,0,40,0,0
43934,-68.9655172413793,4,1,0,40,0,0
44370,-83.3333333333333,4,1,0,40,0,0
45649,-76.9230769230769,4,1,0,40,0,0
46291,-74.0740740740741,4,1,0,40,0,0
47363,-68.9655172413793,4,1,0,40,0,0
48220,-68.9655172413793,4,1,0,40,0,0
53202,-66.6666666666667,4,1,0,50,0,0
68796,-60.6060606060606,4,1,0,55,0,0
81159,-50,4,1,0,65,0,0
81524,-50,4,1,0,5,0,0
81559,-50,4,1,0,70,0,0
81631,-50,4,1,0,5,0,0
81730,-40,4,1,0,75,0,0
82452,-200,4,1,0,30,0,0
150595,-50,4,1,0,30,0,0
151077,-105.263157894737,4,1,0,70,0,0
151506,-40,4,1,0,70,0,0
151916,-105.263157894737,4,1,0,70,0,0
152363,-40,4,1,0,70,0,0
152845,-105.263157894737,4,1,0,70,0,0
153311,-40,4,1,0,70,0,0
154506,-105.263157894737,4,1,0,70,0,0
155309,-66.6666666666667,4,1,0,70,0,0

[Colours]
Combo1 : 0,0,255
Combo2 : 147,255,255
Combo3 : 255,132,255
Combo4 : 255,164,72
Combo5 : 255,128,128
Combo6 : 255,0,0

[HitObjects]
224,64,274,6,0,P|326:153|309:174,1,200
240,240,1345,1,0,0:0:0:0:
204,136,1559,1,0,0:0:0:0:
116,68,1774,1,0,0:0:0:0:
60,164,1988,6,0,B|40:208|48:244|48:244|92:296|160:304,1,200
240,240,3059,1,0,0:0:0:0:
292,130,3274,1,0,0:0:0:0:
380,50,3488,1,0,0:0:0:0:
444,188,3702,6,0,B|432:256|352:256|320:232|304:316,1,200
248,188,4774,1,0,0:0:0:0:
352,96,4988,1,0,0:0:0:0:
216,40,5202,1,0,0:0:0:0:
120,152,5416,6,0,P|108:280|160:312,1,200
268,212,6488,1,0,0:0:0:0:
152,92,6702,1,0,0:0:0:0:
312,52,6916,1,0,0:0:0:0:
368,208,7131,6,0,B|392:284|384:320|384:320|332:304|332:304|288:320,1,200
248,176,8202,1,0,0:0:0:0:
136,316,8416,1,0,0:0:0:0:
152,136,8631,1,0,0:0:0:0:
68,276,8845,6,0,B|92:320|136:336|136:336|208:324|232:284,1,200
328,216,9916,1,0,0:0:0:0:
136,176,10131,1,0,0:0:0:0:
328,88,10345,1,0,0:0:0:0:
168,44,10559,6,0,P|92:40|52:180,1,239.999992675781
140,308,11631,1,0,0:0:0:0:
184,164,11845,1,0,0:0:0:0:
284,56,12059,1,0,0:0:0:0:
376,172,12274,6,0,B|436:268|372:332|372:332|352:280|308:284,1,239.999992675781
300,168,13345,1,0,0:0:0:0:
188,304,13559,1,0,0:0:0:0:
340,256,13774,1,0,0:0:0:0:
124,120,13988,5,0,0:0:0:0:
324,328,14309,1,0,0:0:0:0:
340,324,14416,2,0,P|368:272|344:216,1,120
252,212,14845,2,0,P|220:196|192:156,1,80
100,44,15274,2,0,P|76:80|80:124,1,80
140,248,15809,1,0,0:0:0:0:
148,256,16131,2,0,P|205:242|230:186,1,120
256,96,16559,1,0,0:0:0:0:
412,168,16988,1,0,0:0:0:0:
400,188,17095,1,0,0:0:0:0:
240,220,17416,6,0,P|272:268|333:273,1,120
425,154,17845,2,0,P|367:160|335:208,1,120
144,320,18274,2,0,P|113:297|96:255,1,80
240,220,18702,1,0,0:0:0:0:
108,84,18916,1,0,0:0:0:0:
124,196,19345,5,0,0:0:0:0:
240,220,19666,1,0,0:0:0:0:
328,288,19988,1,0,0:0:0:0:
424,212,20309,2,0,P|420:187|387:164,1,40
328,176,20524,2,0,B|307:163|307:163|274:153,1,40
164,56,20738,1,0,0:0:0:0:
152,60,20845,6,0,P|124:104|132:172,1,120
48,204,21274,2,0,P|59:254|113:297,1,120
212,172,21702,1,0,0:0:0:0:
312,292,21916,1,0,0:0:0:0:
368,160,22131,1,0,0:0:0:0:
260,56,22345,1,0,0:0:0:0:
200,332,22774,37,0,0:0:0:0:
264,240,22988,1,0,0:0:0:0:
368,248,23202,2,0,P|404:224|404:160,1,80
364,112,23631,1,0,0:0:0:0:
268,152,23845,1,0,0:0:0:0:
180,100,24059,1,0,0:0:0:0:
368,328,24274,5,0,0:0:0:0:
416,216,24595,1,0,0:0:0:0:
372,88,24916,1,0,0:0:0:0:
288,196,25238,2,0,P|264:208|248:192,1,40
184,72,25559,1,0,0:0:0:0:
100,176,25774,2,0,P|84:224|116:272,1,80
200,288,26202,22,0,P|219:306|262:306,1,40
254,202,26416,1,0,0:0:0:0:
380,288,26524,2,0,P|427:249|425:200,1,80
344,152,26845,2,0,P|372:98|351:53,1,80
224,72,27166,2,0,P|198:60|214:27,1,40
88,152,27381,2,0,P|100:181|137:187,1,40
92,324,27595,1,0,0:0:0:0:
416,340,27702,22,0,P|392:304|400:268,1,75
436,196,28131,1,0,0:0:0:0:
196,92,28452,1,0,0:0:0:0:
280,116,28559,2,0,P|314:84|317:63,2,50
404,240,29202,2,0,P|384:272|360:280,1,62.5
284,240,29524,2,0,P|252:260|224:260,1,62.5
340,116,29845,2,0,P|332:148|312:164,1,50
272,332,30274,1,0,0:0:0:0:
280,88,30702,1,0,0:0:0:0:
208,164,30809,1,0,0:0:0:0:
124,284,31131,6,0,P|144:308|180:316,1,50
244,284,31452,1,0,0:0:0:0:
312,228,31559,2,0,P|340:240|376:232,1,50
392,48,31881,1,0,0:0:0:0:
388,64,31988,2,0,P|356:128|312:144,1,100
148,64,32631,1,0,0:0:0:0:
88,168,33059,6,0,P|92:208|104:228,1,50
172,256,33381,1,0,0:0:0:0:
260,248,33488,2,0,P|277:265|300:266,1,37.5
364,216,33702,2,0,P|376:206|378:189,1,25
272,88,33916,1,0,0:0:0:0:
180,220,34024,1,0,0:0:0:0:
172,56,34238,2,0,P|168:76|176:88,1,25
260,248,34452,1,0,0:0:0:0:
396,104,34559,6,0,B|384:80|396:60|396:60|356:44,1,75
292,96,34988,1,0,0:0:0:0:
172,200,35309,1,0,0:0:0:0:
164,212,35416,2,0,P|166:233|206:257,1,50
280,188,35845,1,0,0:0:0:0:
336,276,36059,5,0,0:0:0:0:
456,196,36274,2,0,P|453:217|413:241,1,50
204,120,36702,1,0,0:0:0:0:
328,80,36916,1,0,0:0:0:0:
452,149,37131,2,0,P|460:185|444:209,1,50
268,272,37559,1,0,0:0:0:0:
308,176,37774,1,0,0:0:0:0:
392,108,37988,6,0,B|424:88|424:88|448:40,2,75
248,72,38845,1,0,0:0:0:0:
240,88,38952,1,0,0:0:0:0:
232,104,39059,1,0,0:0:0:0:
76,104,39274,2,0,P|68:132|72:156,1,50
216,272,39702,5,0,0:0:0:0:
152,208,39809,1,0,0:0:0:0:
244,192,39916,1,0,0:0:0:0:
172,132,40024,1,0,0:0:0:0:
248,88,40131,2,0,P|204:56|144:60,1,100
68,88,40345,1,0,0:0:0:0:
124,144,40452,1,0,0:0:0:0:
68,208,40559,1,0,0:0:0:0:
116,228,40666,1,0,0:0:0:0:
168,228,40774,1,0,0:0:0:0:
216,212,40881,1,0,0:0:0:0:
240,168,40988,1,0,0:0:0:0:
228,128,41095,1,0,0:0:0:0:
200,100,41202,1,0,0:0:0:0:
164,84,41309,1,0,0:0:0:0:
72,176,41416,6,0,B|56:224|56:248|64:264|64:264|104:256|124:288,1,150
80,336,41845,2,0,B|128:352|196:360|168:332|168:332|244:336,1,150
148,200,42274,1,0,0:0:0:0:
408,56,42702,1,0,0:0:0:0:
112,72,42916,2,0,P|148:128|132:200,1,119.999996337891
200,216,43238,2,0,P|244:168|316:160,1,119.999996337891
304,88,43559,2,0,P|276:72|268:32,1,59.9999981689454
232,188,43774,1,0,0:0:0:0:
179,79,43881,1,0,0:0:0:0:
132,152,43988,6,0,L|88:160,1,36.2500011062622
144,140,44095,2,0,L|168:180,1,36.2500011062622
156,128,44202,2,0,L|124:88,1,36.2500011062622
168,112,44309,2,0,L|204:124,1,36.2500011062622
179,79,44416,6,0,P|211:103|256:96,1,59.9999981689454
296,136,44631,2,0,P|272:176|280:204,1,59.9999981689454
260,256,44845,2,0,P|352:296|404:240,1,179.999994506836
424,140,45274,2,0,L|356:168,1,64.9999970245363
340,64,45488,1,0,0:0:0:0:
300,192,45595,1,0,0:0:0:0:
228,248,45702,2,0,B|256:248|284:280|284:280|304:248|330:244|332:216,1,129.999994049073
132,88,46131,6,0,P|152:56|188:72,1,64.9999970245363
400,148,46345,2,0,B|400:236|304:276|304:276|316:196,1,236.250000901222
304,164,46774,2,0,L|272:224,1,67.5000002574921
184,232,46988,1,0,0:0:0:0:
136,156,47095,2,0,B|144:104|168:136|168:136|208:156|252:120|240:88,1,135.000000514984
276,288,47416,6,0,L|276:224,1,36.2500011062622
344,260,47524,2,0,L|344:208,1,36.2500011062622
412,232,47631,1,0,0:0:0:0:
476,200,47738,2,0,L|476:240,1,36.2500011062622
476,296,47952,1,0,0:0:0:0:
408,300,48059,2,0,L|408:344,1,36.2500011062622
156,328,48274,6,0,B|256:304|272:264|272:264|200:240|200:200,1,217.500006637573
164,176,48702,2,0,B|200:128|152:92|152:92|138:76|196:32|240:56|272:96,1,217.500006637573
276,140,49131,2,0,B|312:140|332:100|332:100|384:96|432:124|408:176|408:176|404:228|444:224,1,253.750007743836
164,176,49613,5,0,0:0:0:0:
96,288,49774,2,0,B|240:344|204:168|204:168|312:172|360:172|300:276|392:272,1,435.000013275147
164,176,50631,2,0,P|220:200|236:228,1,75
368,80,50845,1,0,0:0:0:0:
444,120,50952,1,0,0:0:0:0:
368,160,51059,1,0,0:0:0:0:
444,200,51166,1,0,0:0:0:0:
300,264,51274,6,0,P|308:304|384:304,1,108.750003318787
444,200,51488,2,0,P|390:213|356:257,1,112.500004291535
320,96,51702,2,0,B|300:156|300:156|248:188|248:188|188:176|188:176|156:128,1,217.500006637573
344,320,52131,1,0,0:0:0:0:
304,176,52345,1,0,0:0:0:0:
188,276,52559,2,0,B|192:320|249:317|249:317|296:240|384:296,1,217.500006637573
108,180,52988,1,0,0:0:0:0:
308,64,53416,5,0,0:0:0:0:
276,104,53523,1,0,0:0:0:0:
224,116,53630,1,0,0:0:0:0:
172,108,53738,2,0,L|156:148,1,37.5000014305115
144,192,53844,5,0,0:0:0:0:
172,244,53951,1,0,0:0:0:0:
232,260,54058,1,0,0:0:0:0:
288,236,54165,1,0,0:0:0:0:
312,180,54273,1,0,0:0:0:0:
304,120,54380,1,0,0:0:0:0:
280,64,54488,2,0,L|324:44,1,37.5000014305115
360,32,54594,5,0,0:0:0:0:
412,84,54701,1,0,0:0:0:0:
432,156,54808,1,0,0:0:0:0:
416,228,54916,1,0,0:0:0:0:
364,280,55024,1,0,0:0:0:0:
296,308,55131,6,0,P|248:312|224:296,1,75.0000028610231
168,212,55345,1,0,0:0:0:0:
272,200,55452,1,0,0:0:0:0:
200,80,55559,6,0,P|204:120|228:164,1,75.0000028610231
200,260,55774,1,0,0:0:0:0:
284,320,55881,1,0,0:0:0:0:
304,216,55988,6,0,B|328:188|328:188|344:132,1,75.0000028610231
440,132,56202,1,0,0:0:0:0:
420,28,56309,1,0,0:0:0:0:
344,100,56416,6,0,B|308:116|308:116|260:104,1,75.0000028610231
168,104,56631,1,0,0:0:0:0:
108,192,56738,1,0,0:0:0:0:
128,296,56845,6,0,P|148:324|196:340,1,75.0000028610231
284,304,57059,1,0,0:0:0:0:
228,216,57166,1,0,0:0:0:0:
332,212,57274,6,0,B|356:184|356:184|364:132,1,75.0000028610231
440,76,57488,1,0,0:0:0:0:
340,52,57595,1,0,0:0:0:0:
361,146,57702,6,0,P|352:186|315:220,1,75.0000028610231
128,280,57916,2,0,P|164:276|193:253,1,75.0000028610231
250,152,58131,1,0,0:0:0:0:
112,168,58238,1,0,0:0:0:0:
193,252,58345,1,0,0:0:0:0:
250,152,58452,1,0,0:0:0:0:
176,80,58559,6,0,B|160:46|160:46|120:40,1,75.0000028610231
56,88,58774,1,0,0:0:0:0:
112,168,58881,1,0,0:0:0:0:
212,192,58988,6,0,B|252:184|252:184|280:152,1,75.0000028610231
376,124,59202,1,0,0:0:0:0:
336,208,59309,1,0,0:0:0:0:
248,280,59416,6,0,B|264:308|264:308|328:336,1,75.0000028610231
368,264,59631,1,0,0:0:0:0:
296,188,59738,1,0,0:0:0:0:
192,192,59845,6,0,B|164:216|164:216|156:256,1,75.0000028610231
224,304,60059,1,0,0:0:0:0:
296,252,60166,1,0,0:0:0:0:
256,156,60274,6,0,B|220:166|220:166|180:202,1,75.0000028610231
160,280,60488,1,0,0:0:0:0:
304,320,60595,1,0,0:0:0:0:
340,244,60702,6,0,B|352:216|352:216|328:164,1,75.0000028610231
352,96,60916,1,0,0:0:0:0:
448,192,61024,1,0,0:0:0:0:
400,56,61130,2,0,B|448:80|448:80|464:128,1,75.0000028610231
288,56,61345,1,4,0:0:0:0:
416,136,61452,1,0,0:0:0:0:
240,112,61559,1,8,0:0:0:0:
360,200,61666,1,0,0:0:0:0:
208,216,61774,1,0,0:0:0:0:
336,136,61881,1,0,0:0:0:0:
312,268,61988,6,0,B|276:297|276:297|232:296,1,75.0000028610231
168,264,62202,1,0,0:0:0:0:
116,204,62309,1,0,0:0:0:0:
184,160,62416,6,0,B|203:201|203:201|243:220,1,75.0000028610231
315,219,62630,1,0,0:0:0:0:
388,188,62737,1,0,0:0:0:0:
336,88,62845,6,0,B|339:134|339:134|313:169,1,75.0000028610231
240,164,63059,1,0,0:0:0:0:
180,224,63166,1,0,0:0:0:0:
225,291,63274,1,0,0:0:0:0:
358,327,63381,1,0,0:0:0:0:
315,219,63488,1,0,0:0:0:0:
225,291,63595,1,0,0:0:0:0:
256,188,63702,6,0,B|272:224|272:224|320:248,1,75.0000028610231
404,188,63916,1,0,0:0:0:0:
332,124,64024,1,0,0:0:0:0:
236,128,64131,6,0,B|220:152|220:152|224:204,1,75.0000028610231
320,216,64345,1,0,0:0:0:0:
340,128,64452,1,0,0:0:0:0:
280,80,64559,6,0,B|253:91|253:91|228:137,1,75.0000028610231
228,212,64774,1,0,0:0:0:0:
320,172,64881,1,0,0:0:0:0:
400,52,64988,6,0,B|412:88|412:88|412:140,1,75.0000028610231
440,208,65202,1,0,0:0:0:0:
372,264,65309,1,0,0:0:0:0:
332,188,65416,6,0,B|296:212|296:212|240:220,1,75.0000028610231
256,156,65631,1,0,0:0:0:0:
176,188,65738,1,0,0:0:0:0:
120,56,65845,6,0,B|160:40|160:40|220:40,1,75.0000028610231
264,96,66059,1,0,0:0:0:0:
344,56,66166,1,0,0:0:0:0:
340,148,66274,1,4,0:0:0:0:
424,120,66381,1,0,0:0:0:0:
416,208,66488,1,0,0:0:0:0:
340,148,66595,1,0,0:0:0:0:
232,204,66702,6,0,B|232:164|232:164|252:116,1,75.0000028610231
120,108,66916,1,0,0:0:0:0:
200,64,67024,1,0,0:0:0:0:
152,184,67131,6,0,B|160:216|160:216|192:252,1,75.0000028610231
276,188,67345,1,0,0:0:0:0:
376,224,67452,1,0,0:0:0:0:
352,120,67559,1,0,0:0:0:0:
456,128,67666,1,0,0:0:0:0:
280,72,67774,1,0,0:0:0:0:
456,48,67881,6,0,B|420:60|420:60|384:88,1,75.0000028610231
332,152,68041,2,0,L|380:172,4,37.5000014305115
300,224,68309,2,0,L|265:209,4,37.5000014305115
244,284,68577,1,0,0:0:0:0:
212,284,68631,1,0,0:0:0:0:
184,284,68684,1,0,0:0:0:0:
152,284,68738,1,0,0:0:0:0:
124,284,68791,1,0,0:0:0:0:
92,284,68845,6,0,B|107:244|107:244|107:204,1,82.5000007867813
216,268,69059,1,0,0:0:0:0:
104,324,69166,1,0,0:0:0:0:
76,220,69274,6,0,B|111:196|111:196|135:164,1,82.5000007867813
178,229,69488,1,0,0:0:0:0:
96,136,69595,1,0,0:0:0:0:
284,160,69702,6,0,B|252:188|252:188|180:196,1,82.5000007867813
236,56,69916,1,0,0:0:0:0:
184,188,70024,1,0,0:0:0:0:
316,140,70131,6,0,B|323:179|323:179|368:216,1,82.5000007867813
480,144,70345,1,0,0:0:0:0:
424,272,70452,1,0,0:0:0:0:
376,140,70559,6,0,B|368:172|368:172|320:216,1,82.5000007867813,4|0,0:0|0:0,0:0:0:0:
208,276,70774,1,0,0:0:0:0:
264,148,70881,1,0,0:0:0:0:
72,140,70988,6,0,B|96:168|96:168|144:188,1,82.5000007867813
240,68,71202,1,0,0:0:0:0:
212,224,71309,1,0,0:0:0:0:
444,72,71416,2,0,B|412:104|412:104|356:120,1,82.5000007867813
216,328,71631,2,0,B|251:317|251:317|283:285,1,82.5000007867813
312,108,71845,1,0,0:0:0:0:
176,224,71952,1,0,0:0:0:0:
356,224,72059,1,0,0:0:0:0:
216,108,72166,1,0,0:0:0:0:
264,284,72274,6,0,B|284:312|284:312|348:330,1,82.5000007867813
440,180,72488,1,0,0:0:0:0:
260,200,72595,1,0,0:0:0:0:
416,112,72702,6,0,B|392:136|392:136|332:152,1,82.5000007867813
192,248,72916,1,0,0:0:0:0:
364,312,73024,1,0,0:0:0:0:
236,184,73131,6,0,B|260:208|260:208|312:224,1,82.5000007867813
400,68,73345,1,0,0:0:0:0:
380,248,73452,1,0,0:0:0:0:
212,312,73559,6,0,B|168:320|168:320|124:304,1,82.5000007867813
40,48,73774,2,0,B|60:76|60:76|124:94,1,82.5000007867813
192,140,73988,5,0,0:0:0:0:
324,72,74095,1,0,0:0:0:0:
320,220,74202,1,0,0:0:0:0:
256,88,74309,1,0,0:0:0:0:
400,184,74416,1,0,0:0:0:0:
376,68,74524,1,0,0:0:0:0:
288,272,74631,1,0,0:0:0:0:
208,148,74738,1,0,0:0:0:0:
357,244,74845,6,0,B|333:272|333:272|253:272,1,82.5000007867813
304,340,75059,1,0,0:0:0:0:
304,92,75166,1,0,0:0:0:0:
248,232,75274,1,0,0:0:0:0:
356,132,75381,1,0,0:0:0:0:
312,272,75488,1,0,0:0:0:0:
188,188,75595,1,0,0:0:0:0:
344,120,75702,6,0,B|304:144|304:144|240:156,1,82.5000007867813
244,288,75916,1,0,0:0:0:0:
136,200,76024,1,0,0:0:0:0:
268,150,76131,6,0,B|314:142|314:142|370:110,1,82.5000007867813
453,214,76345,1,0,0:0:0:0:
479,77,76453,1,0,0:0:0:0:
345,125,76559,6,0,B|305:141|305:141|237:141,1,82.5000007867813
144,252,76774,6,0,B|107:228|107:228|68:172,1,82.5000007867813
120,60,76988,1,0,0:0:0:0:
196,180,77095,1,0,0:0:0:0:
272,100,77202,1,0,0:0:0:0:
356,212,77309,1,0,0:0:0:0:
440,100,77416,6,0,B|440:144|440:144|428:188,1,82.5000007867813
288,192,77631,1,0,0:0:0:0:
300,332,77738,1,0,0:0:0:0:
172,272,77845,6,0,B|132:264|132:264|92:236,1,82.5000007867813
236,212,78059,1,0,0:0:0:0:
200,348,78166,1,0,0:0:0:0:
120,140,78274,6,0,B|144:168|144:168|192:184,1,82.5000007867813
204,44,78488,1,0,0:0:0:0:
72,88,78595,1,0,0:0:0:0:
187,182,78702,6,0,B|159:210|159:210|107:230,1,82.5000007867813
272,284,78916,1,0,0:0:0:0:
324,124,79024,1,0,0:0:0:0:
160,128,79131,6,0,B|188:156|188:156|256:180,1,82.5000007867813
344,188,79345,1,0,0:0:0:0:
452,148,79452,1,0,0:0:0:0:
456,32,79559,6,0,B|428:60|428:60|360:84,1,82.5000007867813
240,124,79774,1,0,0:0:0:0:
128,100,79881,1,0,0:0:0:0:
164,208,79988,6,0,B|200:228|200:228|228:276,1,82.5000007867813
368,324,80202,1,0,0:0:0:0:
316,168,80309,1,0,0:0:0:0:
452,200,80416,6,0,B|452:160|452:160|428:104,1,82.5000007867813
292,36,80631,1,0,0:0:0:0:
332,196,80738,1,0,0:0:0:0:
172,152,80845,6,0,B|184:184|184:184|252:224,1,82.5000007867813
180,312,81059,1,0,0:0:0:0:
320,296,81166,2,0,B|356:264|356:264|372:192,1,100
388,88,81381,1,0,0:0:0:0:
260,200,81488,2,0,B|280:188|280:188|300:132,1,50
232,72,81595,2,0,B|217:121|217:121|181:153,1,100
88,188,81809,1,0,0:0:0:0:
180,228,81916,6,0,B|216:280|216:280|288:312,1,125
360,176,82131,1,0,0:0:0:0:
260,204,82238,6,0,B|292:176|292:176|284:124|192:116,1,125
144,132,82452,1,0,0:0:0:0:
184,44,82559,2,0,P|224:104|388:112,1,250
248,204,83845,2,0,L|292:168,1,40
440,160,84166,2,0,L|432:120,1,40
404,92,84381,1,0,0:0:0:0:
368,72,84488,1,0,0:0:0:0:
216,152,84702,1,0,0:0:0:0:
280,216,84809,1,0,0:0:0:0:
360,84,85024,5,0,0:0:0:0:
316,60,85238,2,0,L|272:36,1,40
392,296,85559,1,0,0:0:0:0:
416,212,85666,1,0,0:0:0:0:
120,240,85988,2,0,P|213:239|239:328,1,200
280,56,87059,1,0,0:0:0:0:
404,216,87274,5,0,0:0:0:0:
328,196,87381,1,0,0:0:0:0:
228,304,87595,2,0,L|192:304,1,25
156,280,87809,1,0,0:0:0:0:
140,228,87916,2,0,L|168:220,1,25
240,192,88131,1,0,0:0:0:0:
328,220,88238,1,0,0:0:0:0:
228,240,88452,2,0,L|256:228,1,25
312,172,88666,1,0,0:0:0:0:
284,96,88774,1,0,0:0:0:0:
116,272,88988,1,0,0:0:0:0:
156,296,89095,1,0,0:0:0:0:
228,140,89309,1,0,0:0:0:0:
352,260,89416,6,0,B|408:120|408:120|356:124,1,200
312,288,90702,1,0,0:0:0:0:
272,256,90809,1,0,0:0:0:0:
364,120,91024,2,0,L|348:92,1,25
272,88,91238,1,0,0:0:0:0:
220,144,91345,1,0,0:0:0:0:
144,268,91559,1,0,0:0:0:0:
196,276,91666,1,0,0:0:0:0:
248,264,91774,2,0,P|328:248|368:188,1,150
372,112,92416,2,0,P|328:96|284:112,1,87.5
248,168,92845,2,0,P|276:244|328:260,1,137.5
368,240,93488,2,0,P|310:287|239:311,1,150
216,116,94452,6,0,L|244:132,1,25
284,192,94666,1,0,0:0:0:0:
220,236,94774,1,0,0:0:0:0:
408,156,94988,1,0,0:0:0:0:
360,92,95095,1,0,0:0:0:0:
160,48,95524,1,0,0:0:0:0:
204,108,95631,1,0,0:0:0:0:
432,200,95845,1,0,0:0:0:0:
416,260,95952,1,0,0:0:0:0:
320,248,96059,1,0,0:0:0:0:
332,192,96166,1,0,0:0:0:0:
304,108,150595,6,0,L|336:48,1,50
380,156,150702,2,0,L|447:165,1,50
396,256,150809,2,0,L|410:322,1,50
312,320,150916,2,0,L|254:355,1,50
204,276,151023,2,0,L|150:234,1,50
215,150,151131,6,0,B|228:136|228:136|219:90|259:46|311:58|303:110,1,166.249995560646
296,248,151559,2,0,B|272:288|272:288|224:300,1,83.3333333333333
160,248,151702,2,0,B|114:239|114:239|86:198,1,83.3333333333333
124,128,151845,2,0,B|116:81|116:81|145:41,1,83.3333333333333
240,76,151988,6,0,B|232:60|232:60|276:80|276:80|304:52|360:72,1,142.49999619484
368,172,152416,2,0,L|448:168,1,62.5
192,196,152524,2,0,L|272:192,1,62.5
368,264,152631,2,0,L|288:268,1,62.5
172,320,152738,2,0,L|252:316,1,62.5
254,192,152845,6,0,B|304:188|304:188|364:160|364:160|320:132|320:132|288:136,1,189.999994926453
368,264,153327,2,0,P|404:256|424:224,1,62.5
234,316,153434,2,0,P|253:347|290:354,1,62.5
139,207,153541,2,0,P|116:236|121:273,1,62.5
298,134,153702,2,0,B|276:120|276:120|318:114|358:110|358:110|348:172,1,125
233,315,153916,2,0,B|231:332|231:332|276:344|276:344|313:322|313:322|304:304,1,125
139,207,154131,2,0,B|116:160|116:160|104:36|188:220|276:40|276:40|384:100,1,375
432,256,154559,2,0,B|404:269|404:269|356:268|356:268|316:272|292:308|292:308|240:340|196:304,1,261.249993023873
184,296,155202,1,0,0:0:0:0:
176,280,155255,1,0,0:0:0:0:
172,264,155309,1,0,0:0:0:0:
176,244,155363,1,0,0:0:0:0:
184,232,155416,38,0,B|196:224|196:224|208:204|208:204|228:196|228:196|240:180|240:180|244:176,1,75.0000028610231
408,60,155631,2,0,B|432:88|432:88|432:144,1,75.0000028610231
