osu file format v14

[General]
AudioFilename: audio.mp3
AudioLeadIn: 0
PreviewTime: 165475
Countdown: 0
SampleSet: Soft
StackLeniency: 0.7
Mode: 3
LetterboxInBreaks: 0
SpecialStyle: 0
WidescreenStoryboard: 0
SamplesMatchPlaybackRate: 1

[Editor]
DistanceSpacing: 1
BeatDivisor: 3
GridSize: 4
TimelineZoom: 2

[Metadata]
Title:Return To Moonland
TitleUnicode:Return To Moonland
Artist:Au5
ArtistUnicode:Au5
Creator:FLeVI
Version:Spirit
Source:
Tags:electronic instrumental Austin Collins Alchemy LP Blossom EP VIP self remix piano strings keysound
BeatmapID:2541133
BeatmapSetID:1221602

[Difficulty]
HPDrainRate:8.5
CircleSize:4
OverallDifficulty:7.5
ApproachRate:5
SliderMultiplier:1.4
SliderTickRate:1

[Events]
//Background and Video events
0,0,"illust_71888874_20200720_112105.jpg",0,0
//Break Periods
//Storyboard Layer 0 (Background)
//Storyboard Layer 1 (Fail)
//Storyboard Layer 2 (Pass)
//Storyboard Layer 3 (Foreground)
//Storyboard Layer 4 (Overlay)
//Storyboard Sound Samples
Sample,73674,0,"Strings-a-08.ogg",70
Sample,124984,0,"Strings-rev-02.ogg",80
Sample,162122,0,"Ch-Bell-D7.ogg",70
Sample,164873,0,"Reverse+.ogg",70
Sample,165657,0,"D7S_s.ogg",85
Sample,189954,0,"Reverse.ogg",70
Sample,190738,0,"Strings-kiai-01.ogg",50
Sample,192306,0,"Strings-kiai-02.ogg",50
Sample,193873,0,"Strings-kiai-03.ogg",50
Sample,195441,0,"Strings-kiai-04.ogg",50
Sample,197009,0,"Strings-kiai-05.ogg",50
Sample,197596,0,"Strings-kiai-06.ogg",50
Sample,198184,0,"Strings-kiai-07.ogg",50
Sample,198576,0,"Strings-kiai-08.ogg",50
Sample,199360,0,"Strings-kiai-09.ogg",50
Sample,200144,0,"Strings-kiai-10.ogg",50
Sample,202495,0,"Strings-kiai-11.ogg",50
Sample,203279,0,"Strings-kiai-01.ogg",50
Sample,204847,0,"Strings-kiai-02.ogg",50
Sample,206414,0,"Strings-kiai-03.ogg",50
Sample,207982,0,"Strings-kiai-04.ogg",50
Sample,209549,0,"Strings-kiai-05.ogg",50
Sample,210137,0,"Strings-kiai-12.ogg",50
Sample,210725,0,"Strings-kiai-07.ogg",50
Sample,211117,0,"Strings-kiai-08.ogg",50
Sample,211901,0,"Strings-kiai-09.ogg",50
Sample,212685,0,"Strings-kiai-01.ogg",50
Sample,214252,0,"Strings-kiai-13.ogg",50
Sample,215036,0,"Reverse.ogg",70
Sample,215036,0,"Strings-kiai-14.ogg",50
Sample,215428,0,"Strings-kiai-15.ogg",50
Sample,240117,0,"Reverse+.ogg",70
Sample,254565,0,"Fty-C#6.ogg",100
Sample,254979,0,"Fty-D6.ogg",100
Sample,257878,0,"Fty-C#6.ogg",100
Sample,258292,0,"Fty-E6.ogg",100
Sample,261190,0,"Fty-C#6.ogg",100
Sample,261604,0,"Fty-D6.ogg",100
Sample,264503,0,"Fty-C#6.ogg",100
Sample,264917,0,"Fty-F#6.ogg",100
Sample,267402,0,"Fty-F#5.ogg",100
Sample,267816,0,"Fty-C#6.ogg",100
Sample,268230,0,"Fty-D6.ogg",100
Sample,268644,0,"Fty-B5.ogg",100
Sample,270714,0,"Fty-A5.ogg",100
Sample,271128,0,"Fty-C#6.ogg",100
Sample,271542,0,"Fty-E6.ogg",100
Sample,271956,0,"Fty-B5.ogg",100
Sample,274027,0,"Fty-F#5.ogg",100
Sample,274441,0,"Fty-C#6.ogg",100
Sample,274855,0,"Fty-D6.ogg",100
Sample,275269,0,"Fty-B5.ogg",100
Sample,277339,0,"Fty-D6.ogg",100
Sample,277754,0,"Fty-E6.ogg",100
Sample,278168,0,"Fty-F#6.ogg",100
Sample,278582,0,"Fty-E6.ogg",100
Sample,280652,0,"Fty-F#5.ogg",100
Sample,281066,0,"Fty-C#6.ogg",100
Sample,281480,0,"Fty-D6.ogg",100
Sample,283965,0,"Fty-A5.ogg",100
Sample,284379,0,"Fty-C#6.ogg",100
Sample,284793,0,"Fty-E6.ogg",100
Sample,287277,0,"Fty-F#5.ogg",100
Sample,287691,0,"Fty-C#6.ogg",100
Sample,288105,0,"Fty-D6.ogg",100
Sample,290590,0,"Fty-D6.ogg",100
Sample,293074,0,"Reverse.ogg",70
Sample,293903,0,"Fty-F#5.ogg",100
Sample,297213,0,"Fty-A5.ogg",100
Sample,298454,0,"kickdrum.wav",70
Sample,300523,0,"Fty-F#5.ogg",100
Sample,301765,0,"kickdrum.wav",70
Sample,303834,0,"Fty-D6.ogg",100
Sample,304247,0,"Fty-E6.ogg",100
Sample,304661,0,"Fty-F#6.ogg",100
Sample,305075,0,"kickdrum.wav",70
Sample,307144,0,"Fty-F#5.ogg",100
Sample,308385,0,"kickdrum.wav",70
Sample,310454,0,"Fty-A5.ogg",100
Sample,311282,0,"Fty-E6.ogg",100
Sample,311696,0,"kickdrum.wav",70
Sample,313765,0,"Fty-F#5.ogg",100
Sample,314178,0,"Fty-C#6.ogg",100
Sample,314592,0,"Fty-D6.ogg",100
Sample,315006,0,"kickdrum.wav",70
Sample,317075,0,"Fty-D6.ogg",100
Sample,317489,0,"Fty-E6.ogg",100
Sample,317903,0,"Fty-F#6.ogg",100
Sample,318316,0,"kickdrum.wav",70
Sample,319558,0,"Reverse.ogg",70
Sample,320385,0,"Fty-F#5.ogg",100
Sample,323696,0,"Fty-A5.ogg",100
Sample,324937,0,"Fty-B5.ogg",100
Sample,327006,0,"GM1Crash_01.wav",70
Sample,327006,0,"Fty-F#5.ogg",100
Sample,327109,0,"soft-hitnormal.wav",100
Sample,328247,0,"Fty-B5.ogg",100
Sample,330316,0,"Fty-D6.ogg",100
Sample,330730,0,"soft-hitnormal.wav",100
Sample,331144,0,"soft-hitnormal.wav",100
Sample,331558,0,"Fty-E6.ogg",100
Sample,332799,0,"Reverse.ogg",70
Sample,333627,0,"Fty-F#5.ogg",100
Sample,334868,0,"Fty-B5.ogg",100
Sample,336937,0,"Fty-A5.ogg",100
Sample,337765,0,"soft-hitnormal.wav",100
Sample,338178,0,"Fty-B5.ogg",100
Sample,340247,0,"Fty-F#5.ogg",100
Sample,340661,0,"soft-hitnormal.wav",100
Sample,341075,0,"soft-hitnormal.wav",100
Sample,341489,0,"Fty-B5.ogg",100
Sample,343558,0,"Fty-D6.ogg",100
Sample,343971,0,"soft-hitnormal.wav",100
Sample,344385,0,"soft-hitnormal.wav",100
Sample,344799,0,"Fty-E6.ogg",100
Sample,346040,0,"Reverse.ogg",70

[TimingPoints]
192,500,4,2,1,60,1,0
192,-110.344827586207,4,2,1,60,0,0
23192,495.867768595041,4,2,1,60,1,0
23192,-111.264367816032,4,2,1,60,0,0
24183,500,4,2,1,60,1,0
24183,-110.344827586207,4,2,1,60,0,0
24933,506.329113924051,4,2,1,60,1,0
24933,-108.96551724142,4,2,1,60,0,0
28224,512.820512820513,4,2,1,60,1,0
28224,-107.586206896572,4,2,1,60,0,0
28993,545.454545454546,4,2,1,60,1,0
28993,-102.068965517213,4,2,1,60,0,0
30350,600,4,2,1,60,1,0
30350,-91.9540229885057,4,2,1,60,0,0
33950,413.793103448276,4,2,1,60,1,0
33950,-142.857142857143,4,2,1,60,0,0
47191,-136.986301369863,4,2,1,60,0,0
53812,-131.578947368421,4,2,1,60,0,0
60432,-126.582278481013,4,2,1,60,0,0
67053,-121.951219512195,4,2,1,60,0,0
73674,-117.647058823529,4,2,1,60,0,0
80294,-113.636363636364,4,2,1,60,0,0
86915,-109.89010989011,4,2,1,60,0,0
93536,-106.382978723404,4,2,1,60,0,0
100156,-103.092783505155,4,2,1,60,0,0
106777,-100,4,2,1,60,0,0
141536,412.371134020619,4,2,1,60,1,0
141536,-100.344828,4,2,1,60,0,0
143185,410.958904109589,4,2,1,60,1,0
143185,-100.689655,4,2,1,60,0,0
144828,408.163265306122,4,2,1,60,1,0
144828,-101.37931,4,2,1,60,0,0
146460,406.779661016949,4,2,1,60,1,0
146460,-101.724138,4,2,1,60,0,0
149714,405.405405405405,4,2,1,60,1,0
149714,-102.068966,4,2,1,60,0,0
151335,404.040404040404,4,2,1,60,1,0
151335,-102.413793,4,2,1,60,0,0
152951,402.684563758389,4,2,1,60,1,0
152951,-102.758621,4,2,1,60,0,0
154561,400,4,2,1,60,1,0
154561,-103.448276,4,2,1,60,0,0
156161,398.671096345515,4,2,1,60,1,0
156161,-103.793103,4,2,1,60,0,0
159349,397.350993377483,4,2,1,60,1,0
159349,-104.137931,4,2,1,60,0,0
160938,394.736842105263,4,2,1,60,1,0
160938,-104.827586,4,2,1,60,0,0
162516,393.44262295082,4,2,1,60,1,0
162516,-105.172414,4,2,1,60,0,0
164089,392.156862745098,4,2,1,60,1,0
164089,-105.517241,4,2,1,60,0,0
165657,391.900718484651,4,2,1,60,1,1
165657,-105.586207,4,2,1,60,0,1
215820,-107.412,4,2,1,60,0,0
216015,-109.649,4,2,1,60,0,0
216211,-111.982,4,2,1,60,0,0
216407,-114.417,4,2,1,60,0,0
216603,-116.959,4,2,1,60,0,0
216799,-119.617,4,2,1,60,0,0
216995,-122.399,4,2,1,60,0,0
217191,-125.314,4,2,1,60,0,0
217387,-128.369,4,2,1,60,0,0
217583,-131.579,4,2,1,60,0,0
217779,-134.953,4,2,1,60,0,0
217975,-138.504,4,2,1,60,0,0
218171,-140.351,4,2,1,60,0,0
240901,414.07867494824,4,2,1,60,1,0
240901,-142.857142857143,4,2,1,60,0,0
244213,-138.888888888889,4,2,1,60,0,0
247526,-135.135135135135,4,2,1,60,0,0
250838,-131.578947368421,4,2,1,60,0,0
254151,-128.205128205128,4,2,1,60,0,0
257464,-125,4,2,1,60,0,0
260776,-121.951219512195,4,2,1,60,0,0
264089,-119.047619047619,4,2,1,60,0,0
267402,-116.279069767442,4,2,1,60,0,0
270714,-113.636363636364,4,2,1,60,0,0
274027,-111.111111111111,4,2,1,60,0,0
277339,-108.695652173913,4,2,1,60,0,0
280652,-106.382978723404,4,2,1,60,0,0
283965,-104.166666666667,4,2,1,60,0,0
287277,-102.040816326531,4,2,1,60,0,0
290590,-100,4,2,1,60,0,0
293903,413.793103448276,4,2,1,60,1,1
293904,-100,4,2,1,60,0,1
346868,-142.857142857143,4,2,1,60,0,0

[HitObjects]
192,192,192,128,0,4192:0:0:0:50:Strings-start-01.ogg
320,192,4192,128,0,8192:0:0:0:50:Strings-start-02.ogg
64,192,8192,128,0,12192:0:0:0:50:Strings-start-03.ogg
448,192,12192,128,0,14192:0:0:0:50:Strings-start-04.ogg
320,192,14192,128,0,16192:0:0:0:50:Strings-start-05.ogg
64,192,16192,128,0,19192:0:0:0:50:Strings-start-06.ogg
448,192,16192,1,0,0:0:0:90:Ch-Bell-F#6.ogg
192,192,16942,1,0,0:0:0:90:Ch-Bell-B5.ogg
320,192,19192,1,0,0:0:0:90:Ch-Bell-F#6.ogg
192,192,19192,128,0,20192:0:0:0:50:Strings-start-06a.ogg
448,192,19692,1,0,0:0:0:90:Ch-Bell-A6.ogg
64,192,20192,1,0,0:0:0:90:Ch-Bell-D6.ogg
320,192,20192,128,0,23192:0:0:0:50:Strings-start-07.ogg
192,192,20942,1,0,0:0:0:90:Ch-Bell-B5.ogg
192,192,23192,128,0,24183:0:0:0:50:Strings-start-07a.ogg
64,192,24183,128,0,28224:0:0:0:50:Strings-start-08.ogg
448,192,24183,1,0,0:0:0:90:Ch-Bell-F#6.ogg
320,192,24933,1,0,0:0:0:90:Ch-Bell-B5.ogg
448,192,28224,128,0,30350:0:0:0:50:Strings-start-09.ogg
320,192,28224,1,0,0:0:0:90:Ch-Bell-D6.ogg
64,192,28993,1,0,0:0:0:70:Ch-Bell-A5.ogg
192,192,29811,1,0,0:0:0:90:Ch-Bell-D6.ogg
320,192,30350,128,0,31550:0:0:0:50:Strings-start-10.ogg
64,192,30350,1,0,0:0:0:90:Ch-Bell-E6.ogg
192,192,31550,128,0,32750:0:0:0:50:Strings-start-10a.ogg
64,192,32750,128,0,33950:0:0:0:0:
192,192,33950,1,0,0:0:0:55:F#5S_Gb5S.ogg
320,192,33984,1,0,0:0:0:55:B5S.ogg
448,192,34018,1,0,0:0:0:55:D6S.ogg
64,192,35605,1,0,0:0:0:55:E5S.ogg
448,192,35605,1,0,0:0:0:55:C#6S_Db6S.ogg
320,192,35605,1,0,0:0:0:55:A5S.ogg
64,192,37260,1,0,0:0:0:50:D5S.ogg
192,192,37260,1,0,0:0:0:40:E5S.ogg
320,192,37294,1,0,0:0:0:70:A5S.ogg
64,192,38501,1,0,0:0:0:50:D5S.ogg
448,192,38501,1,0,0:0:0:50:B5S.ogg
64,192,40570,1,0,0:0:0:50:D5S.ogg
192,192,40570,1,0,0:0:0:35:D6S.ogg
448,192,41191,1,0,0:0:0:40:F#6S_Gb6S.ogg
320,192,41191,1,0,0:0:0:55:A5S.ogg
64,192,41812,1,0,0:0:0:50:D5S.ogg
448,192,41812,1,0,0:0:0:35:D6S.ogg
320,192,42225,1,0,0:0:0:35:E6S.ogg
192,192,42225,1,0,0:0:0:50:E5S.ogg
448,192,42846,1,0,0:0:0:40:F#6S_Gb6S.ogg
320,192,42846,1,0,0:0:0:55:A5S.ogg
64,192,43467,1,0,0:0:0:50:D5S.ogg
192,192,43467,1,0,0:0:0:50:B5S.ogg
192,192,46984,1,0,0:0:0:50:B5S_s.ogg
320,192,47087,1,0,0:0:0:50:C#6S_Db6S_s.ogg
448,192,47191,1,0,0:0:0:50:D6+B5+F#5.ogg
64,192,47191,128,0,48846:0:0:0:50:Strings-a-01.ogg
192,192,48846,128,0,50501:0:0:0:50:Strings-a-02.ogg
320,192,48846,1,0,0:0:0:50:C#6+A5+E5.ogg
448,192,50501,1,0,0:0:0:50:E5+D5.ogg
320,192,50501,128,0,53812:0:0:0:50:Strings-a-03.ogg
64,192,50536,1,0,0:0:0:60:A5S.ogg
192,192,51743,1,0,0:0:0:50:B5+D5.ogg
64,192,53812,128,0,55467:0:0:0:50:Strings-a-04.ogg
192,192,53812,1,0,0:0:0:50:D6+D5.ogg
448,192,54432,1,0,0:0:0:50:F#6+A5.ogg
192,192,55053,1,0,0:0:0:50:D6+D5.ogg
192,192,55467,128,0,56708:0:0:0:50:Strings-a-05.ogg
320,192,55467,1,0,0:0:0:50:E6+E5.ogg
448,192,56087,1,0,0:0:0:50:F#6+A5.ogg
320,192,56708,128,0,60432:0:0:0:50:Strings-a-06.ogg
64,192,56708,1,0,0:0:0:50:B5+D5.ogg
64,192,58777,1,0,0:0:0:50:D6+G5.ogg
448,192,59605,1,0,0:0:0:50:A6+D6.ogg
192,192,60018,1,0,0:0:0:50:E6+B5.ogg
64,192,60432,128,0,62087:0:0:0:60:Strings-a-01.ogg
448,192,60432,1,0,0:0:0:50:D6+B5+F#5.ogg
320,192,62087,1,0,0:0:0:50:C#6+A5+E5.ogg
192,192,62087,128,0,63743:0:0:0:60:Strings-a-02.ogg
64,192,62708,128,0,63122:0:0:0:100:Fir-E6.ogg
448,192,63122,128,0,71812:0:0:0:100:Fir-B6.ogg
64,192,63743,1,0,0:0:0:50:A5+E5+D5.ogg
320,192,63743,128,0,67053:0:0:0:60:Strings-a-07.ogg
192,192,64984,1,0,0:0:0:50:B5+D5.ogg
64,192,67053,1,0,0:0:0:50:D6+D5.ogg
320,192,67674,1,0,0:0:0:50:F#6+A5.ogg
64,192,68294,1,0,0:0:0:50:D6+D5.ogg
192,192,68708,1,0,0:0:0:50:E6+E5.ogg
320,192,69329,1,0,0:0:0:50:F#6+A5.ogg
64,192,69950,1,0,0:0:0:50:B5+D5.ogg
320,192,71812,128,0,72639:0:0:0:100:Fir-E7.ogg
192,192,72018,128,0,73053:0:0:0:100:Fir-C#7.ogg
64,192,72639,128,0,80294:0:0:0:100:Fir-A6.ogg
320,192,73053,128,0,76984:0:0:0:50:Fir-B6.ogg
448,192,73674,1,0,0:0:0:50:D6+B5+F#5.ogg
192,192,75329,1,0,0:0:0:50:C#6+A5+E5.ogg
448,192,76984,128,0,80294:0:0:0:50:A5+E5+D5.ogg
192,192,78225,1,0,0:0:0:50:B5+A5+D5.ogg
320,192,80294,1,0,0:0:0:50:D6+D5.ogg
192,192,80294,128,0,82570:0:0:0:80:Strings-a-09.ogg
448,192,80915,1,0,0:0:0:50:F#6+A5.ogg
64,192,81536,1,0,0:0:0:50:D6+D5.ogg
320,192,81950,1,0,0:0:0:50:E6+E5.ogg
320,192,82570,128,0,83191:0:0:0:80:Strings-a-10.ogg
448,192,82570,1,0,0:0:0:50:F#6+A5.ogg
448,192,83191,128,0,86915:0:0:0:80:Strings-a-11.ogg
64,192,83191,1,0,0:0:0:50:B5+D5.ogg
192,192,85053,128,0,85467:0:0:0:100:Fir-E7.ogg
320,192,85260,1,0,0:0:0:50:D6+G5.ogg
64,192,85467,128,0,85674:0:0:0:100:Fir-B6.ogg
320,192,85674,128,0,86087:0:0:0:100:Fir-C#7.ogg
192,192,86087,1,0,0:0:0:50:A6+D6.ogg
64,192,86087,128,0,86501:0:0:0:100:Fir-B6.ogg
192,192,86501,128,0,86915:0:0:0:100:Fir-C#7.ogg
320,192,86501,1,0,0:0:0:50:E6+B5.ogg
320,192,86915,128,0,88570:0:0:0:80:Strings-a-12.ogg
64,192,86915,1,0,0:0:0:50:D6+B5+F#5.ogg
448,192,88570,1,0,0:0:0:50:C#6+A5+E5.ogg
192,192,88570,128,0,90225:0:0:0:80:Strings-a-13.ogg
320,192,89191,128,0,89605:0:0:0:100:Fir-E6.ogg
64,192,89605,128,0,93536:0:0:0:100:Fir-B6.ogg
448,192,90225,128,0,93536:0:0:0:80:Strings-a-14.ogg
320,192,90225,1,0,0:0:0:50:A5+E5+D5.ogg
192,192,91467,1,0,0:0:0:50:D6+A5.ogg
192,192,93536,128,0,95191:0:0:0:80:Strings-a-15.ogg
320,192,93536,1,0,0:0:0:50:D6+D5.ogg
448,192,94156,1,0,0:0:0:50:F#6+A5.ogg
64,192,94777,1,0,0:0:0:50:D6+D5.ogg
320,192,95191,128,0,96432:0:0:0:80:Strings-a-16.ogg
448,192,95191,1,0,0:0:0:50:E6+E5.ogg
192,192,95812,1,0,0:0:0:50:F#6+A5.ogg
192,192,96432,128,0,100156:0:0:0:80:Strings-a-17.ogg
64,192,96432,1,0,0:0:0:50:B5+D5.ogg
448,192,98294,128,0,98501:0:0:0:100:Fir-E7.ogg
320,192,98501,128,0,98915:0:0:0:100:Fir-C#7.ogg
64,192,98915,128,0,99329:0:0:0:100:Fir-C#7.ogg
448,192,99329,128,0,99536:0:0:0:100:Fir-C#7.ogg
320,192,99536,128,0,103467:0:0:0:100:Fir-A6.ogg
64,192,100156,128,0,101812:0:0:0:80:Strings-a-12.ogg
448,192,100156,1,0,0:0:0:50:D6+B5+F#5.ogg
448,192,101812,1,0,0:0:0:50:C#6+A5+E5.ogg
192,192,101812,128,0,104708:0:0:0:80:Strings-a-13.ogg
448,192,103467,128,0,106777:0:0:0:80:Strings-a-18.ogg
64,192,103467,1,0,0:0:0:50:A5+E5+D5.ogg
320,192,104708,128,0,109674:0:0:0:80:Strings-a-19.ogg
64,192,104708,1,0,0:0:0:50:B5+A5+D5.ogg
192,192,106777,128,0,109053:0:0:0:80:Strings-a-20.ogg
64,192,106777,1,0,0:0:0:50:D6+D5.ogg
448,192,107398,1,0,0:0:0:50:F#6+A5.ogg
64,192,108018,1,0,0:0:0:50:D6+D5.ogg
448,192,108432,1,0,0:0:0:50:E6+E5.ogg
448,192,109053,128,0,111536:0:0:0:80:Strings-a-21.ogg
64,192,109053,1,0,0:0:0:50:F#6+A5.ogg
64,192,109674,128,0,113294:0:0:0:80:Strings-a-22.ogg
192,192,109674,1,0,0:0:0:50:B5+D5.ogg
320,192,111536,128,0,111950:0:0:0:100:Fir-E7.ogg
448,192,111743,1,0,0:0:0:50:D6+G5.ogg
192,192,111950,128,0,112156:0:0:0:100:Fir-B6.ogg
448,192,112156,128,0,112570:0:0:0:100:Fir-C#7.ogg
320,192,112570,128,0,112984:0:0:0:100:Fir-B6.ogg
192,192,112570,1,0,0:0:0:50:A6+D6.ogg
192,192,112984,1,0,0:0:0:50:E6+B5.ogg
448,192,112984,128,0,113294:0:0:0:100:Fir-C#7.ogg
320,192,113398,128,0,113501:0:0:0:70:LR_RBell.wav
448,192,113398,1,0,0:0:0:70:kickdrumheavy.wav
192,192,113398,128,0,115053:0:0:0:100:Fir-F#6.ogg
64,192,113398,1,0,0:0:0:70:kickdrum.wav
448,192,114018,128,0,114536:0:0:0:100:Fir-F#7.ogg
320,192,114018,1,0,0:0:0:50:kickdrum.wav
448,192,114639,128,0,115260:0:0:0:100:Fir-F#7.ogg
320,192,114639,1,0,0:0:0:50:kickdrum.wav
320,192,115053,1,0,0:0:0:50:kickdrum.wav
64,192,115053,128,0,115260:0:0:0:100:Strings-b-02.ogg
192,192,115260,128,0,116294:0:0:0:100:Fir-B6.ogg
64,192,115674,1,0,0:0:0:50:kickdrum.wav
448,192,115674,1,0,0:0:0:0:
320,192,115881,128,0,116605:0:0:0:100:Fir-C#7.ogg
448,192,116294,128,0,116708:0:0:0:100:Fir-A6.ogg
64,192,116294,1,0,0:0:0:50:kickdrum.wav
64,192,116708,128,0,118363:0:0:0:100:Fir-F#6.ogg
320,192,116708,1,0,0:0:0:50:kickdrum.wav
192,192,116708,128,0,116915:0:0:0:100:Strings-b-03.ogg
448,192,117329,1,0,0:0:0:0:
320,192,117329,1,0,0:0:0:50:kickdrum.wav
448,192,117950,1,0,0:0:0:0:
320,192,117950,1,0,0:0:0:50:kickdrum.wav
192,192,118363,1,0,0:0:0:50:kickdrum.wav
320,192,118363,128,0,120018:0:0:0:80:Strings-rev-01.ogg
192,192,118984,1,0,0:0:0:50:kickdrum.wav
64,192,118984,1,0,0:0:0:0:
192,192,119605,1,0,0:0:0:50:kickdrum.wav
64,192,119605,1,0,0:0:0:0:
64,192,120018,1,0,0:0:0:0:
192,192,120018,1,0,0:0:0:50:kickdrum.wav
448,192,120018,128,0,121674:0:0:0:100:Fir-F#6.ogg
64,192,120639,128,0,121156:0:0:0:100:Fir-F#7.ogg
192,192,120639,1,0,0:0:0:50:kickdrum.wav
64,192,121260,128,0,121881:0:0:0:100:Fir-F#7.ogg
192,192,121260,1,0,0:0:0:50:kickdrum.wav
320,192,121674,1,0,0:0:0:50:kickdrum.wav
192,192,121674,128,0,121881:0:0:0:100:Strings-b-02.ogg
448,192,121881,128,0,122812:0:0:0:100:Fir-B6.ogg
192,192,122294,1,0,0:0:0:50:kickdrum.wav
320,192,122294,1,0,0:0:0:0:
64,192,122501,128,0,122915:0:0:0:100:Fir-C#7.ogg
192,192,122915,128,0,124570:0:0:0:100:Fir-A6.ogg
320,192,122915,128,0,123122:0:0:0:100:Strings-b-01.ogg
448,192,122915,1,0,0:0:0:50:kickdrum.wav
320,192,123536,1,0,0:0:0:0:
448,192,123536,1,0,0:0:0:50:kickdrum.wav
448,192,124156,1,0,0:0:0:50:kickdrum.wav
320,192,124156,1,0,0:0:0:0:
448,192,124570,1,0,0:0:0:50:kickdrum.wav
64,192,124570,128,0,126432:0:0:0:0:
192,192,125191,1,0,0:0:0:0:
320,192,125191,1,0,0:0:0:50:kickdrum.wav
320,192,125812,1,0,0:0:0:60:kickdrum.wav
192,192,125812,1,0,0:0:0:0:
192,192,126225,1,0,0:0:0:0:
320,192,126225,1,0,0:0:0:70:kickdrum.wav
192,192,126432,1,0,0:0:0:70:kickdrum.wav
448,192,126432,1,0,0:0:0:0:
320,192,126536,1,0,0:0:0:40:kickdrum.wav
448,192,126639,1,0,0:0:0:70:kickdrumheavy.wav
192,192,126639,128,0,128294:0:0:0:100:Fir-F#6.ogg
64,192,126639,128,0,126846:0:0:0:100:Strings-b-03.ogg
448,192,127260,128,0,127777:0:0:0:100:Fir-F#7.ogg
320,192,127260,1,0,0:0:0:50:kickdrum.wav
448,192,127881,128,0,128501:0:0:0:100:Fir-F#7.ogg
320,192,127881,1,0,0:0:0:50:kickdrum.wav
64,192,128294,128,0,128501:0:0:0:100:Strings-b-04.ogg
320,192,128294,1,0,0:0:0:50:kickdrum.wav
192,192,128501,128,0,129536:0:0:0:100:Fir-B6.ogg
448,192,128915,1,0,0:0:0:50:kickdrum.wav
320,192,128915,1,0,0:0:0:0:
64,192,129122,128,0,129846:0:0:0:100:Fir-C#7.ogg
320,192,129536,128,0,129950:0:0:0:100:Fir-A6.ogg
448,192,129536,1,0,0:0:0:50:kickdrum.wav
448,192,129950,128,0,131605:0:0:0:100:Fir-F#6.ogg
192,192,129950,128,0,130156:0:0:0:100:Strings-b-05.ogg
64,192,129950,1,0,0:0:0:50:kickdrum.wav
64,192,130570,128,0,130881:0:0:0:100:Fir-F#7.ogg
192,192,130570,1,0,0:0:0:50:kickdrum.wav
64,192,130984,128,0,131294:0:0:0:100:Fir-F#7.ogg
192,192,131191,1,0,0:0:0:50:kickdrum.wav
320,192,131191,128,0,131398:0:0:0:100:Strings-b-04.ogg
64,192,131398,128,0,131605:0:0:0:100:Fir-F#7.ogg
192,192,131605,128,0,132432:0:0:0:100:Fir-B6.ogg
320,192,131812,1,0,0:0:0:0:
64,192,131812,1,0,0:0:0:50:kickdrum.wav
448,192,132018,128,0,132846:0:0:0:100:Fir-C#7.ogg
320,192,132432,128,0,133156:0:0:0:100:Fir-A6.ogg
64,192,132432,1,0,0:0:0:50:kickdrum.wav
192,192,132846,128,0,133260:0:0:0:100:Fir-E7.ogg
64,192,132846,1,0,0:0:0:50:kickdrum.wav
64,192,133260,128,0,134915:0:0:0:100:Fir-F#6.ogg
448,192,133260,1,0,0:0:0:50:kickdrum.wav
320,192,133260,1,0,0:0:0:0:
448,192,133881,128,0,134398:0:0:0:100:Fir-F#7.ogg
320,192,133881,1,0,0:0:0:50:kickdrum.wav
448,192,134501,128,0,135122:0:0:0:100:Fir-F#7.ogg
320,192,134501,1,0,0:0:0:50:kickdrum.wav
320,192,134915,128,0,135122:0:0:0:100:Strings-b-04.ogg
192,192,134915,1,0,0:0:0:50:kickdrum.wav
64,192,135122,128,0,136053:0:0:0:100:Fir-B6.ogg
448,192,135536,1,0,0:0:0:0:
320,192,135536,1,0,0:0:0:50:kickdrum.wav
192,192,135743,128,0,136156:0:0:0:100:Fir-C#7.ogg
320,192,136156,128,0,136363:0:0:0:100:Strings-b-03.ogg
448,192,136156,128,0,138225:0:0:0:100:Fir-A6.ogg
64,192,136156,1,0,0:0:0:50:kickdrum.wav
192,192,136363,1,0,0:0:0:0:
64,192,136570,1,0,0:0:0:0:
320,192,136777,1,0,0:0:0:0:
192,192,136984,1,0,0:0:0:0:
64,192,137191,1,0,0:0:0:0:
320,192,137398,1,0,0:0:0:0:
64,192,137605,1,0,0:0:0:0:
192,192,137812,1,0,0:0:0:0:
320,192,138018,1,0,0:0:0:0:
64,192,138225,128,0,139053:0:0:0:80:Strings-rev-01.ogg
192,192,138225,1,0,0:0:0:0:
448,192,138432,1,0,0:0:0:0:
320,192,138639,1,0,0:0:0:0:
192,192,138846,1,0,0:0:0:0:
448,192,139053,128,0,139363:0:0:0:70:Reverse+.ogg
320,192,139156,128,0,139260:0:0:0:0:
192,192,139260,128,0,139363:0:0:0:0:
320,192,139363,128,0,139467:0:0:0:0:
64,192,139467,128,0,139777:0:0:0:0:
192,192,139570,128,0,139674:0:0:0:0:
320,192,139674,128,0,139777:0:0:0:0:
192,192,139777,128,0,139881:0:0:0:0:
448,192,139881,1,0,0:0:0:70:kickdrumheavy.wav
64,192,139881,128,0,139950:0:0:0:70:Ch-Bell-B6.ogg
320,192,139881,1,0,0:0:0:0:
64,192,140087,1,0,0:0:0:0:
64,192,140294,1,0,0:0:0:0:
320,192,140501,128,0,140570:0:0:0:70:Ch-Bell-B7.ogg
448,192,140501,1,0,0:0:0:50:kickdrum.wav
448,192,140708,1,0,0:0:0:0:
448,192,140915,1,0,0:0:0:0:
320,192,141122,128,0,141191:0:0:0:70:Ch-Bell-B7.ogg
192,192,141122,1,0,0:0:0:50:kickdrum.wav
192,192,141329,1,0,0:0:0:0:
320,192,141536,1,0,0:0:0:0:
448,192,141536,128,0,141742:0:0:0:100:Strings-b-02.ogg
64,192,141536,1,0,0:0:0:50:kickdrum.wav
64,192,141742,128,0,141810:0:0:0:70:Ch-Bell-E7.ogg
64,192,141948,1,0,0:0:0:0:
320,192,142154,1,0,0:0:0:50:kickdrum.wav
448,192,142154,1,0,0:0:0:0:
192,192,142360,128,0,142429:0:0:0:70:Ch-Bell-F#7.ogg
320,192,142463,1,0,0:0:0:0:
64,192,142566,1,0,0:0:0:0:
192,192,142670,1,0,0:0:0:0:
320,192,142773,1,0,0:0:0:50:kickdrum.wav
448,192,142773,128,0,142841:0:0:0:70:Ch-Bell-D7.ogg
192,192,142979,1,0,0:0:0:0:
448,192,143185,1,0,0:0:0:50:kickdrum.wav
64,192,143185,128,0,143253:0:0:0:70:Ch-Bell-B6.ogg
320,192,143185,128,0,143390:0:0:0:100:Strings-b-03.ogg
64,192,143390,1,0,0:0:0:0:
64,192,143595,1,0,0:0:0:0:
192,192,143801,1,0,0:0:0:50:kickdrum.wav
448,192,143801,1,0,0:0:0:0:
192,192,144006,1,0,0:0:0:0:
192,192,144212,1,0,0:0:0:0:
320,192,144417,1,0,0:0:0:0:
448,192,144417,1,0,0:0:0:50:kickdrum.wav
448,192,144623,1,0,0:0:0:0:
320,192,144828,1,0,0:0:0:50:kickdrum.wav
192,192,144828,1,0,0:0:0:0:
64,192,144828,128,0,146460:0:0:0:80:Strings-rev-01.ogg
320,192,145032,1,0,0:0:0:0:
320,192,145236,1,0,0:0:0:0:
192,192,145440,1,0,0:0:0:50:kickdrum.wav
448,192,145440,1,0,0:0:0:0:
192,192,145644,1,0,0:0:0:0:
192,192,145848,1,0,0:0:0:0:
320,192,146052,1,0,0:0:0:0:
448,192,146052,1,0,0:0:0:50:kickdrum.wav
448,192,146256,1,0,0:0:0:0:
192,192,146460,1,0,0:0:0:70:kickdrumheavy.wav
448,192,146460,128,0,146663:0:0:0:100:Strings-b-03.ogg
320,192,146460,128,0,146527:0:0:0:70:Ch-Bell-B6.ogg
64,192,146663,1,0,0:0:0:0:
192,192,146765,1,0,0:0:0:0:
320,192,146866,1,0,0:0:0:0:
64,192,146968,1,0,0:0:0:0:
448,192,147070,1,0,0:0:0:50:kickdrum.wav
192,192,147070,128,0,147137:0:0:0:70:Ch-Bell-B7.ogg
320,192,147273,1,0,0:0:0:0:
192,192,147375,1,0,0:0:0:0:
448,192,147476,1,0,0:0:0:0:
320,192,147578,1,0,0:0:0:0:
192,192,147680,1,0,0:0:0:50:kickdrum.wav
64,192,147680,128,0,147748:0:0:0:70:Ch-Bell-B7.ogg
448,192,147782,1,0,0:0:0:0:
320,192,147883,1,0,0:0:0:0:
192,192,147985,1,0,0:0:0:0:
320,192,148087,1,0,0:0:0:50:kickdrum.wav
64,192,148087,128,0,148290:0:0:0:100:Strings-b-02.ogg
448,192,148087,1,0,0:0:0:0:
448,192,148290,128,0,148358:0:0:0:70:Ch-Bell-E7.ogg
320,192,148392,1,0,0:0:0:0:
64,192,148493,1,0,0:0:0:0:
448,192,148697,1,0,0:0:0:0:
192,192,148697,1,0,0:0:0:50:kickdrum.wav
320,192,148900,128,0,148968:0:0:0:70:Ch-Bell-F#7.ogg
192,192,149104,1,0,0:0:0:0:
320,192,149205,1,0,0:0:0:0:
64,192,149307,128,0,149510:0:0:0:100:Strings-b-01.ogg
448,192,149307,1,0,0:0:0:50:kickdrum.wav
192,192,149307,128,0,149375:0:0:0:70:Ch-Bell-D7.ogg
320,192,149510,1,0,0:0:0:0:
448,192,149612,1,0,0:0:0:0:
192,192,149714,128,0,149781:0:0:0:70:Ch-Bell-D7.ogg
448,192,149916,1,0,0:0:0:0:
64,192,149916,1,0,0:0:0:50:kickdrum.wav
320,192,150119,1,0,0:0:0:0:
320,192,150322,1,0,0:0:0:0:
192,192,150524,1,0,0:0:0:0:
64,192,150524,1,0,0:0:0:50:kickdrum.wav
64,192,150727,1,0,0:0:0:0:
64,192,150930,1,0,0:0:0:0:
448,192,151132,1,0,0:0:0:50:kickdrum.wav
320,192,151132,1,0,0:0:0:0:
64,192,151335,128,0,152749:0:0:0:80:Strings-rev-02.ogg
192,192,151335,1,0,0:0:0:0:
448,192,151537,1,0,0:0:0:0:
320,192,151739,1,0,0:0:0:0:
192,192,151941,1,0,0:0:0:0:
320,192,152143,1,0,0:0:0:0:
448,192,152345,1,0,0:0:0:0:
192,192,152547,1,0,0:0:0:0:
448,192,152749,1,0,0:0:0:0:
320,192,152749,1,0,0:0:0:30:kickdrum.wav
192,192,152850,1,0,0:0:0:30:kickdrum.wav
320,192,152951,1,0,0:0:0:70:kickdrumheavy.wav
448,192,152951,128,0,153152:0:0:0:100:Strings-b-03.ogg
64,192,152951,128,0,153018:0:0:0:70:Ch-Bell-B6.ogg
192,192,153152,1,0,0:0:0:0:
64,192,153253,1,0,0:0:0:0:
320,192,153353,1,0,0:0:0:0:
192,192,153454,1,0,0:0:0:0:
64,192,153555,1,0,0:0:0:50:kickdrum.wav
448,192,153555,128,0,153622:0:0:0:70:Ch-Bell-B7.ogg
192,192,153756,1,0,0:0:0:0:
320,192,153857,1,0,0:0:0:0:
64,192,153957,1,0,0:0:0:0:
192,192,154058,1,0,0:0:0:0:
320,192,154159,1,0,0:0:0:50:kickdrum.wav
448,192,154159,128,0,154226:0:0:0:70:Ch-Bell-B7.ogg
64,192,154259,1,0,0:0:0:0:
192,192,154360,1,0,0:0:0:0:
320,192,154461,1,0,0:0:0:0:
448,192,154561,1,0,0:0:0:0:
64,192,154561,128,0,154761:0:0:0:100:Strings-b-06.ogg
192,192,154561,1,0,0:0:0:50:kickdrum.wav
320,192,154761,128,0,154827:0:0:0:70:Ch-Bell-E7.ogg
448,192,154861,1,0,0:0:0:0:
192,192,154961,1,0,0:0:0:0:
320,192,155061,1,0,0:0:0:0:
448,192,155161,1,0,0:0:0:0:
64,192,155161,1,0,0:0:0:50:kickdrum.wav
192,192,155361,128,0,155427:0:0:0:70:Ch-Bell-F#7.ogg
448,192,155461,1,0,0:0:0:0:
320,192,155561,1,0,0:0:0:0:
192,192,155661,1,0,0:0:0:0:
448,192,155761,128,0,155827:0:0:0:70:Ch-Bell-D7.ogg
64,192,155761,1,0,0:0:0:50:kickdrum.wav
192,192,155961,1,0,0:0:0:0:
320,192,156061,1,0,0:0:0:0:
192,192,156161,128,0,156360:0:0:0:100:Strings-b-07.ogg
64,192,156161,128,0,156227:0:0:0:70:Ch-Bell-B6.ogg
448,192,156161,1,0,0:0:0:50:kickdrum.wav
64,192,156360,1,0,0:0:0:0:
64,192,156559,1,0,0:0:0:0:
448,192,156759,128,0,156825:0:0:0:70:Ch-Bell-B7.ogg
320,192,156759,1,0,0:0:0:50:kickdrum.wav
192,192,156958,1,0,0:0:0:0:
448,192,157157,128,0,157224:0:0:0:70:Ch-Bell-B7.ogg
64,192,157357,128,0,157556:0:0:0:100:Strings-b-06.ogg
320,192,157357,1,0,0:0:0:50:kickdrum.wav
448,192,157357,128,0,157423:0:0:0:70:Ch-Bell-B7.ogg
192,192,157556,1,0,0:0:0:0:
320,192,157755,128,0,157822:0:0:0:70:Ch-Bell-E7.ogg
192,192,157755,1,0,0:0:0:50:kickdrum.wav
64,192,157755,128,0,159349:0:0:0:80:Strings-rev-03.ogg
320,192,157955,1,0,0:0:0:0:
448,192,158154,128,0,158220:0:0:0:70:Ch-Bell-F#7.ogg
320,192,158353,1,0,0:0:0:50:kickdrum.wav
448,192,158353,1,0,0:0:0:0:
192,192,158553,128,0,158619:0:0:0:70:Ch-Bell-D7.ogg
192,192,158752,1,0,0:0:0:0:
320,192,158951,1,0,0:0:0:50:kickdrum.wav
448,192,158951,128,0,159018:0:0:0:70:Ch-Bell-A7.ogg
448,192,159151,1,0,0:0:0:0:
192,192,159349,1,0,0:0:0:70:kickdrumheavy.wav
448,192,159349,128,0,159547:0:0:0:100:Strings-b-03.ogg
320,192,159349,128,0,159415:0:0:0:70:Ch-Bell-B6.ogg
64,192,159547,1,0,0:0:0:0:
192,192,159647,1,0,0:0:0:0:
320,192,159746,1,0,0:0:0:0:
192,192,159845,1,0,0:0:0:0:
64,192,159945,1,0,0:0:0:50:kickdrum.wav
448,192,159945,128,0,160011:0:0:0:70:Ch-Bell-B7.ogg
320,192,160143,1,0,0:0:0:0:
192,192,160243,1,0,0:0:0:0:
448,192,160342,1,0,0:0:0:0:
320,192,160441,1,0,0:0:0:0:
192,192,160541,1,0,0:0:0:50:kickdrum.wav
64,192,160541,128,0,160607:0:0:0:70:Ch-Bell-B7.ogg
448,192,160739,1,0,0:0:0:0:
320,192,160839,1,0,0:0:0:0:
64,192,160938,5,0,0:0:0:0:
192,192,160938,128,0,161135:0:0:0:100:Strings-b-02.ogg
448,192,160938,1,0,0:0:0:50:kickdrum.wav
320,192,161135,128,0,161201:0:0:0:70:Ch-Bell-E7.ogg
448,192,161234,1,0,0:0:0:0:
64,192,161332,1,0,0:0:0:0:
192,192,161431,1,0,0:0:0:0:
448,192,161530,1,0,0:0:0:50:kickdrum.wav
320,192,161530,1,0,0:0:0:0:
192,192,161727,128,0,161793:0:0:0:70:Ch-Bell-F#7.ogg
64,192,161826,1,0,0:0:0:0:
320,192,161924,1,0,0:0:0:0:
192,192,162023,1,0,0:0:0:0:
64,192,162122,128,0,165461:0:0:0:30:F#6S_Gb6S_s.ogg
448,192,162122,128,0,162188:0:0:0:100:Strings-b-01.ogg
320,192,162122,1,0,0:0:0:50:kickdrum.wav
192,192,162319,1,0,0:0:0:30:B5S_s.ogg
320,192,162516,1,0,0:0:0:30:D7S_s.ogg
448,192,162712,1,0,0:0:0:30:F#6S_Gb6S_s.ogg
192,192,162909,1,0,0:0:0:30:B5S_s.ogg
320,192,163106,1,0,0:0:0:30:D7S_s.ogg
192,192,163302,1,0,0:0:0:35:F#6S_Gb6S_s.ogg
448,192,163499,1,0,0:0:0:35:B5S_s.ogg
320,192,163696,1,0,0:0:0:40:D7S_s.ogg
192,192,163893,1,0,0:0:0:45:F#6S_Gb6S_s.ogg
448,192,164089,1,0,0:0:0:50:B5S_s.ogg
192,192,164285,1,0,0:0:0:55:D7S_s.ogg
320,192,164481,1,0,0:0:0:60:F#6S_Gb6S_s.ogg
448,192,164677,1,0,0:0:0:65:B5S_s.ogg
192,192,164873,1,0,0:0:0:70:D7S_s.ogg
320,192,165069,1,0,0:0:0:70:F#6S_Gb6S_s.ogg
192,192,165265,1,0,0:0:0:70:B5S_s.ogg
448,192,165461,1,0,0:0:0:85:B6S_s.ogg
320,192,165559,1,0,0:0:0:85:C#7S_Db7S_s.ogg
64,192,165657,1,0,0:0:0:70:kickdrumheavy.wav
448,192,165657,128,0,167224:0:0:0:50:Strings-kiai-01.ogg
192,192,165657,128,0,165754:0:0:0:70:LR_RBell.wav
64,192,165852,1,0,0:0:0:70:F#6S_Gb6S_s.ogg
320,192,166048,1,0,0:0:0:85:B5S_s.ogg
64,192,166244,1,0,0:0:0:70:kickdrum.wav
192,192,166244,1,0,0:0:0:85:D7S_s.ogg
64,192,166440,1,0,0:0:0:70:F#6S_Gb6S_s.ogg
320,192,166636,1,0,0:0:0:85:B5S_s.ogg
192,192,166832,1,0,0:0:0:85:D7S_s.ogg
64,192,166832,1,0,0:0:0:70:kickdrum.wav
320,192,167028,1,0,0:0:0:85:C#7S_Db7S_s.ogg
320,192,167224,128,0,168792:0:0:0:50:Strings-kiai-02.ogg
64,192,167224,1,0,0:0:0:70:kickdrum.wav
192,192,167224,1,0,0:0:0:85:E6S_s.ogg
64,192,167420,1,0,0:0:0:85:A5S_s.ogg
448,192,167616,1,0,0:0:0:85:C#7S_Db7S_s.ogg
192,192,167812,1,0,0:0:0:85:E6S_s.ogg
64,192,167812,1,0,0:0:0:70:kickdrum.wav
64,192,168008,1,0,0:0:0:85:A5S_s.ogg
448,192,168204,1,0,0:0:0:85:C#7S_Db7S_s.ogg
192,192,168400,1,0,0:0:0:85:E6S_s.ogg
64,192,168400,1,0,0:0:0:70:kickdrum.wav
448,192,168596,1,0,0:0:0:85:A5S_s.ogg
64,192,168792,128,0,170359:0:0:0:50:Strings-kiai-03.ogg
192,192,168792,1,0,0:0:0:70:kickdrum.wav
448,192,168792,1,0,0:0:0:85:B6S_s.ogg
192,192,168988,1,0,0:0:0:85:D6S_s.ogg
320,192,169184,1,0,0:0:0:85:G5S_s.ogg
192,192,169380,1,0,0:0:0:70:kickdrum.wav
448,192,169380,1,0,0:0:0:85:B6S_s.ogg
192,192,169576,1,0,0:0:0:85:D6S_s.ogg
320,192,169771,1,0,0:0:0:85:G5S_s.ogg
192,192,169967,1,0,0:0:0:70:kickdrum.wav
448,192,169967,1,0,0:0:0:85:B6S_s.ogg
320,192,170163,1,0,0:0:0:85:A6S_s.ogg
192,192,170359,128,0,171731:0:0:0:50:Strings-kiai-04.ogg
320,192,170359,1,0,0:0:0:85:D6S_s.ogg
448,192,170359,1,0,0:0:0:70:kickdrum.wav
448,192,170555,1,0,0:0:0:85:F#5S_Gb5S_s.ogg
64,192,170751,1,0,0:0:0:85:A6S_s.ogg
320,192,170947,1,0,0:0:0:85:D6S_s.ogg
448,192,170947,1,0,0:0:0:70:kickdrum.wav
448,192,171143,1,0,0:0:0:85:F#5S_Gb5S_s.ogg
64,192,171339,1,0,0:0:0:85:A6S_s.ogg
320,192,171535,1,0,0:0:0:85:D6S_s.ogg
448,192,171535,1,0,0:0:0:70:kickdrum.wav
64,192,171731,1,0,0:0:0:85:F#5S_Gb5S_s.ogg
448,192,171862,1,0,0:0:0:40:kickdrum.wav
320,192,171927,128,0,172515:0:0:0:50:Strings-kiai-05.ogg
64,192,171927,1,0,0:0:0:85:F#6S_Gb6S_s.ogg
192,192,171927,1,0,0:0:0:70:kickdrum.wav
448,192,172123,1,0,0:0:0:85:B5S_s.ogg
64,192,172319,1,0,0:0:0:85:E5S_s.ogg
448,192,172515,128,0,173103:0:0:0:50:Strings-kiai-06.ogg
64,192,172515,1,0,0:0:0:70:kickdrum.wav
192,192,172515,1,0,0:0:0:85:F#6S_Gb6S_s.ogg
320,192,172711,1,0,0:0:0:85:B5S_s.ogg
64,192,172907,1,0,0:0:0:85:E5S_s.ogg
320,192,173103,128,0,173495:0:0:0:50:Strings-kiai-07.ogg
64,192,173103,1,0,0:0:0:70:kickdrum.wav
192,192,173103,1,0,0:0:0:85:G6S_s.ogg
448,192,173299,1,0,0:0:0:85:F#6S_Gb6S_s.ogg
64,192,173495,128,0,174278:0:0:0:50:Strings-kiai-08.ogg
192,192,173495,1,0,0:0:0:85:E6S_s.ogg
448,192,173495,1,0,0:0:0:70:kickdrum.wav
320,192,173690,1,0,0:0:0:85:F#5S_Gb5S_s.ogg
192,192,173886,1,0,0:0:0:85:A6S_s.ogg
320,192,174082,1,0,0:0:0:85:E6S_s.ogg
448,192,174082,1,0,0:0:0:70:kickdrum.wav
448,192,174278,1,0,0:0:0:85:F#5S_Gb5S_s.ogg
192,192,174278,128,0,175062:0:0:0:50:Strings-kiai-09.ogg
320,192,174474,1,0,0:0:0:85:A6S_s.ogg
448,192,174670,1,0,0:0:0:70:kickdrum.wav
64,192,174670,1,0,0:0:0:85:E6S_s.ogg
320,192,174866,1,0,0:0:0:85:G5S_s.ogg
64,192,175062,128,0,177414:0:0:0:50:Strings-kiai-10.ogg
448,192,175062,1,0,0:0:0:70:kickdrum.wav
320,192,175062,1,0,0:0:0:85:B6S_s.ogg
448,192,175258,1,0,0:0:0:85:D6S_s.ogg
192,192,175454,1,0,0:0:0:85:G5S_s.ogg
448,192,175650,1,0,0:0:0:70:kickdrum.wav
320,192,175650,1,0,0:0:0:85:B6S_s.ogg
448,192,175846,1,0,0:0:0:85:D6S_s.ogg
192,192,176042,1,0,0:0:0:85:G5S_s.ogg
320,192,176238,1,0,0:0:0:85:B6S_s.ogg
448,192,176238,1,0,0:0:0:70:kickdrum.wav
448,192,176434,1,0,0:0:0:85:A6S_s.ogg
192,192,176630,1,0,0:0:0:85:F#6S_Gb6S_s.ogg
448,192,176826,1,0,0:0:0:85:E6S_s.ogg
192,192,177022,1,0,0:0:0:85:D6S_s.ogg
320,192,177218,1,0,0:0:0:85:A6S_s.ogg
192,192,177414,128,0,178001:0:0:0:50:Strings-kiai-11.ogg
320,192,177414,1,0,0:0:0:70:kickdrum.wav
448,192,177414,1,0,0:0:0:85:E6S_s.ogg
64,192,177609,1,0,0:0:0:85:D6S_s.ogg
320,192,177805,1,0,0:0:0:85:B5S_s.ogg
448,192,178001,5,0,0:0:0:85:A5S_s.ogg
64,192,178001,1,0,0:0:0:40:kickdrum.wav
320,192,178099,1,0,0:0:0:40:kickdrum.wav
192,192,178197,1,0,0:0:0:70:kickdrumheavy.wav
64,192,178197,1,0,0:0:0:85:D7S_s.ogg
448,192,178197,128,0,179765:0:0:0:50:Strings-kiai-01.ogg
192,192,178393,1,0,0:0:0:85:F#6S_Gb6S_s.ogg
320,192,178589,1,0,0:0:0:85:B5S_s.ogg
64,192,178785,1,0,0:0:0:85:D7S_s.ogg
192,192,178785,1,0,0:0:0:70:kickdrum.wav
192,192,178981,1,0,0:0:0:85:F#6S_Gb6S_s.ogg
320,192,179177,1,0,0:0:0:85:B5S_s.ogg
64,192,179373,1,0,0:0:0:85:D7S_s.ogg
192,192,179373,1,0,0:0:0:70:kickdrum.wav
320,192,179569,1,0,0:0:0:85:C#7S_Db7S_s.ogg
320,192,179765,128,0,181333:0:0:0:50:Strings-kiai-02.ogg
192,192,179765,1,0,0:0:0:70:kickdrum.wav
64,192,179765,1,0,0:0:0:85:E6S_s.ogg
192,192,179961,1,0,0:0:0:85:A5S_s.ogg
448,192,180157,1,0,0:0:0:85:C#7S_Db7S_s.ogg
64,192,180353,1,0,0:0:0:85:E6S_s.ogg
192,192,180353,1,0,0:0:0:70:kickdrum.wav
192,192,180549,1,0,0:0:0:85:A5S_s.ogg
448,192,180745,1,0,0:0:0:85:C#7S_Db7S_s.ogg
64,192,180941,1,0,0:0:0:85:E6S_s.ogg
192,192,180941,1,0,0:0:0:70:kickdrum.wav
448,192,181137,1,0,0:0:0:85:A5S_s.ogg
448,192,181333,1,0,0:0:0:85:B6S_s.ogg
64,192,181333,128,0,182900:0:0:0:50:Strings-kiai-03.ogg
192,192,181333,1,0,0:0:0:70:kickdrum.wav
192,192,181528,1,0,0:0:0:85:D6S_s.ogg
320,192,181724,1,0,0:0:0:85:G5S_s.ogg
448,192,181920,1,0,0:0:0:85:B6S_s.ogg
192,192,181920,1,0,0:0:0:70:kickdrum.wav
192,192,182116,1,0,0:0:0:85:D6S_s.ogg
320,192,182312,1,0,0:0:0:85:G5S_s.ogg
448,192,182508,1,0,0:0:0:85:B6S_s.ogg
192,192,182508,1,0,0:0:0:70:kickdrum.wav
320,192,182704,1,0,0:0:0:85:A6S_s.ogg
192,192,182900,128,0,184468:0:0:0:50:Strings-kiai-04.ogg
448,192,182900,1,0,0:0:0:70:kickdrum.wav
320,192,182900,1,0,0:0:0:85:D6S_s.ogg
448,192,183096,1,0,0:0:0:85:F#5S_Gb5S_s.ogg
64,192,183292,5,0,0:0:0:85:A6S_s.ogg
320,192,183488,1,0,0:0:0:85:D6S_s.ogg
448,192,183488,1,0,0:0:0:70:kickdrum.wav
448,192,183684,1,0,0:0:0:85:F#5S_Gb5S_s.ogg
64,192,183880,1,0,0:0:0:85:A6S_s.ogg
320,192,184076,1,0,0:0:0:85:D6S_s.ogg
448,192,184076,1,0,0:0:0:70:kickdrum.wav
64,192,184272,1,0,0:0:0:85:F#5S_Gb5S_s.ogg
64,192,184468,1,0,0:0:0:70:kickdrum.wav
320,192,184468,1,0,0:0:0:85:F#6S_Gb6S_s.ogg
448,192,184468,128,0,185056:0:0:0:50:Strings-kiai-05.ogg
192,192,184664,1,0,0:0:0:85:B5S_s.ogg
320,192,184860,1,0,0:0:0:85:E5S_s.ogg
64,192,185056,128,0,185643:0:0:0:50:Strings-kiai-12.ogg
192,192,185056,1,0,0:0:0:85:F#6S_Gb6S_s.ogg
320,192,185056,1,0,0:0:0:70:kickdrum.wav
448,192,185252,1,0,0:0:0:85:B5S_s.ogg
320,192,185447,1,0,0:0:0:85:E5S_s.ogg
448,192,185643,128,0,186035:0:0:0:50:Strings-kiai-07.ogg
320,192,185643,1,0,0:0:0:70:kickdrum.wav
192,192,185643,1,0,0:0:0:85:G6S_s.ogg
64,192,185839,1,0,0:0:0:85:F#6S_Gb6S_s.ogg
192,192,186035,128,0,186819:0:0:0:50:Strings-kiai-08.ogg
320,192,186035,1,0,0:0:0:85:E6S_s.ogg
64,192,186035,1,0,0:0:0:70:kickdrum.wav
448,192,186231,1,0,0:0:0:85:F#5S_Gb5S_s.ogg
320,192,186427,1,0,0:0:0:85:A6S_s.ogg
64,192,186623,1,0,0:0:0:70:kickdrum.wav
448,192,186623,1,0,0:0:0:85:E6S_s.ogg
320,192,186819,128,0,187603:0:0:0:50:Strings-kiai-09.ogg
64,192,186819,1,0,0:0:0:85:F#5S_Gb5S_s.ogg
448,192,187015,1,0,0:0:0:85:A6S_s.ogg
64,192,187211,1,0,0:0:0:85:E6S_s.ogg
192,192,187211,1,0,0:0:0:70:kickdrum.wav
448,192,187407,1,0,0:0:0:85:G5S_s.ogg
64,192,187603,128,0,188975:0:0:0:50:Strings-kiai-01.ogg
192,192,187603,1,0,0:0:0:85:B6S_s.ogg
320,192,187799,1,0,0:0:0:70:kickdrum.wav
448,192,187799,1,0,0:0:0:85:D6S_s.ogg
320,192,187995,1,0,0:0:0:85:G5S_s.ogg
192,192,188191,1,0,0:0:0:85:B6S_s.ogg
320,192,188387,1,0,0:0:0:70:kickdrum.wav
448,192,188387,1,0,0:0:0:85:D6S_s.ogg
320,192,188583,1,0,0:0:0:85:G5S_s.ogg
192,192,188779,1,0,0:0:0:85:B6S_s.ogg
320,192,188975,1,0,0:0:0:85:A6S_s.ogg
448,192,189171,1,0,0:0:0:85:F#6S_Gb6S_s.ogg
64,192,189171,128,0,189758:0:0:0:50:Strings-kiai-13.ogg
192,192,189366,1,0,0:0:0:85:E6S_s.ogg
448,192,189562,1,0,0:0:0:85:D6S_s.ogg
192,192,189758,1,0,0:0:0:85:A6S_s.ogg
320,192,189889,1,0,0:0:0:40:kickdrum.wav
448,192,189954,128,0,190346:0:0:0:50:Strings-kiai-14.ogg
192,192,189954,1,0,0:0:0:70:kickdrum.wav
64,192,189954,1,0,0:0:0:70:E6S_s.ogg
320,192,190150,1,0,0:0:0:70:D6S_s.ogg
192,192,190346,128,0,190640:0:0:0:50:Strings-kiai-15.ogg
64,192,190346,1,0,0:0:0:70:kickdrum.wav
320,192,190346,1,0,0:0:0:85:B5S_s.ogg
448,192,190542,128,0,190640:0:0:0:85:A5S_s.ogg
320,192,190738,1,0,0:0:0:70:kickdrumheavy.wav
64,192,190738,128,0,191130:0:0:0:70:Crystal-B5.wav
192,192,190738,128,0,190836:0:0:0:70:LR_RBell.wav
448,192,190738,1,0,0:0:0:85:D7S_s.ogg
320,192,190934,1,0,0:0:0:85:F#6S_Gb6S_s.ogg
192,192,191130,1,0,0:0:0:85:B5S_s.ogg
448,192,191326,128,0,191718:0:0:0:70:Crystal-B6.wav
64,192,191326,1,0,0:0:0:85:D7S_s.ogg
320,192,191326,1,0,0:0:0:70:kickdrum.wav
192,192,191522,1,0,0:0:0:85:F#6S_Gb6S_s.ogg
320,192,191718,1,0,0:0:0:85:B5S_s.ogg
448,192,191914,128,0,192306:0:0:0:70:Crystal-B6.wav
64,192,191914,1,0,0:0:0:85:D7S_s.ogg
192,192,191914,1,0,0:0:0:70:kickdrum.wav
192,192,192110,1,0,0:0:0:85:C#7S_Db7S_s.ogg
64,192,192306,1,0,0:0:0:70:kickdrum.wav
320,192,192306,1,0,0:0:0:85:E6S_s.ogg
192,192,192502,128,0,192894:0:0:0:70:Crystal-E6.wav
448,192,192502,1,0,0:0:0:85:A5S_s.ogg
64,192,192698,1,0,0:0:0:85:C#7S_Db7S_s.ogg
320,192,192894,1,0,0:0:0:70:kickdrum.wav
448,192,192894,1,0,0:0:0:85:E6S_s.ogg
320,192,193090,128,0,193481:0:0:0:70:Crystal-F#6.wav
192,192,193090,1,0,0:0:0:85:A5S_s.ogg
64,192,193286,1,0,0:0:0:85:C#7S_Db7S_s.ogg
192,192,193481,128,0,193873:0:0:0:70:Crystal-D6.wav
448,192,193481,1,0,0:0:0:85:E6S_s.ogg
64,192,193481,1,0,0:0:0:70:kickdrum.wav
320,192,193677,1,0,0:0:0:85:A5S_s.ogg
64,192,193873,128,0,194265:0:0:0:70:Crystal-B5.wav
448,192,193873,1,0,0:0:0:70:kickdrum.wav
320,192,193873,1,0,0:0:0:85:B6S_s.ogg
192,192,194069,1,0,0:0:0:85:D6S_s.ogg
320,192,194265,1,0,0:0:0:85:G5S_s.ogg
448,192,194461,128,0,194657:0:0:0:70:Crystal-B6.wav
192,192,194461,1,0,0:0:0:70:kickdrum.wav
64,192,194461,1,0,0:0:0:85:B6S_s.ogg
320,192,194657,1,0,0:0:0:85:D6S_s.ogg
448,192,194853,128,0,195245:0:0:0:70:Crystal-B6.wav
192,192,194853,1,0,0:0:0:85:G5S_s.ogg
64,192,195049,1,0,0:0:0:85:B6S_s.ogg
320,192,195049,1,0,0:0:0:70:kickdrum.wav
64,192,195245,1,0,0:0:0:85:A6S_s.ogg
192,192,195441,128,0,195833:0:0:0:70:Crystal-E6.wav
320,192,195441,1,0,0:0:0:70:kickdrum.wav
448,192,195441,1,0,0:0:0:85:D6S_s.ogg
64,192,195637,1,0,0:0:0:85:F#5S_Gb5S_s.ogg
320,192,195833,128,0,196225:0:0:0:70:Crystal-F#6.wav
448,192,195833,1,0,0:0:0:85:A6S_s.ogg
64,192,196029,1,0,0:0:0:70:kickdrum.wav
192,192,196029,1,0,0:0:0:85:D6S_s.ogg
64,192,196225,128,0,196617:0:0:0:70:Crystal-D6.wav
448,192,196225,1,0,0:0:0:85:F#5S_Gb5S_s.ogg
192,192,196421,1,0,0:0:0:85:A6S_s.ogg
448,192,196617,1,0,0:0:0:85:D6S_s.ogg
320,192,196617,128,0,196813:0:0:0:70:Crystal-A6.wav
192,192,196617,1,0,0:0:0:70:kickdrum.wav
64,192,196813,1,0,0:0:0:85:F#5S_Gb5S_s.ogg
192,192,196943,1,0,0:0:0:40:kickdrum.wav
448,192,197009,128,0,197400:0:0:0:70:Crystal-B5.wav
64,192,197009,1,0,0:0:0:70:kickdrum.wav
320,192,197009,1,0,0:0:0:85:F#6S_Gb6S_s.ogg
192,192,197205,1,0,0:0:0:85:B5S_s.ogg
320,192,197400,1,0,0:0:0:85:E5S_s.ogg
448,192,197596,1,0,0:0:0:85:F#6S_Gb6S_s.ogg
64,192,197596,128,0,197988:0:0:0:70:Crystal-B6.wav
192,192,197596,1,0,0:0:0:70:kickdrum.wav
320,192,197792,1,0,0:0:0:85:B5S_s.ogg
448,192,197988,1,0,0:0:0:85:E5S_s.ogg
64,192,198184,128,0,198576:0:0:0:70:Crystal-B6.wav
320,192,198184,1,0,0:0:0:85:G6S_s.ogg
192,192,198184,1,0,0:0:0:70:kickdrum.wav
192,192,198380,1,0,0:0:0:85:F#6S_Gb6S_s.ogg
448,192,198576,1,0,0:0:0:85:E6S_s.ogg
320,192,198576,1,0,0:0:0:70:kickdrum.wav
320,192,198772,128,0,199164:0:0:0:70:Crystal-E6.wav
64,192,198772,1,0,0:0:0:85:F#5S_Gb5S_s.ogg
448,192,198968,1,0,0:0:0:85:A6S_s.ogg
192,192,199164,1,0,0:0:0:70:kickdrum.wav
64,192,199164,1,0,0:0:0:85:E6S_s.ogg
192,192,199360,128,0,199752:0:0:0:70:Crystal-F#6.wav
320,192,199360,1,0,0:0:0:85:F#5S_Gb5S_s.ogg
448,192,199556,1,0,0:0:0:85:A6S_s.ogg
320,192,199752,128,0,200144:0:0:0:70:Crystal-D6.wav
448,192,199752,1,0,0:0:0:70:kickdrum.wav
64,192,199752,1,0,0:0:0:85:E6S_s.ogg
192,192,199948,1,0,0:0:0:85:G5S_s.ogg
448,192,200144,128,0,200536:0:0:0:70:Crystal-B5.wav
64,192,200144,1,0,0:0:0:85:B6S_s.ogg
192,192,200144,1,0,0:0:0:70:kickdrum.wav
320,192,200340,1,0,0:0:0:85:D6S_s.ogg
192,192,200536,1,0,0:0:0:85:G5S_s.ogg
64,192,200732,128,0,200928:0:0:0:70:Crystal-B6.wav
448,192,200732,1,0,0:0:0:70:kickdrum.wav
320,192,200732,1,0,0:0:0:85:B6S_s.ogg
192,192,200928,1,0,0:0:0:85:D6S_s.ogg
64,192,201124,128,0,201515:0:0:0:70:Crystal-B6.wav
448,192,201124,1,0,0:0:0:85:G5S_s.ogg
192,192,201319,1,0,0:0:0:70:kickdrum.wav
320,192,201319,1,0,0:0:0:85:B6S_s.ogg
448,192,201515,1,0,0:0:0:85:A6S_s.ogg
320,192,201711,128,0,202103:0:0:0:70:Crystal-E6.wav
192,192,201711,1,0,0:0:0:85:F#6S_Gb6S_s.ogg
448,192,201907,1,0,0:0:0:85:E6S_s.ogg
192,192,202103,128,0,202495:0:0:0:70:Crystal-F#6.wav
64,192,202103,1,0,0:0:0:85:D6S_s.ogg
320,192,202299,1,0,0:0:0:85:A6S_s.ogg
448,192,202495,128,0,202887:0:0:0:70:Crystal-D6.wav
64,192,202495,1,0,0:0:0:85:E6S_s.ogg
320,192,202495,1,0,0:0:0:70:kickdrum.wav
192,192,202691,1,0,0:0:0:85:D6S_s.ogg
192,192,202887,128,0,203083:0:0:0:70:Crystal-A6.wav
320,192,202887,1,0,0:0:0:85:B5S_s.ogg
448,192,203083,1,0,0:0:0:40:kickdrum.wav
64,192,203083,1,0,0:0:0:85:A5S_s.ogg
320,192,203181,1,0,0:0:0:40:kickdrum.wav
64,192,203279,128,0,203671:0:0:0:70:Crystal-B5.wav
448,192,203279,1,0,0:0:0:85:D7S_s.ogg
192,192,203279,1,0,0:0:0:70:kickdrumheavy.wav
320,192,203475,1,0,0:0:0:85:F#6S_Gb6S_s.ogg
192,192,203671,1,0,0:0:0:85:B5S_s.ogg
448,192,203867,128,0,204259:0:0:0:70:Crystal-B6.wav
64,192,203867,1,0,0:0:0:85:D7S_s.ogg
320,192,203867,1,0,0:0:0:70:kickdrum.wav
192,192,204063,1,0,0:0:0:85:F#6S_Gb6S_s.ogg
320,192,204259,1,0,0:0:0:85:B5S_s.ogg
448,192,204455,128,0,204847:0:0:0:70:Crystal-B6.wav
64,192,204455,1,0,0:0:0:85:D7S_s.ogg
192,192,204455,1,0,0:0:0:70:kickdrum.wav
192,192,204651,1,0,0:0:0:85:C#7S_Db7S_s.ogg
320,192,204847,1,0,0:0:0:70:kickdrum.wav
64,192,204847,1,0,0:0:0:70:E6S_s.ogg
192,192,205043,128,0,205434:0:0:0:70:Crystal-E6.wav
320,192,205043,1,0,0:0:0:85:A5S_s.ogg
448,192,205238,1,0,0:0:0:85:C#7S_Db7S_s.ogg
320,192,205434,1,0,0:0:0:70:kickdrum.wav
64,192,205434,1,0,0:0:0:70:E6S_s.ogg
320,192,205630,128,0,206022:0:0:0:70:Crystal-F#6.wav
448,192,205630,1,0,0:0:0:85:A5S_s.ogg
64,192,205826,1,0,0:0:0:85:C#7S_Db7S_s.ogg
448,192,206022,1,0,0:0:0:70:E6S_s.ogg
192,192,206022,128,0,206414:0:0:0:70:Crystal-D6.wav
64,192,206022,1,0,0:0:0:70:kickdrum.wav
320,192,206218,1,0,0:0:0:85:A5S_s.ogg
448,192,206414,1,0,0:0:0:85:B6S_s.ogg
64,192,206414,128,0,206806:0:0:0:70:Crystal-B5.wav
320,192,206414,1,0,0:0:0:70:kickdrum.wav
192,192,206610,1,0,0:0:0:85:D6S_s.ogg
320,192,206806,1,0,0:0:0:85:G5S_s.ogg
64,192,207002,1,0,0:0:0:70:kickdrum.wav
448,192,207002,128,0,207198:0:0:0:70:Crystal-B6.wav
192,192,207002,1,0,0:0:0:85:B6S_s.ogg
320,192,207198,1,0,0:0:0:85:D6S_s.ogg
448,192,207394,128,0,207786:0:0:0:70:Crystal-B6.wav
192,192,207394,1,0,0:0:0:85:G5S_s.ogg
64,192,207590,1,0,0:0:0:70:kickdrum.wav
320,192,207590,1,0,0:0:0:85:B6S_s.ogg
64,192,207786,1,0,0:0:0:85:A6S_s.ogg
192,192,207982,128,0,208374:0:0:0:70:Crystal-E6.wav
320,192,207982,1,0,0:0:0:85:D6S_s.ogg
448,192,207982,1,0,0:0:0:70:kickdrum.wav
64,192,208178,1,0,0:0:0:85:F#5S_Gb5S_s.ogg
320,192,208374,128,0,208766:0:0:0:70:Crystal-F#6.wav
448,192,208374,1,0,0:0:0:85:A6S_s.ogg
192,192,208570,1,0,0:0:0:85:D6S_s.ogg
64,192,208570,1,0,0:0:0:70:kickdrum.wav
64,192,208766,128,0,209157:0:0:0:70:Crystal-D6.wav
448,192,208766,1,0,0:0:0:85:F#5S_Gb5S_s.ogg
320,192,208962,1,0,0:0:0:85:A6S_s.ogg
320,192,209157,128,0,209549:0:0:0:70:Crystal-A6.wav
192,192,209157,1,0,0:0:0:85:D6S_s.ogg
448,192,209157,1,0,0:0:0:70:kickdrum.wav
64,192,209353,1,0,0:0:0:85:F#5S_Gb5S_s.ogg
192,192,209549,1,0,0:0:0:85:F#6S_Gb6S_s.ogg
448,192,209549,128,0,209941:0:0:0:70:Crystal-B5.wav
64,192,209549,1,0,0:0:0:70:kickdrum.wav
320,192,209745,1,0,0:0:0:85:B5S_s.ogg
192,192,209941,1,0,0:0:0:85:E5S_s.ogg
448,192,210137,1,0,0:0:0:85:F#6S_Gb6S_s.ogg
64,192,210137,128,0,210529:0:0:0:70:Crystal-B6.wav
320,192,210137,1,0,0:0:0:70:kickdrum.wav
192,192,210333,1,0,0:0:0:85:B5S_s.ogg
448,192,210529,1,0,0:0:0:85:E5S_s.ogg
64,192,210725,128,0,211117:0:0:0:70:Crystal-B6.wav
192,192,210725,1,0,0:0:0:70:kickdrum.wav
320,192,210725,1,0,0:0:0:85:G6S_s.ogg
320,192,210921,1,0,0:0:0:85:F#6S_Gb6S_s.ogg
448,192,211117,1,0,0:0:0:70:kickdrum.wav
192,192,211117,1,0,0:0:0:85:E6S_s.ogg
320,192,211313,128,0,211705:0:0:0:70:Crystal-E6.wav
64,192,211313,1,0,0:0:0:85:F#5S_Gb5S_s.ogg
448,192,211509,1,0,0:0:0:85:A6S_s.ogg
192,192,211705,1,0,0:0:0:70:kickdrum.wav
64,192,211705,1,0,0:0:0:85:E6S_s.ogg
192,192,211901,128,0,212293:0:0:0:70:Crystal-F#6.wav
320,192,211901,1,0,0:0:0:85:F#5S_Gb5S_s.ogg
448,192,212097,1,0,0:0:0:85:A6S_s.ogg
448,192,212293,1,0,0:0:0:70:kickdrum.wav
320,192,212293,128,0,212685:0:0:0:70:Crystal-D6.wav
64,192,212293,1,0,0:0:0:85:E6S_s.ogg
192,192,212489,1,0,0:0:0:85:G5S_s.ogg
448,192,212685,128,0,213076:0:0:0:70:Crystal-B5.wav
64,192,212685,1,0,0:0:0:85:B6S_s.ogg
192,192,212881,1,0,0:0:0:85:D6S_s.ogg
64,192,212881,1,0,0:0:0:70:kickdrum.wav
320,192,213076,1,0,0:0:0:85:G5S_s.ogg
192,192,213272,1,0,0:0:0:85:B6S_s.ogg
64,192,213272,128,0,213468:0:0:0:70:Crystal-B6.wav
448,192,213468,1,0,0:0:0:85:D6S_s.ogg
320,192,213468,1,0,0:0:0:70:kickdrum.wav
192,192,213664,1,0,0:0:0:85:G5S_s.ogg
64,192,213664,128,0,214056:0:0:0:70:Crystal-B6.wav
320,192,213860,1,0,0:0:0:85:B6S_s.ogg
448,192,214056,1,0,0:0:0:85:A6S_s.ogg
320,192,214252,128,0,214644:0:0:0:70:Crystal-E6.wav
192,192,214252,1,0,0:0:0:85:F#6S_Gb6S_s.ogg
448,192,214448,1,0,0:0:0:85:E6S_s.ogg
192,192,214644,128,0,214840:0:0:0:70:Crystal-F#6.wav
64,192,214644,1,0,0:0:0:85:D6S_s.ogg
448,192,214840,1,0,0:0:0:85:A6S_s.ogg
320,192,214971,1,0,0:0:0:40:kickdrum.wav
448,192,215036,128,0,215428:0:0:0:70:Crystal-D6.wav
64,192,215036,1,0,0:0:0:85:E6S_s.ogg
192,192,215036,1,0,0:0:0:70:kickdrum.wav
320,192,215232,1,0,0:0:0:85:D6S_s.ogg
64,192,215428,128,0,215722:0:0:0:70:Crystal-A6.wav
320,192,215428,1,0,0:0:0:85:B5S_s.ogg
192,192,215428,1,0,0:0:0:70:kickdrum.wav
448,192,215624,128,0,215722:0:0:0:85:A5S_s.ogg
192,192,215820,5,0,0:0:0:70:Ch-Bell-B6.wav
448,192,215820,128,0,217387:0:0:0:0:
64,192,215820,128,0,218955:0:0:0:50:Finish.ogg
320,192,215820,1,0,0:0:0:70:kickdrumheavy.wav
192,192,216016,1,0,0:0:0:90:Ch-Bell-E6.wav
320,192,216212,1,0,0:0:0:90:Ch-Bell-D6.wav
192,192,216408,1,0,0:0:0:90:Ch-Bell-A6.wav
320,192,216604,1,0,0:0:0:90:Ch-Bell-E6.wav
192,192,216800,1,0,0:0:0:90:Ch-Bell-D6.wav
320,192,216995,1,0,0:0:0:90:Ch-Bell-A6.wav
192,192,217191,1,0,0:0:0:90:Ch-Bell-F#6.wav
320,192,217583,1,0,0:0:0:90:Ch-Bell-E6.wav
448,192,217779,1,0,0:0:0:90:Ch-Bell-D6.wav
192,192,217975,1,0,0:0:0:90:Ch-Bell-A6.wav
320,192,218171,1,0,0:0:0:90:Ch-Bell-E6.wav
448,192,218367,1,0,0:0:0:90:Ch-Bell-D6.wav
192,192,218563,1,0,0:0:0:90:Ch-Bell-A6.wav
320,192,218759,1,0,0:0:0:90:Ch-Bell-F#6.wav
320,192,219151,1,0,0:0:0:90:Ch-Bell-E6.wav
448,192,219347,1,0,0:0:0:90:Ch-Bell-D6.wav
64,192,219543,1,0,0:0:0:90:Ch-Bell-A6.wav
320,192,219739,1,0,0:0:0:90:Ch-Bell-E6.wav
448,192,219935,1,0,0:0:0:90:Ch-Bell-D6.wav
64,192,220131,1,0,0:0:0:90:Ch-Bell-A6.wav
192,192,220327,1,0,0:0:0:90:Ch-Bell-F#6.wav
320,192,220719,1,0,0:0:0:90:Ch-Bell-B5.wav
448,192,220915,1,0,0:0:0:90:Ch-Bell-D6.wav
192,192,221110,1,0,0:0:0:90:Ch-Bell-A6.wav
64,192,221306,1,0,0:0:0:90:Ch-Bell-F#6.wav
448,192,221502,1,0,0:0:0:90:Ch-Bell-B5.wav
192,192,221698,1,0,0:0:0:90:Ch-Bell-D6.wav
320,192,221894,1,0,0:0:0:90:Ch-Bell-A6.wav
448,192,222090,1,0,0:0:0:90:Ch-Bell-B6.wav
192,192,222286,1,0,0:0:0:90:Ch-Bell-E6.wav
64,192,222482,1,0,0:0:0:90:Ch-Bell-D6.wav
448,192,222678,1,0,0:0:0:90:Ch-Bell-A6.wav
192,192,222874,1,0,0:0:0:90:Ch-Bell-E6.wav
64,192,223070,1,0,0:0:0:90:Ch-Bell-D6.wav
448,192,223266,1,0,0:0:0:90:Ch-Bell-A6.wav
320,192,223462,1,0,0:0:0:90:Ch-Bell-F#6.wav
192,192,223854,1,0,0:0:0:90:Ch-Bell-E6.wav
64,192,224050,1,0,0:0:0:90:Ch-Bell-D6.wav
448,192,224246,1,0,0:0:0:90:Ch-Bell-A6.wav
192,192,224442,1,0,0:0:0:90:Ch-Bell-E6.wav
64,192,224638,1,0,0:0:0:90:Ch-Bell-D6.wav
448,192,224834,1,0,0:0:0:90:Ch-Bell-A6.wav
320,192,225029,1,0,0:0:0:90:Ch-Bell-F#6.wav
192,192,225421,1,0,0:0:0:90:Ch-Bell-E6.wav
64,192,225617,1,0,0:0:0:90:Ch-Bell-D6.wav
448,192,225813,1,0,0:0:0:90:Ch-Bell-A6.wav
192,192,226009,1,0,0:0:0:90:Ch-Bell-E6.wav
64,192,226205,1,0,0:0:0:90:Ch-Bell-D6.wav
448,192,226401,1,0,0:0:0:90:Ch-Bell-A6.wav
320,192,226597,1,0,0:0:0:90:Ch-Bell-B6.wav
64,192,226793,1,0,0:0:0:90:Ch-Bell-D7.wav
192,192,226891,1,0,0:0:0:90:Ch-Bell-A6.wav
448,192,226989,1,0,0:0:0:90:Ch-Bell-B6.wav
320,192,227087,1,0,0:0:0:90:Ch-Bell-D7.wav
192,192,227185,1,0,0:0:0:90:Ch-Bell-E7.wav
64,192,227283,1,0,0:0:0:90:Ch-Bell-B6.wav
320,192,227381,1,0,0:0:0:90:Ch-Bell-D7.wav
448,192,227479,1,0,0:0:0:90:Ch-Bell-E7.wav
192,192,227577,1,0,0:0:0:90:Ch-Bell-F#7.wav
64,192,227773,1,0,0:0:0:90:Ch-Bell-E7.wav
448,192,227969,1,0,0:0:0:90:Ch-Bell-A7.wav
320,192,228165,1,0,0:0:0:90:Ch-Bell-F#7.wav
64,192,228361,1,0,0:0:0:90:Ch-Bell-B7.wav
320,192,228557,1,0,0:0:0:90:Ch-Bell-E7.wav
448,192,228753,1,0,0:0:0:90:Ch-Bell-D7.wav
64,192,228948,1,0,0:0:0:90:Ch-Bell-A7.wav
320,192,229144,1,0,0:0:0:90:Ch-Bell-E7.wav
448,192,229340,1,0,0:0:0:90:Ch-Bell-D7.wav
64,192,229536,1,0,0:0:0:90:Ch-Bell-A7.wav
192,192,229732,1,0,0:0:0:90:Ch-Bell-F#7.wav
320,192,230124,1,0,0:0:0:90:Ch-Bell-E7.wav
448,192,230320,1,0,0:0:0:90:Ch-Bell-D7.wav
64,192,230516,1,0,0:0:0:90:Ch-Bell-A7.wav
320,192,230712,1,0,0:0:0:90:Ch-Bell-E7.wav
448,192,230908,1,0,0:0:0:90:Ch-Bell-D7.wav
64,192,231104,1,0,0:0:0:90:Ch-Bell-A7.wav
192,192,231300,1,0,0:0:0:90:Ch-Bell-F#7.wav
320,192,231692,1,0,0:0:0:90:Ch-Bell-E7.wav
448,192,231888,1,0,0:0:0:90:Ch-Bell-D7.wav
64,192,232084,1,0,0:0:0:90:Ch-Bell-A7.wav
320,192,232280,1,0,0:0:0:90:Ch-Bell-E7.wav
448,192,232476,1,0,0:0:0:90:Ch-Bell-D7.wav
64,192,232672,1,0,0:0:0:90:Ch-Bell-A7.wav
192,192,232867,1,0,0:0:0:90:Ch-Bell-F#7.wav
320,192,233259,1,0,0:0:0:90:Ch-Bell-B6.wav
448,192,233455,1,0,0:0:0:90:Ch-Bell-D7.wav
192,192,233651,1,0,0:0:0:90:Ch-Bell-A7.wav
64,192,233847,1,0,0:0:0:90:Ch-Bell-F#7.wav
448,192,234043,1,0,0:0:0:90:Ch-Bell-B6.wav
192,192,234239,1,0,0:0:0:90:Ch-Bell-D7.wav
320,192,234435,1,0,0:0:0:90:Ch-Bell-A7.wav
448,192,234631,1,0,0:0:0:90:Ch-Bell-B7.wav
192,192,234827,1,0,0:0:0:90:Ch-Bell-E7.wav
64,192,235023,1,0,0:0:0:90:Ch-Bell-D7.wav
448,192,235219,1,0,0:0:0:90:Ch-Bell-A7.wav
192,192,235415,1,0,0:0:0:90:Ch-Bell-E7.wav
64,192,235611,1,0,0:0:0:90:Ch-Bell-D7.wav
448,192,235807,1,0,0:0:0:90:Ch-Bell-A7.wav
320,192,236003,1,0,0:0:0:90:Ch-Bell-F#7.wav
192,192,236395,1,0,0:0:0:90:Ch-Bell-E7.wav
64,192,236591,1,0,0:0:0:90:Ch-Bell-D7.wav
448,192,236786,1,0,0:0:0:90:Ch-Bell-A7.wav
192,192,236982,1,0,0:0:0:90:Ch-Bell-E7.wav
64,192,237178,1,0,0:0:0:90:Ch-Bell-D7.wav
448,192,237374,1,0,0:0:0:90:Ch-Bell-A7.wav
320,192,237570,1,0,0:0:0:90:Ch-Bell-F#7.wav
192,192,237962,1,0,0:0:0:90:Ch-Bell-E7.wav
64,192,238158,1,0,0:0:0:90:Ch-Bell-D7.wav
448,192,238354,1,0,0:0:0:90:Ch-Bell-A7.wav
192,192,238550,1,0,0:0:0:90:Ch-Bell-E7.wav
64,192,238746,1,0,0:0:0:70:Ch-Bell-D7.wav
320,192,238942,1,0,0:0:0:70:Ch-Bell-A7.wav
448,192,239138,1,0,0:0:0:70:Ch-Bell-B7.wav
64,192,239530,1,0,0:0:0:70:Ch-Bell-D7.wav
320,192,239726,1,0,0:0:0:70:Ch-Bell-A7.wav
448,192,239922,1,0,0:0:0:70:Ch-Bell-B7.wav
64,192,240314,128,0,240803:0:0:0:50:Ch-Bell-D7.wav
320,192,240510,128,0,240803:0:0:0:50:Ch-Bell-A7.wav
448,192,240705,128,0,240803:0:0:0:50:Ch-Bell-B7.wav
448,192,240901,128,0,244213:0:0:0:50:Finish.ogg
320,192,240901,128,0,242557:0:0:0:70:kickdrumheavy.wav
64,192,240901,128,0,241729:0:0:0:0:
192,192,240901,128,0,241004:0:0:0:70:LR_RBell.wav
64,192,242557,128,0,242660:0:0:0:70:Crystal-D6fil50.ogg
320,192,242971,128,0,243074:0:0:0:70:Crystal-A6fil50.ogg
64,192,243385,128,0,243488:0:0:0:70:Crystal-D6fil50.ogg
320,192,243799,128,0,243903:0:0:0:70:Crystal-A6fil50.ogg
192,192,244213,128,0,244317:0:0:0:70:Crystal-E6fil50.ogg
448,192,244627,128,0,244731:0:0:0:70:Crystal-A6fil50.ogg
192,192,245041,128,0,245145:0:0:0:70:Crystal-E6fil50.ogg
448,192,245455,128,0,245559:0:0:0:70:Crystal-A6fil50.ogg
320,192,245869,128,0,245973:0:0:0:70:Crystal-F#6fil50.ogg
448,192,246284,128,0,246387:0:0:0:70:Crystal-A6fil50.ogg
320,192,246698,128,0,246801:0:0:0:70:Crystal-F#6fil50.ogg
448,192,247112,128,0,247215:0:0:0:70:Crystal-A6fil50.ogg
192,192,247526,128,0,247681:0:0:0:70:Crystal-C#6fil50.ogg
448,192,247940,128,0,248095:0:0:0:70:Crystal-A6fil50.ogg
192,192,248354,128,0,248509:0:0:0:70:Crystal-C#6fil50.ogg
448,192,248768,128,0,248923:0:0:0:70:Crystal-A6fil50.ogg
64,192,249182,128,0,249337:0:0:0:70:Crystal-D6fil60.ogg
448,192,249596,128,0,249751:0:0:0:70:Crystal-A6fil60.ogg
64,192,250010,128,0,250166:0:0:0:70:Crystal-D6fil60.ogg
448,192,250424,128,0,250580:0:0:0:70:Crystal-A6fil60.ogg
320,192,250838,128,0,250994:0:0:0:70:Crystal-F#6fil60.ogg
448,192,251252,128,0,251408:0:0:0:70:Crystal-A6fil60.ogg
320,192,251667,128,0,251822:0:0:0:70:Crystal-F#6fil60.ogg
448,192,252081,128,0,252236:0:0:0:70:Crystal-A6fil60.ogg
192,192,252495,128,0,252650:0:0:0:70:Crystal-E6fil60.ogg
448,192,252909,128,0,253064:0:0:0:70:Crystal-A6fil60.ogg
192,192,253323,128,0,253478:0:0:0:70:Crystal-E6fil60.ogg
448,192,253737,128,0,253892:0:0:0:70:Crystal-A6fil60.ogg
192,192,254151,128,0,254358:0:0:0:70:Crystal-C#6fil70.ogg
320,192,254151,1,0,0:0:0:100:Fty-F#5.ogg
64,192,254565,128,0,254772:0:0:0:70:Crystal-A6fil70.ogg
192,192,254979,128,0,255186:0:0:0:70:Crystal-C#6fil70.ogg
64,192,255393,128,0,255600:0:0:0:70:Crystal-A6fil70.ogg
320,192,255393,1,0,0:0:0:100:Fty-G5.ogg
448,192,255807,128,0,256014:0:0:0:70:Crystal-D6fil70.ogg
64,192,256221,128,0,256428:0:0:0:70:Crystal-A6fil70.ogg
448,192,256635,128,0,256843:0:0:0:70:Crystal-D6fil70.ogg
64,192,257050,128,0,257257:0:0:0:70:Crystal-A6fil70.ogg
320,192,257464,128,0,257722:0:0:0:70:Crystal-E6fil80.ogg
448,192,257464,1,0,0:0:0:100:Fty-A5.ogg
64,192,257878,128,0,258137:0:0:0:70:Crystal-A6fil80.ogg
320,192,258292,128,0,258551:0:0:0:70:Crystal-E6fil80.ogg
64,192,258706,128,0,258965:0:0:0:70:Crystal-A6fil80.ogg
448,192,258706,1,0,0:0:0:100:Fty-B5.ogg
192,192,259120,128,0,259379:0:0:0:70:Crystal-F#6fil80.ogg
64,192,259534,128,0,259793:0:0:0:70:Crystal-A6fil80.ogg
192,192,259948,128,0,260207:0:0:0:70:Crystal-F#6fil80.ogg
64,192,260362,128,0,260621:0:0:0:70:Crystal-A6fil80.ogg
448,192,260776,1,0,0:0:0:100:Fty-F#5.ogg
320,192,260776,128,0,261087:0:0:0:70:Crystal-C#6fil90.ogg
64,192,261190,128,0,261501:0:0:0:70:Crystal-A6fil90.ogg
320,192,261604,128,0,261915:0:0:0:70:Crystal-C#6fil90.ogg
64,192,262019,128,0,262329:0:0:0:70:Crystal-A6fil90.ogg
192,192,262019,1,0,0:0:0:100:Fty-G5.ogg
448,192,262433,128,0,262743:0:0:0:70:Crystal-D6fil90.ogg
64,192,262847,128,0,263157:0:0:0:70:Crystal-A6fil90.ogg
448,192,263261,128,0,263571:0:0:0:70:Crystal-D6fil90.ogg
64,192,263675,128,0,263985:0:0:0:70:Crystal-A6fil90.ogg
192,192,264089,128,0,264451:0:0:0:50:Crystal-F#6.wav
320,192,264089,1,0,0:0:0:100:Fty-B5.ogg
64,192,264503,128,0,264865:0:0:0:70:Crystal-A6.ogg
192,192,264917,128,0,265279:0:0:0:50:Crystal-F#6.wav
64,192,265331,128,0,265693:0:0:0:70:Crystal-A6.ogg
448,192,265331,1,0,0:0:0:100:Fty-E6.ogg
320,192,265745,128,0,266108:0:0:0:60:Crystal-E6.wav
64,192,266159,128,0,266522:0:0:0:70:Crystal-A6.ogg
320,192,266573,128,0,266936:0:0:0:60:Crystal-E6.wav
64,192,266987,128,0,267350:0:0:0:70:Crystal-A6.ogg
192,192,267402,128,0,267505:0:0:0:70:LR_RBell.wav
320,192,267402,128,0,267816:0:0:0:70:Crystal-C#6.wav
448,192,267402,1,0,0:0:0:50:kickdrum.wav
448,192,267816,128,0,268230:0:0:0:70:Crystal-A6.wav
192,192,268023,1,0,0:0:0:25:kickdrum.wav
320,192,268230,128,0,268644:0:0:0:70:Crystal-C#6.wav
448,192,268644,128,0,269058:0:0:0:70:Crystal-A6.wav
192,192,268644,1,0,0:0:0:25:kickdrum.wav
64,192,269058,128,0,269472:0:0:0:70:Crystal-D6.wav
448,192,269472,128,0,269886:0:0:0:70:Crystal-A6.wav
64,192,269886,128,0,270300:0:0:0:70:Crystal-D6.wav
448,192,270300,128,0,270714:0:0:0:70:Crystal-A6.wav
192,192,270714,128,0,271128:0:0:0:70:Crystal-E6.wav
64,192,270714,1,0,0:0:0:50:kickdrum.wav
448,192,271128,128,0,271542:0:0:0:70:Crystal-A6.wav
64,192,271335,1,0,0:0:0:50:kickdrum.wav
192,192,271542,128,0,271956:0:0:0:70:Crystal-E6.wav
64,192,271956,1,0,0:0:0:50:kickdrum.wav
448,192,271956,128,0,272370:0:0:0:70:Crystal-A6.wav
320,192,272370,128,0,272785:0:0:0:70:Crystal-F#6.wav
448,192,272785,128,0,273199:0:0:0:70:Crystal-A6.wav
64,192,272992,1,0,0:0:0:70:kickdrum.wav
320,192,273199,128,0,273613:0:0:0:70:Crystal-F#6.wav
448,192,273613,128,0,274027:0:0:0:70:Crystal-A6.wav
64,192,273613,1,0,0:0:0:50:kickdrum.wav
64,192,274027,128,0,274441:0:0:0:70:Crystal-C#6.wav
192,192,274027,1,0,0:0:0:50:kickdrum.wav
448,192,274441,128,0,274855:0:0:0:70:Crystal-A6.wav
192,192,274648,1,0,0:0:0:50:kickdrum.wav
64,192,274855,128,0,275269:0:0:0:70:Crystal-C#6.wav
448,192,275269,128,0,275683:0:0:0:70:Crystal-A6.wav
192,192,275269,1,0,0:0:0:50:kickdrum.wav
192,192,275683,128,0,276097:0:0:0:70:Crystal-D6.wav
448,192,276097,128,0,276511:0:0:0:70:Crystal-A6.wav
192,192,276511,128,0,276925:0:0:0:70:Crystal-D6.wav
448,192,276925,128,0,277339:0:0:0:70:Crystal-A6.wav
64,192,277132,1,0,0:0:0:30:kickdrum.wav
192,192,277236,1,0,0:0:0:30:kickdrum.wav
320,192,277339,128,0,277754:0:0:0:70:Crystal-F#6.wav
64,192,277339,1,0,0:0:0:70:kickdrum.wav
448,192,277754,128,0,278168:0:0:0:70:Crystal-A6.wav
64,192,277961,1,0,0:0:0:70:kickdrum.wav
320,192,278168,128,0,278582:0:0:0:70:Crystal-F#6.wav
448,192,278582,128,0,278996:0:0:0:70:Crystal-A6.wav
64,192,278582,1,0,0:0:0:70:kickdrum.wav
192,192,278996,128,0,279410:0:0:0:70:Crystal-E6.wav
448,192,279410,128,0,279824:0:0:0:70:Crystal-A6.wav
192,192,279824,128,0,280238:0:0:0:70:Crystal-E6.wav
448,192,280238,128,0,280652:0:0:0:70:Crystal-A6.wav
320,192,280652,128,0,280756:0:0:0:70:LR_RBell.wav
192,192,280652,128,0,281066:0:0:0:70:Crystal-C#6.wav
64,192,280652,1,0,0:0:0:70:kickdrum.wav
64,192,281066,128,0,281480:0:0:0:70:Crystal-A6.wav
320,192,281273,1,0,0:0:0:50:kickdrum.wav
192,192,281480,128,0,281894:0:0:0:70:Crystal-C#6.wav
448,192,281894,1,0,0:0:0:100:Fty-B5.ogg
64,192,281894,128,0,282308:0:0:0:70:Crystal-A6.wav
320,192,281894,1,0,0:0:0:70:kickdrum.wav
448,192,282308,128,0,282722:0:0:0:70:Crystal-D6.wav
320,192,282308,1,0,0:0:0:50:kickdrum.wav
64,192,282722,128,0,283137:0:0:0:70:Crystal-A6.wav
320,192,282929,1,0,0:0:0:50:kickdrum.wav
448,192,283137,128,0,283551:0:0:0:70:Crystal-D6.wav
64,192,283551,128,0,283965:0:0:0:70:Crystal-A6.wav
320,192,283551,1,0,0:0:0:70:kickdrum.wav
192,192,283551,1,0,0:0:0:0:
320,192,283965,128,0,284379:0:0:0:70:Crystal-E6.wav
448,192,283965,1,0,0:0:0:50:kickdrum.wav
64,192,284379,128,0,284793:0:0:0:70:Crystal-A6.wav
448,192,284586,1,0,0:0:0:50:kickdrum.wav
320,192,284793,128,0,285207:0:0:0:70:Crystal-E6.wav
448,192,285207,1,0,0:0:0:70:kickdrum.wav
192,192,285207,1,0,0:0:0:100:Fty-B5.ogg
64,192,285207,128,0,285621:0:0:0:70:Crystal-A6.wav
192,192,285621,128,0,286035:0:0:0:70:Crystal-F#6.wav
448,192,285621,1,0,0:0:0:50:kickdrum.wav
64,192,286035,128,0,286449:0:0:0:70:Crystal-A6.wav
448,192,286242,1,0,0:0:0:50:kickdrum.wav
192,192,286449,128,0,286863:0:0:0:70:Crystal-F#6.wav
448,192,286863,1,0,0:0:0:70:kickdrum.wav
320,192,286863,1,0,0:0:0:0:
64,192,286863,128,0,287277:0:0:0:70:Crystal-A6.wav
320,192,287277,128,0,287691:0:0:0:70:Crystal-C#6.wav
192,192,287277,1,0,0:0:0:50:kickdrum.wav
64,192,287691,128,0,288105:0:0:0:70:Crystal-A6.wav
192,192,287898,1,0,0:0:0:50:kickdrum.wav
320,192,288105,128,0,288520:0:0:0:70:Crystal-C#6.wav
64,192,288520,128,0,288934:0:0:0:70:Crystal-A6.wav
192,192,288520,1,0,0:0:0:70:kickdrum.wav
448,192,288520,1,0,0:0:0:100:Fty-B5.ogg
192,192,288934,1,0,0:0:0:50:kickdrum.wav
448,192,288934,128,0,289348:0:0:0:70:Crystal-D6.wav
64,192,289348,128,0,289762:0:0:0:70:Crystal-A6.wav
192,192,289555,1,0,0:0:0:50:kickdrum.wav
448,192,289762,128,0,290176:0:0:0:70:Crystal-D6.wav
64,192,290176,128,0,290590:0:0:0:70:Crystal-A6.wav
192,192,290176,1,0,0:0:0:70:kickdrum.wav
320,192,290176,1,0,0:0:0:0:
448,192,290383,1,0,0:0:0:0:
192,192,290590,128,0,291004:0:0:0:70:Crystal-F#6.wav
320,192,290590,1,0,0:0:0:50:kickdrum.wav
64,192,291004,128,0,291418:0:0:0:70:Crystal-A6.wav
448,192,291004,1,0,0:0:0:80:Fty-E6.ogg
192,192,291418,128,0,291832:0:0:0:70:Crystal-F#6.wav
320,192,291418,1,0,0:0:0:80:Fty-F#6.ogg
64,192,291832,128,0,292246:0:0:0:70:Crystal-A6.wav
448,192,291832,1,0,0:0:0:100:Fty-E6.ogg
320,192,291832,1,0,0:0:0:70:kickdrum.wav
448,192,292246,1,0,0:0:0:50:kickdrum.wav
320,192,292246,128,0,292660:0:0:0:70:Crystal-E6.wav
64,192,292660,128,0,293074:0:0:0:70:Crystal-A6.wav
448,192,292867,1,0,0:0:0:50:kickdrum.wav
320,192,293074,128,0,293488:0:0:0:70:Crystal-E6.wav
64,192,293488,128,0,293799:0:0:0:70:Crystal-A6.wav
448,192,293488,1,0,0:0:0:50:kickdrum.wav
192,192,293488,1,0,0:0:0:0:
320,192,293696,128,0,293799:0:0:0:0:
64,192,293903,1,0,0:0:0:130:Xiao-01.ogg
192,192,293903,128,0,294006:0:0:0:70:GM1Crash_01.wav
320,192,293903,128,0,294109:0:0:0:70:kickdrumheavy.wav
448,192,293903,128,0,294316:0:0:0:70:LR_RBell.wav
64,192,294109,1,0,0:0:0:0:
192,192,294213,1,0,0:0:0:0:
320,192,294316,128,0,294523:0:0:0:100:Fty-C#6.ogg
64,192,294523,128,0,294937:0:0:0:70:kickdrum.wav
192,192,294523,128,0,294730:0:0:0:0:
448,192,294730,1,0,0:0:0:100:Fty-D6.ogg
320,192,294834,1,0,0:0:0:0:
192,192,294937,128,0,295144:0:0:0:0:
320,192,295144,128,0,295351:0:0:0:100:Fty-B5.ogg
448,192,295144,128,0,295351:0:0:0:70:kickdrum.wav
64,192,295351,1,0,0:0:0:0:
192,192,295403,1,0,0:0:0:0:
320,192,295454,1,0,0:0:0:0:
448,192,295506,1,0,0:0:0:0:
64,192,295558,128,0,295765:0:0:0:70:kickdrum.wav
192,192,295558,128,0,295971:0:0:0:0:
320,192,295765,1,0,0:0:0:0:
448,192,295868,1,0,0:0:0:0:
64,192,295971,128,0,296178:0:0:0:0:
320,192,296178,128,0,296592:0:0:0:70:kickdrum.wav
448,192,296178,128,0,296385:0:0:0:0:
192,192,296385,1,0,0:0:0:0:
64,192,296489,1,0,0:0:0:0:
448,192,296592,128,0,296799:0:0:0:0:
64,192,296799,128,0,297006:0:0:0:130:Xiao-02.ogg
320,192,296799,128,0,296903:0:0:0:70:kickdrum.wav
192,192,297006,128,0,297109:0:0:0:130:Xiao-03.ogg
448,192,297006,128,0,297213:0:0:0:0:
64,192,297213,128,0,297627:0:0:0:130:Xiao-04.ogg
320,192,297213,128,0,297420:0:0:0:70:kickdrum.wav
192,192,297420,1,0,0:0:0:0:
448,192,297523,1,0,0:0:0:0:
192,192,297627,128,0,297834:0:0:0:100:Fty-C#6.ogg
320,192,297834,128,0,298040:0:0:0:70:kickdrum.wav
448,192,297834,128,0,298247:0:0:0:0:
64,192,298040,1,0,0:0:0:100:Fty-E6.ogg
192,192,298144,1,0,0:0:0:0:
64,192,298247,128,0,298454:0:0:0:0:
320,192,298454,128,0,298661:0:0:0:100:Fty-B5.ogg
448,192,298454,128,0,298661:0:0:0:130:Xiao-05.ogg
64,192,298661,1,0,0:0:0:0:
192,192,298713,1,0,0:0:0:0:
320,192,298765,1,0,0:0:0:0:
448,192,298816,1,0,0:0:0:0:
64,192,298868,128,0,299075:0:0:0:0:
192,192,299075,128,0,299282:0:0:0:70:kickdrum.wav
448,192,299075,128,0,299489:0:0:0:0:
320,192,299282,1,0,0:0:0:0:
64,192,299385,1,0,0:0:0:0:
192,192,299489,128,0,299696:0:0:0:0:
320,192,299696,128,0,300109:0:0:0:70:kickdrum.wav
448,192,299696,128,0,299903:0:0:0:0:
64,192,299903,1,0,0:0:0:0:
192,192,300006,1,0,0:0:0:0:
64,192,300109,128,0,300316:0:0:0:130:Xiao-06.ogg
448,192,300109,128,0,300213:0:0:0:70:kickdrum.wav
192,192,300316,128,0,300420:0:0:0:130:Xiao-07.ogg
320,192,300316,128,0,300523:0:0:0:0:
64,192,300523,128,0,300627:0:0:0:130:Xiao-08.ogg
448,192,300523,128,0,300730:0:0:0:70:kickdrum.wav
192,192,300627,128,0,300937:0:0:0:130:Xiao-09.ogg
320,192,300730,1,0,0:0:0:0:
64,192,300834,1,0,0:0:0:0:
448,192,300937,128,0,301144:0:0:0:100:Fty-C#6.ogg
64,192,301144,128,0,301558:0:0:0:130:Xiao-10.ogg
320,192,301144,128,0,301351:0:0:0:70:kickdrum.wav
448,192,301351,1,0,0:0:0:100:Fty-D6.ogg
192,192,301454,1,0,0:0:0:0:
320,192,301558,128,0,301765:0:0:0:0:
64,192,301765,128,0,301971:0:0:0:100:Fty-B5.ogg
192,192,301765,128,0,301971:0:0:0:130:Xiao-11.ogg
448,192,301971,1,0,0:0:0:0:
320,192,302023,1,0,0:0:0:0:
192,192,302075,1,0,0:0:0:0:
64,192,302127,1,0,0:0:0:0:
320,192,302178,128,0,302385:0:0:0:70:kickdrum.wav
448,192,302178,128,0,302592:0:0:0:0:
192,192,302385,1,0,0:0:0:0:
64,192,302489,1,0,0:0:0:0:
192,192,302592,128,0,302799:0:0:0:0:
64,192,302799,128,0,303213:0:0:0:70:kickdrum.wav
320,192,302799,128,0,303006:0:0:0:0:
192,192,303006,1,0,0:0:0:0:
448,192,303109,1,0,0:0:0:0:
320,192,303213,128,0,303420:0:0:0:0:
64,192,303420,128,0,303627:0:0:0:130:Xiao-07.ogg
192,192,303420,128,0,303523:0:0:0:70:kickdrum.wav
320,192,303627,128,0,303730:0:0:0:130:Xiao-06.ogg
448,192,303627,128,0,303834:0:0:0:0:
64,192,303834,128,0,304247:0:0:0:130:Xiao-12.ogg
192,192,303834,128,0,304040:0:0:0:70:kickdrum.wav
320,192,304040,1,0,0:0:0:0:
448,192,304144,1,0,0:0:0:0:
192,192,304247,128,0,304454:0:0:0:130:Xiao-13.ogg
64,192,304454,128,0,304868:0:0:0:70:kickdrum.wav
448,192,304454,128,0,304661:0:0:0:0:
320,192,304661,128,0,304868:0:0:0:130:Xiao-12.ogg
192,192,304765,1,0,0:0:0:0:
448,192,304868,128,0,305075:0:0:0:0:
64,192,305075,128,0,305282:0:0:0:130:Xiao-14.ogg
192,192,305075,128,0,305282:0:0:0:100:Fty-E6.ogg
448,192,305282,1,0,0:0:0:0:
320,192,305334,1,0,0:0:0:0:
192,192,305385,1,0,0:0:0:0:
64,192,305437,1,0,0:0:0:0:
448,192,305489,128,0,305696:0:0:0:0:
192,192,305696,128,0,305903:0:0:0:70:kickdrum.wav
320,192,305696,128,0,306109:0:0:0:0:
64,192,305903,1,0,0:0:0:0:
448,192,306006,1,0,0:0:0:0:
192,192,306109,1,0,0:0:0:0:
64,192,306161,1,0,0:0:0:130:Xiao-15.ogg
448,192,306213,1,0,0:0:0:130:Xiao-16.ogg
320,192,306265,1,0,0:0:0:130:Xiao-15.ogg
64,192,306316,128,0,306730:0:0:0:130:Xiao-13.ogg
192,192,306316,128,0,306523:0:0:0:70:kickdrum.wav
448,192,306523,1,0,0:0:0:0:
320,192,306627,1,0,0:0:0:0:
192,192,306730,128,0,306937:0:0:0:130:Xiao-07.ogg
448,192,306730,128,0,306834:0:0:0:0:
64,192,306937,128,0,307040:0:0:0:130:Xiao-17.ogg
320,192,306937,128,0,307144:0:0:0:0:
64,192,307144,128,0,307247:0:0:0:130:Xiao-10.ogg
192,192,307144,128,0,307351:0:0:0:70:LR_RBell.wav
448,192,307144,128,0,307558:0:0:0:70:kickdrum.wav
320,192,307351,1,0,0:0:0:0:
64,192,307454,1,0,0:0:0:0:
192,192,307558,128,0,307765:0:0:0:100:Fty-C#6.ogg
64,192,307765,128,0,307971:0:0:0:130:Xiao-18.ogg
320,192,307765,128,0,307868:0:0:0:70:kickdrum.wav
448,192,307868,128,0,308178:0:0:0:130:Xiao-19.ogg
192,192,307971,1,0,0:0:0:100:Fty-D6.ogg
320,192,308075,1,0,0:0:0:0:
64,192,308178,128,0,308385:0:0:0:0:
192,192,308385,128,0,308592:0:0:0:100:Fty-B5.ogg
320,192,308385,128,0,308592:0:0:0:130:Xiao-20.ogg
64,192,308592,1,0,0:0:0:0:
448,192,308644,1,0,0:0:0:0:
320,192,308696,1,0,0:0:0:0:
192,192,308747,1,0,0:0:0:0:
64,192,308799,128,0,309006:0:0:0:70:kickdrum.wav
448,192,308799,128,0,309213:0:0:0:0:
192,192,309006,1,0,0:0:0:0:
320,192,309109,1,0,0:0:0:0:
64,192,309213,128,0,309420:0:0:0:0:
320,192,309420,128,0,309834:0:0:0:70:kickdrum.wav
448,192,309420,128,0,309627:0:0:0:0:
192,192,309627,1,0,0:0:0:0:
64,192,309730,1,0,0:0:0:0:
192,192,309834,128,0,310040:0:0:0:0:
64,192,310040,128,0,310247:0:0:0:130:Xiao-17.ogg
448,192,310040,128,0,310144:0:0:0:70:kickdrum.wav
192,192,310247,128,0,310351:0:0:0:130:Xiao-07.ogg
320,192,310247,128,0,310454:0:0:0:0:
64,192,310454,128,0,310868:0:0:0:130:Xiao-21.ogg
448,192,310454,128,0,310661:0:0:0:70:kickdrum.wav
192,192,310661,1,0,0:0:0:0:
320,192,310765,1,0,0:0:0:0:
192,192,310868,128,0,311075:0:0:0:100:Fty-C#6.ogg
64,192,311075,128,0,311282:0:0:0:70:kickdrum.wav
448,192,311075,128,0,311489:0:0:0:0:
320,192,311282,128,0,311489:0:0:0:130:Xiao-22.ogg
192,192,311385,1,0,0:0:0:0:
64,192,311489,128,0,311696:0:0:0:0:
192,192,311696,128,0,311903:0:0:0:100:Fty-B5.ogg
320,192,311696,128,0,311903:0:0:0:130:Xiao-23.ogg
448,192,311903,1,0,0:0:0:0:
64,192,311954,1,0,0:0:0:0:
192,192,312006,1,0,0:0:0:0:
320,192,312058,1,0,0:0:0:0:
448,192,312109,128,0,312316:0:0:0:0:
64,192,312316,128,0,312730:0:0:0:70:kickdrum.wav
192,192,312316,128,0,312523:0:0:0:0:
320,192,312523,128,0,312730:0:0:0:130:Xiao-24.ogg
448,192,312627,1,0,0:0:0:0:
192,192,312730,128,0,312937:0:0:0:0:
320,192,312937,128,0,313144:0:0:0:130:Xiao-22.ogg
448,192,312937,128,0,313351:0:0:0:70:kickdrum.wav
64,192,313144,1,0,0:0:0:0:
192,192,313247,1,0,0:0:0:0:
64,192,313351,128,0,313765:0:0:0:130:Xiao-13.ogg
320,192,313351,128,0,313454:0:0:0:70:kickdrum.wav
448,192,313558,128,0,313661:0:0:0:0:
192,192,313765,128,0,313971:0:0:0:130:Xiao-25.ogg
320,192,313765,128,0,314178:0:0:0:70:kickdrum.wav
64,192,313971,1,0,0:0:0:0:
448,192,314075,1,0,0:0:0:0:
192,192,314178,128,0,314385:0:0:0:130:Xiao-22.ogg
320,192,314385,128,0,314592:0:0:0:70:kickdrum.wav
448,192,314385,128,0,314799:0:0:0:0:
64,192,314592,128,0,314799:0:0:0:130:Xiao-13.ogg
192,192,314696,1,0,0:0:0:0:
320,192,314799,128,0,315006:0:0:0:0:
64,192,315006,128,0,315213:0:0:0:130:Xiao-26.ogg
448,192,315006,128,0,315109:0:0:0:100:Fty-B5.ogg
192,192,315109,128,0,315213:0:0:0:130:Xiao-27.ogg
320,192,315213,1,0,0:0:0:0:
448,192,315265,1,0,0:0:0:0:
64,192,315316,1,0,0:0:0:0:
192,192,315368,1,0,0:0:0:0:
320,192,315420,128,0,315627:0:0:0:70:kickdrum.wav
448,192,315420,128,0,315834:0:0:0:0:
64,192,315627,1,0,0:0:0:0:
192,192,315730,1,0,0:0:0:0:
64,192,315834,128,0,316040:0:0:0:0:
192,192,316040,128,0,316454:0:0:0:130:Xiao-28.ogg
320,192,316040,128,0,316247:0:0:0:70:kickdrum.wav
448,192,316247,128,0,316454:0:0:0:130:Xiao-29.ogg
64,192,316351,1,0,0:0:0:0:
320,192,316454,128,0,316661:0:0:0:130:Xiao-30.ogg
64,192,316661,128,0,316868:0:0:0:130:Xiao-31.ogg
192,192,316661,128,0,316765:0:0:0:70:kickdrum.wav
320,192,316868,128,0,316971:0:0:0:130:Xiao-32.ogg
448,192,316868,128,0,317075:0:0:0:0:
64,192,317075,128,0,317489:0:0:0:130:Xiao-33.ogg
192,192,317075,128,0,317282:0:0:0:70:kickdrum.wav
448,192,317282,1,0,0:0:0:0:
320,192,317385,1,0,0:0:0:0:
192,192,317489,128,0,317696:0:0:0:130:Xiao-34.ogg
320,192,317696,128,0,317903:0:0:0:70:kickdrum.wav
448,192,317696,128,0,318109:0:0:0:0:
64,192,317903,1,0,0:0:0:130:Xiao-35.ogg
192,192,317954,128,0,318109:0:0:0:130:Xiao-36.ogg
320,192,318006,1,0,0:0:0:0:
64,192,318109,128,0,318316:0:0:0:0:
320,192,318316,128,0,318523:0:0:0:130:Xiao-37.ogg
448,192,318316,128,0,318523:0:0:0:100:Fty-E6.ogg
192,192,318523,1,0,0:0:0:0:
64,192,318575,1,0,0:0:0:0:
448,192,318627,1,0,0:0:0:0:
320,192,318678,1,0,0:0:0:0:
192,192,318730,128,0,318937:0:0:0:0:
64,192,318937,128,0,319144:0:0:0:70:kickdrum.wav
448,192,318937,128,0,319351:0:0:0:0:
320,192,319144,1,0,0:0:0:0:
192,192,319247,1,0,0:0:0:0:
320,192,319351,128,0,319558:0:0:0:0:
64,192,319558,128,0,319765:0:0:0:70:kickdrum.wav
192,192,319558,128,0,319765:0:0:0:0:
448,192,319765,128,0,319971:0:0:0:130:Xiao-02.ogg
192,192,319868,1,0,0:0:0:0:
64,192,319971,128,0,320282:0:0:0:130:Xiao-03.ogg
320,192,319971,128,0,320282:0:0:0:70:kickdrum.wav
192,192,320178,128,0,320282:0:0:0:130:Xiao-02.ogg
448,192,320178,128,0,320282:0:0:0:0:
64,192,320385,128,0,320489:0:0:0:130:Xiao-01.ogg
192,192,320385,128,0,320489:0:0:0:70:GM1Crash_01.wav
320,192,320385,128,0,320592:0:0:0:70:kickdrumheavy.wav
448,192,320385,128,0,320799:0:0:0:70:LR_RBell.wav
64,192,320592,128,0,320696:0:0:0:0:
192,192,320696,128,0,320799:0:0:0:0:
320,192,320799,128,0,321006:0:0:0:100:Fty-C#6.ogg
64,192,321006,128,0,321420:0:0:0:70:kickdrum.wav
192,192,321006,128,0,321213:0:0:0:0:
448,192,321213,128,0,321316:0:0:0:100:Fty-D6.ogg
320,192,321316,128,0,321420:0:0:0:0:
192,192,321420,128,0,321627:0:0:0:0:
320,192,321627,128,0,321834:0:0:0:100:Fty-B5.ogg
448,192,321627,128,0,321834:0:0:0:70:kickdrum.wav
64,192,321834,128,0,321911:0:0:0:0:
192,192,321885,128,0,321963:0:0:0:0:
320,192,321937,128,0,322015:0:0:0:0:
448,192,321989,128,0,322066:0:0:0:0:
64,192,322040,128,0,322247:0:0:0:70:kickdrumheavy.wav
192,192,322040,128,0,322454:0:0:0:0:
320,192,322247,128,0,322351:0:0:0:0:
448,192,322351,128,0,322454:0:0:0:0:
64,192,322454,128,0,322661:0:0:0:0:
320,192,322661,128,0,323075:0:0:0:70:kickdrum.wav
448,192,322661,128,0,322868:0:0:0:0:
192,192,322868,128,0,322971:0:0:0:0:
64,192,322971,128,0,323075:0:0:0:0:
448,192,323075,128,0,323282:0:0:0:0:
64,192,323282,128,0,323489:0:0:0:130:Xiao-02.ogg
320,192,323282,128,0,323489:0:0:0:70:kickdrum.wav
192,192,323489,128,0,323696:0:0:0:130:Xiao-03.ogg
448,192,323489,128,0,323592:0:0:0:0:
64,192,323696,128,0,324109:0:0:0:130:Xiao-04.ogg
320,192,323696,128,0,323903:0:0:0:70:kickdrumheavy.wav
448,192,323696,128,0,323799:0:0:0:70:GM1Crash_01.wav
192,192,323903,128,0,324006:0:0:0:0:
448,192,324006,128,0,324109:0:0:0:0:
320,192,324109,128,0,324316:0:0:0:100:Fty-C#6.ogg
64,192,324316,128,0,324730:0:0:0:70:kickdrum.wav
192,192,324316,128,0,324523:0:0:0:0:
448,192,324523,128,0,324627:0:0:0:100:Fty-E6.ogg
320,192,324627,128,0,324730:0:0:0:0:
448,192,324730,128,0,324937:0:0:0:0:
64,192,324937,128,0,325144:0:0:0:130:Xiao-05.ogg
192,192,324937,128,0,325144:0:0:0:70:kickdrum.wav
448,192,325144,128,0,325221:0:0:0:0:
320,192,325196,128,0,325273:0:0:0:0:
192,192,325247,128,0,325325:0:0:0:0:
64,192,325299,128,0,325377:0:0:0:0:
320,192,325351,128,0,325558:0:0:0:70:kickdrumheavy.wav
448,192,325351,128,0,325765:0:0:0:0:
192,192,325558,128,0,325661:0:0:0:0:
64,192,325661,128,0,325765:0:0:0:0:
320,192,325765,128,0,325971:0:0:0:0:
64,192,325971,128,0,326385:0:0:0:70:kickdrum.wav
448,192,325971,128,0,326178:0:0:0:0:
192,192,326178,128,0,326282:0:0:0:0:
320,192,326282,128,0,326385:0:0:0:0:
448,192,326385,128,0,326592:0:0:0:0:
64,192,326592,128,0,326799:0:0:0:130:Xiao-06.ogg
320,192,326592,128,0,326799:0:0:0:70:kickdrum.wav
192,192,326799,128,0,326903:0:0:0:130:Xiao-07.ogg
448,192,326799,128,0,327006:0:0:0:0:
64,192,327006,128,0,327109:0:0:0:130:Xiao-08.ogg
192,192,327006,128,0,327420:0:0:0:70:kickdrumheavy.wav
320,192,327006,128,0,327213:0:0:0:0:
448,192,327213,128,0,327316:0:0:0:0:
64,192,327316,128,0,327420:0:0:0:0:
320,192,327420,128,0,327627:0:0:0:100:Fty-C#6.ogg
192,192,327627,128,0,327834:0:0:0:130:Xiao-10.ogg
448,192,327627,128,0,328040:0:0:0:70:kickdrum.wav
64,192,327834,128,0,327937:0:0:0:100:Fty-D6.ogg
320,192,327937,128,0,328040:0:0:0:0:
192,192,328040,128,0,328247:0:0:0:0:
320,192,328247,128,0,328454:0:0:0:130:Xiao-11.ogg
448,192,328247,128,0,328454:0:0:0:70:kickdrum.wav
64,192,328454,128,0,328532:0:0:0:0:
192,192,328506,128,0,328584:0:0:0:0:
320,192,328558,128,0,328635:0:0:0:0:
448,192,328609,128,0,328687:0:0:0:0:
64,192,328661,128,0,329075:0:0:0:70:kickdrumheavy.wav
192,192,328661,128,0,328868:0:0:0:0:
320,192,328868,128,0,328971:0:0:0:0:
192,192,328971,128,0,329075:0:0:0:0:
448,192,329075,128,0,329282:0:0:0:0:
192,192,329282,128,0,329489:0:0:0:70:kickdrum.wav
320,192,329282,128,0,329696:0:0:0:0:
64,192,329489,128,0,329592:0:0:0:0:
448,192,329592,128,0,329696:0:0:0:0:
192,192,329696,128,0,329903:0:0:0:0:
64,192,329903,128,0,330109:0:0:0:130:Xiao-07.ogg
448,192,329903,128,0,330109:0:0:0:70:kickdrum.wav
192,192,330109,128,0,330316:0:0:0:130:Xiao-06.ogg
320,192,330109,128,0,330213:0:0:0:0:
64,192,330316,128,0,330730:0:0:0:130:Xiao-12.ogg
320,192,330316,128,0,330420:0:0:0:70:GM1Crash_01.wav
448,192,330316,128,0,330523:0:0:0:70:kickdrumheavy.wav
192,192,330523,128,0,330627:0:0:0:0:
320,192,330627,128,0,330730:0:0:0:0:
448,192,330730,128,0,331144:0:0:0:100:Fty-E6.ogg
64,192,330937,128,0,331351:0:0:0:70:kickdrum.wav
192,192,330937,128,0,331144:0:0:0:0:
320,192,331144,128,0,331558:0:0:0:130:Xiao-24.ogg
192,192,331247,128,0,331351:0:0:0:0:
448,192,331351,128,0,331558:0:0:0:0:
64,192,331558,128,0,331765:0:0:0:130:Xiao-38.ogg
192,192,331558,128,0,331765:0:0:0:70:kickdrum.wav
448,192,331765,128,0,331842:0:0:0:0:
320,192,331816,128,0,331894:0:0:0:0:
192,192,331868,128,0,331946:0:0:0:0:
64,192,331920,128,0,331997:0:0:0:0:
320,192,331971,128,0,332178:0:0:0:70:kickdrumheavy.wav
448,192,331971,128,0,332385:0:0:0:0:
192,192,332178,128,0,332282:0:0:0:0:
64,192,332282,128,0,332385:0:0:0:0:
192,192,332385,128,0,332592:0:0:0:0:
64,192,332592,128,0,333006:0:0:0:70:kickdrum.wav
320,192,332592,128,0,332799:0:0:0:0:
192,192,332799,128,0,332903:0:0:0:0:
448,192,332903,128,0,333006:0:0:0:0:
320,192,333006,128,0,333213:0:0:0:0:
192,192,333213,128,0,333523:0:0:0:130:Xiao-07.ogg
448,192,333213,128,0,333523:0:0:0:70:kickdrum.wav
64,192,333420,128,0,333523:0:0:0:130:Xiao-17.ogg
320,192,333420,128,0,333523:0:0:0:0:
64,192,333627,128,0,333834:0:0:0:130:Xiao-10.ogg
192,192,333627,128,0,334247:0:0:0:70:kickdrumheavy.wav
320,192,333627,128,0,333730:0:0:0:70:GM1Crash_01.wav
448,192,333627,128,0,333730:0:0:0:70:LR_RBell.wav
448,192,333834,128,0,334040:0:0:0:0:
320,192,333937,128,0,334040:0:0:0:0:
64,192,334040,128,0,334247:0:0:0:100:Fty-C#6.ogg
320,192,334247,128,0,334351:0:0:0:130:Xiao-18.ogg
448,192,334247,128,0,334454:0:0:0:70:kickdrum.wav
64,192,334351,128,0,334868:0:0:0:130:Xiao-19.ogg
192,192,334454,128,0,334661:0:0:0:100:Fty-D6.ogg
320,192,334558,128,0,334661:0:0:0:0:
448,192,334661,128,0,334868:0:0:0:0:
192,192,334868,128,0,335075:0:0:0:130:Xiao-39.ogg
320,192,334868,128,0,335075:0:0:0:70:kickdrum.wav
448,192,335075,128,0,335153:0:0:0:0:
64,192,335127,128,0,335204:0:0:0:0:
192,192,335178,128,0,335256:0:0:0:0:
320,192,335230,128,0,335308:0:0:0:0:
64,192,335282,128,0,335489:0:0:0:70:kickdrumheavy.wav
448,192,335282,128,0,335903:0:0:0:0:
192,192,335489,128,0,335696:0:0:0:0:
320,192,335592,128,0,335696:0:0:0:0:
64,192,335696,128,0,335903:0:0:0:0:
192,192,335903,128,0,336523:0:0:0:70:kickdrum.wav
320,192,335903,128,0,336109:0:0:0:0:
448,192,336109,128,0,336316:0:0:0:0:
64,192,336213,128,0,336316:0:0:0:0:
320,192,336316,128,0,336523:0:0:0:0:
64,192,336523,128,0,336834:0:0:0:130:Xiao-40.ogg
448,192,336523,128,0,336834:0:0:0:70:kickdrum.wav
192,192,336730,128,0,336834:0:0:0:130:Xiao-41.ogg
320,192,336730,128,0,336834:0:0:0:0:
64,192,336937,128,0,337040:0:0:0:130:Xiao-42.ogg
192,192,336937,128,0,337040:0:0:0:70:GM1Crash_01.wav
320,192,336937,128,0,337144:0:0:0:70:kickdrumheavy.wav
448,192,336937,128,0,337558:0:0:0:0:
64,192,337144,128,0,337351:0:0:0:0:
192,192,337247,128,0,337351:0:0:0:0:
320,192,337351,128,0,337558:0:0:0:100:Fty-C#6.ogg
64,192,337558,128,0,337765:0:0:0:70:kickdrum.wav
192,192,337558,128,0,337971:0:0:0:0:
448,192,337765,128,0,338178:0:0:0:130:Xiao-24.ogg
320,192,337868,128,0,337971:0:0:0:0:
64,192,337971,128,0,338178:0:0:0:0:
192,192,338178,128,0,338385:0:0:0:130:Xiao-23.ogg
320,192,338178,128,0,338385:0:0:0:70:kickdrum.wav
64,192,338385,128,0,338463:0:0:0:0:
448,192,338437,128,0,338515:0:0:0:0:
320,192,338489,128,0,338566:0:0:0:0:
192,192,338540,128,0,338618:0:0:0:0:
64,192,338592,128,0,339213:0:0:0:70:kickdrumheavy.wav
448,192,338592,128,0,338799:0:0:0:0:
320,192,338799,128,0,339006:0:0:0:0:
448,192,338903,128,0,339006:0:0:0:0:
192,192,339006,128,0,339420:0:0:0:130:Xiao-24.ogg
320,192,339213,128,0,339420:0:0:0:70:kickdrum.wav
448,192,339213,128,0,339627:0:0:0:0:
64,192,339420,128,0,339834:0:0:0:130:Xiao-22.ogg
192,192,339523,128,0,339627:0:0:0:0:
320,192,339627,128,0,339834:0:0:0:0:
192,192,339834,128,0,340144:0:0:0:130:Xiao-13.ogg
448,192,339834,128,0,340144:0:0:0:70:kickdrum.wav
64,192,340040,128,0,340144:0:0:0:0:
64,192,340247,128,0,340868:0:0:0:130:Xiao-25.ogg
192,192,340247,128,0,340351:0:0:0:70:kickdrumheavy.wav
320,192,340247,128,0,340351:0:0:0:70:GM1Crash_01.wav
448,192,340247,128,0,340454:0:0:0:0:
320,192,340454,128,0,340661:0:0:0:0:
192,192,340558,128,0,340661:0:0:0:0:
448,192,340661,128,0,341075:0:0:0:100:Fty-C#6.ogg
192,192,340868,128,0,341075:0:0:0:70:kickdrum.wav
320,192,340868,128,0,341282:0:0:0:0:
64,192,341075,128,0,341489:0:0:0:130:Xiao-13.ogg
192,192,341178,128,0,341282:0:0:0:0:
448,192,341282,128,0,341489:0:0:0:0:
192,192,341489,128,0,341696:0:0:0:130:Xiao-26.ogg
320,192,341489,128,0,341592:0:0:0:70:kickdrum.wav
64,192,341592,128,0,341696:0:0:0:130:Xiao-27.ogg
320,192,341696,128,0,341773:0:0:0:0:
448,192,341747,128,0,341825:0:0:0:0:
64,192,341799,128,0,341877:0:0:0:0:
192,192,341851,128,0,341928:0:0:0:0:
320,192,341903,128,0,342523:0:0:0:70:kickdrumheavy.wav
448,192,341903,128,0,342109:0:0:0:0:
64,192,342109,128,0,342316:0:0:0:0:
192,192,342213,128,0,342316:0:0:0:0:
448,192,342316,128,0,342523:0:0:0:0:
64,192,342523,128,0,343144:0:0:0:130:Xiao-28.ogg
192,192,342523,128,0,342730:0:0:0:70:kickdrum.wav
320,192,342730,128,0,342937:0:0:0:130:Xiao-29.ogg
192,192,342834,128,0,342937:0:0:0:0:
448,192,342937,128,0,343144:0:0:0:130:Xiao-30.ogg
192,192,343144,128,0,343454:0:0:0:130:Xiao-31.ogg
320,192,343144,128,0,343454:0:0:0:70:kickdrum.wav
64,192,343351,128,0,343454:0:0:0:130:Xiao-32.ogg
448,192,343351,128,0,343454:0:0:0:0:
64,192,343558,128,0,344178:0:0:0:130:Xiao-33.ogg
192,192,343558,128,0,343661:0:0:0:70:kickdrumheavy.wav
320,192,343558,128,0,343765:0:0:0:70:GM1Crash_01.wav
448,192,343558,128,0,343661:0:0:0:0:
192,192,343765,128,0,343971:0:0:0:0:
448,192,343868,128,0,343971:0:0:0:0:
320,192,343971,128,0,344385:0:0:0:100:Fty-E6.ogg
192,192,344178,128,0,344385:0:0:0:70:kickdrum.wav
448,192,344178,128,0,344592:0:0:0:0:
64,192,344385,128,0,344799:0:0:0:130:Xiao-22.ogg
320,192,344489,128,0,344592:0:0:0:0:
192,192,344592,128,0,344799:0:0:0:0:
320,192,344799,128,0,345006:0:0:0:130:Xiao-21.ogg
448,192,344799,128,0,345006:0:0:0:70:kickdrum.wav
192,192,345006,128,0,345084:0:0:0:0:
64,192,345058,128,0,345135:0:0:0:0:
448,192,345109,128,0,345187:0:0:0:0:
320,192,345161,128,0,345239:0:0:0:0:
64,192,345213,128,0,345834:0:0:0:70:kickdrumheavy.wav
192,192,345213,128,0,345420:0:0:0:0:
320,192,345420,128,0,345627:0:0:0:0:
192,192,345523,128,0,345627:0:0:0:0:
448,192,345627,128,0,346454:0:0:0:130:Xiao-43.ogg
192,192,345834,128,0,346040:0:0:0:70:kickdrum.wav
320,192,345834,128,0,346040:0:0:0:0:
64,192,346040,128,0,346247:0:0:0:0:
192,192,346144,128,0,346247:0:0:0:0:
320,192,346247,128,0,346454:0:0:0:0:
64,192,346454,128,0,346765:0:0:0:130:Xiao-25.ogg
192,192,346454,128,0,346765:0:0:0:70:kickdrum.wav
448,192,346661,128,0,346765:0:0:0:0:
448,192,346868,128,0,350454:0:0:0:70:LR_RBell.wav
64,192,346868,128,0,350454:0:0:0:50:Finish+Windchime.ogg
192,192,346868,128,0,347765:0:0:0:70:kickdrumheavy.wav
320,192,346868,128,0,353627:0:0:0:70:Strings-end-01.ogg
192,192,347903,1,0,0:0:0:70:Crystal-A6fil80.ogg
192,192,350454,128,0,351903:0:0:0:70:Strings-end-02.ogg
64,192,351903,128,0,352730:0:0:0:70:Strings-end-03.ogg
448,192,352730,128,0,353627:0:0:0:70:Strings-end-04.ogg
64,192,353627,128,0,356937:0:0:0:70:Strings-end-05.ogg
192,192,353627,128,0,358592:0:0:0:0:
448,192,354558,128,0,354765:0:0:0:70:Fir-A6-r.ogg
320,192,354765,128,0,354971:0:0:0:70:Crystal-A6fil80.ogg
320,192,355178,128,0,355385:0:0:0:60:Crystal-A6fil80.ogg
320,192,355592,128,0,355799:0:0:0:50:Crystal-A6fil80.ogg
320,192,356006,128,0,356213:0:0:0:40:Crystal-A6fil80.ogg
320,192,356420,128,0,357627:0:0:0:30:Crystal-A6fil80.ogg
448,192,356937,128,0,359420:0:0:0:70:Strings-end-06.ogg
64,192,358592,128,0,360316:0:0:0:70:Strings-end-07.ogg
320,192,359420,128,0,360316:0:0:0:70:Strings-end-08.ogg
448,192,360316,128,0,365420:0:0:0:0:
192,192,360316,128,0,363627:0:0:0:70:Strings-end-09.ogg
64,192,361213,128,0,361420:0:0:0:70:Fir-A6-r.ogg
320,192,361420,128,0,361627:0:0:0:70:Crystal-A6fil80.ogg
320,192,361834,128,0,362040:0:0:0:60:Crystal-A6fil80.ogg
320,192,362247,128,0,362454:0:0:0:50:Crystal-A6fil80.ogg
320,192,362661,128,0,362868:0:0:0:40:Crystal-A6fil80.ogg
320,192,363075,128,0,364247:0:0:0:30:Crystal-A6fil80.ogg
64,192,363627,128,0,367351:0:0:0:70:Strings-end-10.ogg
192,192,365420,128,0,366385:0:0:0:70:Strings-end-11.ogg
320,192,366385,128,0,367351:0:0:0:70:Strings-end-12.ogg
448,192,367351,128,0,377282:0:0:0:0:
192,192,367351,128,0,371213:0:0:0:70:Strings-end-13.ogg
64,192,368385,128,0,372109:0:0:0:70:Fir-A6-r.ogg
320,192,371213,128,0,373282:0:0:0:70:Strings-end-14.ogg
64,192,373282,128,0,377282:0:0:0:70:Strings-end-15.ogg
