osu file format v14

[General]
AudioFilename: audio.mp3
AudioLeadIn: 0
PreviewTime: 111527
Countdown: 0
SampleSet: Soft
StackLeniency: 0.4
Mode: 0
LetterboxInBreaks: 0
WidescreenStoryboard: 0

[Editor]
Bookmarks: 11292,112939,180703,225893
DistanceSpacing: 1
BeatDivisor: 2
GridSize: 32
TimelineZoom: 1.8

[Metadata]
Title:Reiteration
TitleUnicode:Reiteration
Artist:Au5
ArtistUnicode:Au5
Creator:NeilPerry
Version:vanucik's Normal
Source:
Tags:drumstep Monstercat dnb wub dubstep rmdy snownino_ namki fcl wajinshu vanucik
BeatmapID:1085700
BeatmapSetID:487775

[Difficulty]
HPDrainRate:4
CircleSize:3.5
OverallDifficulty:3
ApproachRate:5
SliderMultiplier:0.9
SliderTickRate:1

[Events]
//Background and Video events
0,0,"bgv2.jpg",0,0
//Break Periods
2,45407,52477
2,56701,60948
2,135760,142830
2,147054,151301
//Storyboard Layer 0 (Background)
//Storyboard Layer 1 (Fail)
//Storyboard Layer 2 (Pass)
//Storyboard Layer 3 (Foreground)
//Storyboard Sound Samples

[TimingPoints]
11325,352.941176470588,4,2,1,30,1,0
21207,-100,4,2,1,60,0,0
53677,-100,4,2,1,5,0,0
54383,-100,4,2,1,10,0,0
54736,-100,4,2,1,15,0,0
55089,-100,4,2,1,20,0,0
55442,-100,4,2,1,25,0,0
55795,-100,4,2,1,30,0,0
56148,-100,4,2,1,40,0,0
56501,-100,4,2,1,60,0,0
67795,-100,4,2,1,60,0,1
111560,-100,4,2,1,60,0,0
144030,-100,4,2,1,5,0,0
144736,-100,4,2,1,10,0,0
145089,-100,4,2,1,15,0,0
145442,-100,4,2,1,20,0,0
145795,-100,4,2,1,25,0,0
146148,-100,4,2,1,30,0,0
146501,-100,4,2,1,40,0,0
146854,-100,4,2,1,60,0,0
158148,-100,4,2,1,60,0,1
201913,-100,4,2,1,60,0,0

[Colours]
Combo1 : 152,31,55
Combo2 : 163,173,175
Combo3 : 235,175,234
Combo4 : 90,125,177

[HitObjects]
309,52,11325,6,0,L|404:43,1,90,0|0,0:0|0:0,0:0:0:0:
373,130,12030,2,0,L|270:141,1,90,0|0,0:0|0:0,0:0:0:0:
323,220,12736,2,0,L|418:211,1,90,0|0,0:0|0:0,0:0:0:0:
387,298,13442,2,0,L|284:309,1,90,0|0,0:0|0:0,0:0:0:0:
211,337,14148,6,0,P|166:320|115:326,1,90,0|0,0:0|0:0,0:0:0:0:
67,253,14854,2,0,P|108:236|153:238,1,90,0|0,0:0|0:0,0:0:0:0:
203,163,15560,2,0,P|158:146|107:152,1,90,0|0,0:0|0:0,0:0:0:0:
59,79,16266,2,0,P|100:62|145:64,1,90,0|4,0:0|0:0,0:0:0:0:
234,77,16972,6,0,L|330:59,1,90,0|0,0:0|0:0,0:0:0:0:
288,143,17677,2,0,L|384:125,1,90,0|0,0:0|0:0,0:0:0:0:
342,210,18383,2,0,L|438:192,1,90,0|0,0:0|0:0,0:0:0:0:
396,276,19089,2,0,L|492:258,1,90,0|0,0:0|0:0,0:0:0:0:
451,343,19795,6,0,P|408:360|356:355,1,90,0|2,0:0|0:0,0:0:0:0:
283,318,20501,2,0,P|231:295|188:287,1,90,0|0,0:0|0:0,0:0:0:0:
109,304,21207,2,0,L|100:206,1,90,0|0,0:0|0:0,0:0:0:0:
161,147,21913,2,0,L|167:90,1,45,0|0,0:0|0:0,0:0:0:0:
172,57,22266,1,8,3:0:0:0:
250,100,22619,6,0,P|276:160|270:191,1,90,2|8,3:2|0:0,0:0:0:0:
224,308,23501,1,0,0:0:0:0:
224,308,23677,2,0,P|253:303|279:303,1,45,10|0,0:2|0:0,0:0:0:0:
358,298,24207,1,0,3:0:0:0:
358,298,24383,2,0,L|364:236,1,45,8|0,0:0|0:0,0:0:0:0:
312,178,24913,1,0,0:0:0:0:
312,178,25089,2,0,L|310:115,1,45,8|0,0:0|0:0,0:0:0:0:
306,88,25442,6,0,P|256:102|202:93,1,90,2|8,3:2|0:0,0:0:0:0:
85,74,26324,1,0,0:0:0:0:
85,74,26501,2,0,L|88:131,1,45,10|2,0:2|0:0,0:0:0:0:
153,179,27030,1,2,3:2:0:0:
153,179,27207,2,0,L|147:237,1,45,8|0,0:0|0:0,0:0:0:0:
62,251,27736,1,0,3:0:0:0:
62,251,27913,2,0,L|69:311,1,45,12|0,0:0|0:0,0:0:0:0:
78,339,28266,6,0,P|120:320|168:320,1,90,2|8,3:2|0:0,0:0:0:0:
293,355,29148,1,0,0:0:0:0:
293,355,29324,2,0,L|347:348,1,45,10|0,0:2|0:0,0:0:0:0:
371,265,29854,1,0,3:0:0:0:
371,265,30030,2,0,L|317:258,1,45,8|0,0:0|0:0,0:0:0:0:
287,177,30560,1,0,0:0:0:0:
287,177,30736,2,0,L|341:170,1,45,8|0,0:0|0:0,0:0:0:0:
363,139,31089,6,0,P|345:104|350:42,1,90,2|8,3:2|0:0,0:0:0:0:
210,61,31972,1,0,0:0:0:0:
210,61,32148,2,0,P|175:68|154:68,1,45,10|0,0:0|0:0,0:0:0:0:
165,158,32677,1,0,3:0:0:0:
165,158,32854,2,0,P|123:168|105:168,1,45,8|0,0:0|0:0,0:0:0:0:
150,253,33383,1,0,3:0:0:0:
150,253,33560,2,0,P|110:269|92:272,1,45,8|0,0:3|0:0,0:0:0:0:
64,280,33913,6,0,P|95:308|118:362,1,90,2|8,3:2|0:0,0:0:0:0:
247,321,34795,1,0,0:0:0:0:
282,293,34972,2,0,L|287:234,1,45,10|0,0:0|0:0,0:0:0:0:
215,192,35501,1,2,3:2:0:0:
241,155,35677,2,0,L|230:107,1,45,10|2,0:0|0:0,0:0:0:0:
145,99,36207,1,2,0:0:0:0:
146,54,36383,2,0,L|112:17,1,45,10|2,0:0|0:0,0:0:0:0:
73,38,36736,6,0,P|58:70|52:135,1,90,2|8,3:2|0:0,0:0:0:0:
93,252,37619,1,2,0:0:0:0:
120,287,37795,2,0,P|153:286|171:289,1,45,10|0,0:0|0:0,0:0:0:0:
247,253,38324,1,2,3:2:0:0:
286,274,38501,2,0,P|302:250|322:235,1,45,8|0,0:0|0:0,0:0:0:0:
355,159,39030,1,2,3:2:0:0:
399,163,39207,2,0,P|404:134|416:113,1,45,10|2,0:0|0:0,0:0:0:0:
443,87,39560,6,0,P|400:83|353:56,1,90,2|8,3:2|0:0,0:0:0:0:
229,24,40442,1,2,0:0:0:0:
188,43,40619,2,0,P|189:69|196:104,1,45,10|0,0:0|0:0,0:0:0:0:
187,177,41148,1,2,3:2:0:0:
158,212,41324,2,0,P|171:235|193:262,1,45,8|0,0:0|0:0,0:0:0:0:
256,301,41854,1,2,0:0:0:0:
250,345,42030,2,0,P|275:352|310:356,1,45,10|2,0:0|0:0,0:0:0:0:
338,350,42383,6,0,L|345:247,1,90,2|8,3:2|0:0,0:0:0:0:
286,190,43089,1,2,3:2:0:0:
258,225,43266,2,0,P|209:232|162:217,1,90,8|0,0:0|3:0,0:0:0:0:
134,248,43795,2,0,P|94:218|72:175,1,90,8|0,0:0|3:0,0:0:0:0:
34,162,44324,2,0,P|26:113|41:66,1,90,8|0,0:0|3:0,0:0:0:0:
36,29,44854,1,8,2:0:0:0:
125,31,45207,5,4,3:1:0:0:
256,192,53677,12,8,56501,0:0:0:0:
158,129,62148,6,0,L|257:120,1,90,8|0,0:0|3:0,0:0:0:0:
331,86,62854,2,0,L|340:185,1,90,0|0,3:0|3:0,0:0:0:0:
374,258,63560,2,0,L|275:267,1,90,0|0,3:0|3:0,0:0:0:0:
201,301,64266,2,0,L|192:202,1,90,0|0,3:0|3:0,0:0:0:0:
185,121,64972,6,0,P|216:109|246:105,1,45,0|0,3:0|3:0,0:0:0:0:
271,113,65324,2,0,P|308:112|331:117,1,45,0|0,3:0|3:0,0:0:0:0:
355,133,65677,2,0,B|385:137|409:151|409:151|367:203|391:273,1,180,0|0,1:0|3:0,0:0:0:0:
388,266,67442,6,0,P|395:299|395:318,1,45,8|0,1:0|3:0,0:0:0:0:
364,342,67795,6,0,B|324:322|324:322|266:337,1,90,4|8,3:1|0:0,0:0:0:0:
190,322,68501,2,0,B|141:329|141:329|97:306,1,90,0|8,1:0|2:0,0:0:0:0:
68,283,69030,1,0,0:0:0:0:
45,243,69207,2,0,B|38:194|38:194|61:150,1,90,0|8,0:0|0:0,0:0:0:0:
89,126,69736,1,0,0:0:0:0:
127,103,69913,2,0,B|175:91|175:91|221:110,1,90,0|8,1:0|0:0,0:0:0:0:
292,148,70619,6,0,L|287:242,1,90,0|8,3:0|0:0,0:0:0:0:
283,282,71148,2,0,B|241:264|241:264|147:292,1,135,0|8,3:1|0:0,0:0:0:0:
174,248,71854,2,0,B|132:230|132:230|38:258,1,135,0|8,3:1|0:0,0:0:0:0:
7,232,72560,2,0,B|-5:190|-5:190|19:150,1,90,0|0,3:0|3:0,0:0:0:0:
50,118,73089,1,8,0:0:0:0:
136,142,73442,6,0,P|183:146|241:114,1,90,0|8,3:0|0:0,0:0:0:0:
302,88,74148,2,0,L|355:88,1,45,0|0,0:0|3:0,0:0:0:0:
392,90,74501,1,12,0:0:0:0:
355,172,74854,2,0,L|402:195,1,45,0|0,3:0|0:0,0:0:0:0:
435,214,75207,1,8,0:0:0:0:
370,277,75560,2,0,L|398:320,1,45,0|4,0:0|3:2,0:0:0:0:
419,352,75913,1,2,3:0:0:0:
330,369,76266,5,0,3:0:0:0:
252,323,76619,2,0,P|212:296|162:288,1,90,8|0,0:0|3:0,0:0:0:0:
150,247,77148,2,0,P|168:203|172:157,1,90,8|0,0:0|3:0,0:0:0:0:
165,116,77677,1,8,1:1:0:0:
245,74,78030,2,0,B|290:66|290:66|329:94,1,90,0|2,3:1|0:0,0:0:0:0:
386,158,78736,1,8,1:0:0:0:
314,212,79089,6,0,P|292:256|287:301,1,90,4|8,3:1|0:0,0:0:0:0:
210,343,79795,2,0,B|190:304|190:304|201:256,1,90,0|8,1:0|0:0,0:0:0:0:
212,215,80324,1,0,0:0:0:0:
224,171,80501,2,0,B|234:128|234:128|274:99,1,90,0|8,1:0|0:0,0:0:0:0:
312,81,81030,1,0,0:0:0:0:
349,56,81207,2,0,B|386:33|386:33|432:40,1,90,0|8,0:0|0:0,0:0:0:0:
466,123,81913,6,0,P|410:119|366:137,1,90,0|8,3:0|0:0,0:0:0:0:
355,168,82442,2,0,B|311:180|311:180|211:126,1,135,0|8,3:1|0:0,0:0:0:0:
192,116,83148,2,0,B|152:96|152:96|56:131,1,135,0|8,3:1|0:0,0:0:0:0:
47,167,83854,2,0,B|30:210|30:210|60:263,1,90,0|0,3:0|3:0,0:0:0:0:
76,285,84383,1,8,0:0:0:0:
151,334,84736,6,0,P|197:320|255:319,1,90,0|8,3:0|0:0,0:0:0:0:
326,339,85442,2,0,L|377:333,1,45,0|0,1:0|3:0,0:0:0:0:
415,326,85795,1,8,0:0:0:0:
356,257,86148,2,0,P|344:207|368:148,1,90,0|8,3:0|0:0,0:0:0:0:
395,90,86854,2,0,L|348:78,1,45,0|0,0:1|3:0,0:0:0:0:
307,67,87207,1,2,3:0:0:0:
240,126,87560,6,0,P|229:165|248:231,1,90,0|8,3:0|0:0,0:0:0:0:
271,296,88266,1,0,3:0:0:0:
271,296,88442,2,0,B|230:309|230:309|170:276,1,90,8|0,0:0|3:0,0:0:0:0:
148,265,88972,2,0,B|115:250|80:265|80:265|138:211|105:126|105:126|103:158|85:183,1,270,8|8,0:1|1:0,0:0:0:0:
16,123,90383,5,0,3:0:0:0:
76,55,90736,2,0,L|167:49,1,90,8|0,1:0|0:0,0:0:0:0:
206,68,91266,2,0,L|310:62,1,90,8|0,1:1|0:0,0:0:0:0:
336,83,91795,1,0,3:0:0:0:
346,172,92148,2,0,B|326:194|326:194|248:189,1,90,8|0,0:0|0:0,0:0:0:0:
220,188,92677,2,0,B|159:184|159:184|139:206,1,90,8|0,0:0|0:0,0:0:0:0:
112,242,93207,5,0,1:1:0:0:
154,321,93560,2,0,B|196:302|196:302|256:316,1,90,8|0,0:0|0:0,0:0:0:0:
324,339,94266,2,0,B|366:348|366:348|408:329,1,90,8|0,0:0|0:0,0:0:0:0:
447,248,94972,2,0,B|404:238|404:238|362:257,1,90,8|0,0:0|1:1,0:0:0:0:
273,270,95677,1,8,0:0:0:0:
196,222,96030,5,0,3:0:0:0:
113,257,96383,2,0,L|109:148,1,90,8|0,1:1|0:0,0:0:0:0:
143,136,96913,2,0,L|140:38,1,90,8|0,1:1|0:0,0:0:0:0:
173,15,97442,1,0,3:0:0:0:
241,73,97795,2,0,B|271:100|271:100|265:165,1,90,8|0,0:0|0:0,0:0:0:0:
226,169,98324,2,0,B|256:196|256:196|250:261,1,90,8|0,0:0|0:0,0:0:0:0:
245,290,98854,5,0,3:1:0:0:
333,307,99207,2,0,P|350:266|342:216,1,90,8|0,0:0|3:0,0:0:0:0:
331,178,99736,2,0,P|325:133|342:92,1,90,8|0,0:0|3:0,0:0:0:0:
373,59,100266,1,8,0:1:0:0:
293,16,100619,2,0,L|231:18,1,45,0|0,0:3|0:0,0:0:0:0:
210,43,100972,2,0,P|221:87|208:139,1,90,2|8,0:0|1:0,0:0:0:0:
154,198,101677,5,0,3:0:0:0:
203,273,102030,2,0,B|225:293|225:293|293:288,1,90,8|0,0:1|0:0,0:0:0:0:
317,256,102560,2,0,B|339:276|339:276|407:271,1,90,8|0,0:1|0:0,0:0:0:0:
443,266,103089,1,0,0:0:0:0:
438,176,103442,2,0,L|339:161,1,90,8|0,0:0|0:0,0:0:0:0:
306,178,103972,2,0,L|209:161,1,90,8|0,0:0|0:0,0:0:0:0:
175,179,104501,5,0,3:0:0:0:
211,261,104854,2,0,P|257:258|314:285,1,90,8|0,0:0|0:0,0:0:0:0:
364,333,105560,2,0,P|406:347|450:344,1,90,8|0,0:0|0:0,0:0:0:0:
504,272,106266,2,0,L|497:209,1,45,8|0,0:0|3:0,0:0:0:0:
468,194,106619,2,0,P|424:208|370:199,1,90,0|8,0:1|0:0,0:0:0:0:
295,175,107324,5,0,3:0:0:0:
245,249,107677,2,0,B|186:254|186:254|159:234,1,90,8|0,0:0|0:0,0:0:0:0:
126,265,108207,2,0,B|67:270|67:270|40:250,1,90,8|0,0:0|0:0,0:0:0:0:
4,275,108736,1,0,3:0:0:0:
4,182,109089,2,0,L|103:174,1,90,8|0,1:0|0:0,0:0:0:0:
121,139,109619,2,0,L|220:131,1,90,8|0,0:1|0:0,0:0:0:0:
251,112,110148,5,0,3:0:0:0:
338,133,110501,2,0,B|357:177|357:177|343:233,1,90,8|0,0:0|3:0,0:0:0:0:
318,252,111030,2,0,B|274:271|274:271|218:257,1,90,8|0,0:0|3:0,0:0:0:0:
190,245,111560,2,0,B|148:219|93:230|93:230|119:217|139:187|139:187|87:143|106:52|106:52|113:90|150:117,1,360,8|6,0:1|3:2,0:0:0:0:
206,137,113324,6,0,P|243:127|280:125,1,45,8|2,0:0|0:0,0:0:0:0:
326,174,113854,1,0,3:0:0:0:
326,174,114030,2,0,P|336:211|338:248,1,45,10|0,0:0|0:0,0:0:0:0:
290,294,114560,1,0,3:0:0:0:
290,294,114736,2,0,P|253:304|216:306,1,45,8|0,0:0|0:0,0:0:0:0:
171,254,115266,1,0,3:0:0:0:
171,254,115442,2,0,P|161:217|159:180,1,45,10|2,0:0|0:0,0:0:0:0:
171,166,115795,6,0,B|184:120|184:120|159:79,1,90,2|8,3:2|0:0,0:0:0:0:
290,43,116677,1,0,3:0:0:0:
290,43,116854,2,0,L|299:103,1,45,10|0,0:0|0:0,0:0:0:0:
254,167,117383,1,2,3:2:0:0:
254,167,117560,2,0,L|247:211,1,45,8|0,0:0|0:0,0:0:0:0:
298,286,118089,1,0,3:0:0:0:
298,286,118266,2,0,L|306:354,1,45,10|0,0:0|0:0,0:0:0:0:
314,374,118619,6,0,P|365:353|410:355,1,90,2|8,3:2|0:0,0:0:0:0:
450,228,119501,1,0,3:0:0:0:
450,228,119677,2,0,L|441:175,1,45,10|0,0:0|0:0,0:0:0:0:
352,194,120207,1,2,3:2:0:0:
352,194,120383,2,0,L|313:156,1,45,8|0,0:0|0:0,0:0:0:0:
255,225,120913,1,0,3:0:0:0:
255,225,121089,2,0,L|195:210,1,45,10|2,0:0|0:0,0:0:0:0:
166,211,121442,6,0,P|130:227|71:214,1,90,2|8,3:2|0:0,0:0:0:0:
58,132,122148,1,0,3:0:0:0:
58,132,122324,2,0,B|97:109|97:109|155:129,1,90,8|0,0:0|3:0,0:0:0:0:
182,138,122854,2,0,B|224:152|224:152|263:129,1,90,8|0,0:0|3:0,0:0:0:0:
301,105,123383,2,0,B|340:82|340:82|382:96,1,90,8|0,0:0|3:0,0:0:0:0:
421,120,123913,1,10,0:0:0:0:
368,193,124266,6,0,P|353:240|364:285,1,90,6|8,3:2|0:0,0:0:0:0:
238,335,125148,1,0,3:0:0:0:
238,335,125324,2,0,L|176:344,1,45,10|0,0:0|0:0,0:0:0:0:
206,252,125854,1,2,3:2:0:0:
206,252,126030,2,0,L|135:246,1,45,8|0,0:0|0:0,0:0:0:0:
196,165,126560,1,0,3:0:0:0:
196,165,126736,2,0,L|124:139,1,45,10|2,0:0|0:0,0:0:0:0:
111,132,127089,6,0,P|125:89|116:39,1,90,0|8,3:2|0:0,0:0:0:0:
254,42,127972,1,0,3:0:0:0:
254,42,128148,2,0,L|259:102,1,45,10|0,0:0|0:0,0:0:0:0:
336,129,128677,1,2,3:2:0:0:
336,129,128854,2,0,L|317:186,1,45,8|0,0:0|0:0,0:0:0:0:
356,254,129383,1,0,3:0:0:0:
356,254,129560,2,0,L|316:299,1,45,10|0,0:0|0:0,0:0:0:0:
296,321,129913,6,0,P|239:306|182:310,1,90,2|8,3:2|0:0,0:0:0:0:
109,213,130795,1,0,3:0:0:0:
109,213,130972,2,0,L|165:210,1,45,10|0,0:0|0:0,0:0:0:0:
229,161,131501,1,2,3:2:0:0:
229,161,131677,2,0,L|303:156,1,45,8|0,0:0|0:0,0:0:0:0:
354,198,132207,1,0,3:0:0:0:
354,198,132383,2,0,L|428:193,1,45,10|2,0:0|0:0,0:0:0:0:
428,161,132736,6,0,P|412:109|417:66,1,90,2|8,3:2|0:0,0:0:0:0:
280,88,133619,1,0,3:0:0:0:
280,88,133795,2,0,L|211:83,1,45,10|0,0:0|3:0,0:0:0:0:
190,80,134148,1,0,3:0:0:0:
195,171,134501,2,0,L|253:176,1,45,8|0,0:0|0:0,0:0:0:0:
284,179,134854,1,0,0:0:0:0:
290,268,135207,1,8,0:0:0:0:
200,265,135560,5,0,3:0:0:0:
256,192,144030,12,8,146854,0:0:0:0:
80,234,152501,6,0,L|87:326,1,90,10|0,0:0|3:0,0:0:0:0:
174,343,153207,2,0,L|167:251,1,90,0|0,3:0|3:0,0:0:0:0:
253,225,153913,2,0,L|260:317,1,90,0|0,3:0|3:0,0:0:0:0:
347,334,154619,2,0,L|340:242,1,90,0|0,3:0|3:0,0:0:0:0:
330,154,155324,6,0,P|292:131|276:126,1,45,0|0,3:0|3:0,0:0:0:0:
248,144,155677,2,0,P|208:131|189:132,1,45,0|0,3:0|3:0,0:0:0:0:
162,143,156030,2,0,B|122:134|100:142|100:142|130:205|89:266,1,180,0|0,1:0|3:0,0:0:0:0:
208,329,157266,1,0,0:0:0:0:
208,329,157442,1,8,0:1:0:0:
385,300,158148,6,0,B|398:256|398:256|381:209,1,90,4|0,3:0|1:0,0:0:0:0:
336,136,158854,1,8,0:0:0:0:
253,171,159207,2,0,L|257:237,1,45,0|2,1:0|0:0,0:0:0:0:
257,260,159560,1,0,3:0:0:0:
175,221,159913,2,0,L|179:287,1,45,0|2,1:0|0:0,0:0:0:0:
179,310,160266,1,0,0:0:0:0:
92,284,160619,1,0,0:0:0:0:
71,196,160972,5,0,3:0:0:0:
105,113,161324,2,0,P|145:101|167:99,1,45,0|4,1:0|3:0,0:0:0:0:
191,89,161677,2,0,B|223:115|223:115|220:191,1,90,8|0,0:0|1:0,0:0:0:0:
218,210,162207,2,0,B|216:259|216:259|283:309|283:309|342:299,1,180,4|0,3:1|3:0,0:0:0:0:
368,278,163089,1,8,0:1:0:0:
306,212,163442,1,8,0:1:0:0:
374,153,163795,6,0,P|390:106|373:57,1,90,4|0,3:1|3:0,0:0:0:0:
297,31,164501,2,0,L|237:33,1,45,8|0,0:0|3:0,0:0:0:0:
207,36,164854,1,0,0:0:0:0:
241,119,165207,2,0,B|256:162|256:162|246:206,1,90,0|0,3:0|1:0,0:0:0:0:
211,288,165913,2,0,P|181:275|152:269,2,45,8|4|0,0:0|3:1|0:0,0:0:0:0:
286,336,166619,5,0,3:1:0:0:
353,276,166972,2,0,B|368:242|368:242|355:162,1,90,0|8,3:0|0:0,0:0:0:0:
350,145,167501,2,0,B|341:83|341:83|362:34,1,90,0|0,3:0|0:0,0:0:0:0:
374,18,168030,1,0,3:1:0:0:
284,20,168383,2,0,L|251:89,1,45,0|0,3:0|0:0,0:0:0:0:
242,100,168736,1,8,0:0:0:0:
157,68,169089,1,8,0:0:0:0:
128,153,169442,6,0,B|116:200|116:200|143:242,1,90,4|0,3:1|1:0,0:0:0:0:
199,301,170148,1,8,0:0:0:0:
268,244,170501,2,0,L|273:182,1,45,0|2,1:0|0:0,0:0:0:0:
278,154,170854,1,0,3:0:0:0:
349,209,171207,2,0,L|355:144,1,45,0|2,1:0|0:0,0:0:0:0:
357,119,171560,1,8,1:0:0:0:
366,29,171913,1,0,0:1:0:0:
281,59,172266,5,0,0:0:0:0:
197,91,172619,2,0,L|136:79,1,45,0|0,1:0|3:0,0:0:0:0:
108,74,172972,2,0,B|80:89|80:89|85:163,1,90,8|0,0:0|1:0,0:0:0:0:
114,180,173501,2,0,B|86:195|86:195|91:294|91:294|140:275,1,180,12|0,0:0|3:0,0:0:0:0:
178,259,174383,1,8,1:0:0:0:
247,315,174736,2,0,L|314:311,1,45,8|2,1:0|0:0,0:0:0:0:
336,308,175089,6,0,P|325:259|335:213,1,90,12|0,3:0|3:0,0:0:0:0:
380,144,175795,2,0,L|377:84,1,45,8|0,0:0|3:0,0:0:0:0:
377,53,176148,1,0,0:0:0:0:
293,85,176501,2,0,P|241:90|206:71,1,90,0|0,3:0|1:1,0:0:0:0:
121,49,177207,2,0,L|125:126,1,45,8|4,0:0|3:1,0:0:0:0:
125,139,177560,1,0,0:0:0:0:
128,228,177913,5,0,3:0:0:0:
207,269,178266,2,0,B|262:248|262:248|300:260,1,90,8|0,0:0|0:0,0:0:0:0:
317,220,178795,2,0,B|372:199|372:199|410:211,1,90,8|0,0:0|0:0,0:0:0:0:
431,174,179324,2,0,B|474:156|474:156|416:89|416:89|370:105,1,180,8|2,0:1|3:2,0:0:0:0:
215,190,180736,6,0,B|173:200|173:200|133:176,1,90,4|0,3:1|3:0,0:0:0:0:
152,87,181442,1,8,0:0:0:0:
152,87,181619,2,0,B|181:79|181:79|260:117,1,90,0|0,3:0|0:0,0:0:0:0:
272,129,182148,2,0,P|321:123|373:141,1,90,0|0,3:0|3:0,0:0:0:0:
428,191,182854,1,8,0:0:0:0:
428,191,183030,2,0,B|409:216|409:216|414:294,1,90,4|0,3:1|0:0,0:0:0:0:
419,319,183560,6,0,P|381:302|317:306,1,90,0|0,3:0|3:0,0:0:0:0:
248,332,184266,1,8,0:0:0:0:
248,332,184442,2,0,B|223:311|223:311|229:239,1,90,0|0,0:1|3:0,0:0:0:0:
237,209,184972,1,0,3:0:0:0:
252,120,185324,2,0,L|260:65,1,45,0|0,1:0|3:0,0:0:0:0:
266,30,185677,2,0,B|244:55|244:55|169:47,1,90,8|2,0:0|1:2,0:0:0:0:
97,41,186383,6,0,L|109:150,1,90,4|0,3:1|3:0,0:0:0:0:
117,220,187089,1,8,0:0:0:0:
117,220,187266,2,0,B|139:247|139:247|227:237,1,90,0|0,3:0|0:0,0:0:0:0:
222,275,187795,2,0,L|320:262,1,90,0|0,3:0|3:0,0:0:0:0:
400,247,188501,1,8,0:0:0:0:
400,247,188677,2,0,B|376:229|376:229|362:158,1,90,4|0,3:1|0:0,0:0:0:0:
384,129,189207,6,0,L|267:149,1,90,0|0,3:0|3:0,0:0:0:0:
249,66,189913,1,8,0:0:0:0:
249,66,190089,2,0,L|366:46,1,90,0|0,3:0|0:0,0:0:0:0:
382,42,190619,1,0,3:0:0:0:
384,129,190972,2,0,L|380:203,1,45,0|0,1:0|0:0,0:0:0:0:
378,218,191324,2,0,B|353:233|353:233|348:306,1,90,8|8,0:0|0:0,0:0:0:0:
274,345,192030,5,4,3:0:0:0:
194,303,192383,2,0,B|193:267|193:267|183:257|183:257|182:218,1,90,0|8,3:1|0:0,0:0:0:0:
182,171,192913,2,0,B|181:135|181:135|171:125|171:125|170:86,1,90,0|0,3:0|0:0,0:0:0:0:
172,40,193442,1,0,3:1:0:0:
93,84,193795,2,0,B|73:99|73:99|74:174,1,90,0|8,3:0|0:0,0:0:0:0:
97,201,194324,2,0,B|76:215|76:215|77:290,1,90,0|0,3:0|0:0,0:0:0:0:
77,325,194854,6,0,P|133:312|178:319,1,90,0|0,3:1|3:0,0:0:0:0:
253,331,195560,1,8,0:1:0:0:
253,331,195736,2,0,B|276:354|276:354|361:346,1,90,0|8,0:1|0:0,0:0:0:0:
378,344,196266,1,0,3:0:0:0:
324,271,196619,2,0,L|318:212,1,45,0|0,1:0|3:0,0:0:0:0:
315,181,196972,2,0,B|297:161|297:161|291:90,1,90,8|0,0:0|1:0,0:0:0:0:
203,81,197677,6,0,L|210:181,1,90,4|0,3:1|3:0,0:0:0:0:
216,260,198383,1,8,0:0:0:0:
216,260,198560,2,0,P|252:301|262:352,1,90,0|0,3:0|0:0,0:0:0:0:
305,325,199089,2,0,B|326:285|326:285|313:233,1,90,0|0,3:0|3:0,0:0:0:0:
292,154,199795,1,8,0:0:0:0:
292,154,199972,2,0,B|281:110|281:110|302:70,1,90,0|0,3:0|0:0,0:0:0:0:
346,66,200501,6,0,L|369:154,1,90,0|0,3:0|3:0,0:0:0:0:
389,240,201207,2,0,P|345:233|329:234,1,45,8|0,0:0|3:0,0:0:0:0:
258,259,201736,2,0,P|219:260|191:269,1,45,0|4,1:0|3:1,0:0:0:0:
55,311,202972,2,0,L|53:251,1,45,8|0,1:0|3:0,0:0:0:0:
77,227,203324,6,0,P|91:167|82:133,1,90,6|8,3:2|0:0,0:0:0:0:
189,54,204207,1,0,3:0:0:0:
189,54,204383,2,0,P|179:95|179:118,1,45,10|0,0:0|0:0,0:0:0:0:
263,129,204913,1,0,3:0:0:0:
263,129,205089,2,0,P|266:164|273:182,1,45,8|0,0:0|0:0,0:0:0:0:
358,159,205619,1,0,3:0:0:0:
358,159,205795,2,0,P|369:185|381:201,1,45,8|2,0:0|0:0,0:0:0:0:
411,229,206148,6,0,P|342:239|292:273,1,90,2|8,3:2|0:0,0:0:0:0:
225,339,207030,1,0,3:0:0:0:
225,339,207207,2,0,L|162:337,1,45,10|0,0:0|0:0,0:0:0:0:
211,253,207736,1,2,3:2:0:0:
211,253,207913,2,0,L|129:251,1,45,8|0,0:0|0:0,0:0:0:0:
195,166,208442,1,0,3:0:0:0:
195,166,208619,2,0,L|113:165,1,45,10|0,0:0|0:0,0:0:0:0:
104,164,208972,6,0,P|121:120|117:75,1,90,2|8,3:2|0:0,0:0:0:0:
244,30,209854,1,0,3:0:0:0:
244,30,210030,2,0,L|296:23,1,45,10|0,0:0|0:0,0:0:0:0:
270,112,210560,1,2,3:2:0:0:
270,112,210736,2,0,L|198:119,1,45,8|0,0:0|0:0,0:0:0:0:
269,195,211266,1,0,3:0:0:0:
269,195,211442,2,0,L|341:185,1,45,10|2,0:0|0:0,0:0:0:0:
358,182,211795,6,0,P|354:241|373:284,1,90,0|8,3:0|0:0,0:0:0:0:
295,327,212501,1,0,3:0:0:0:
295,327,212677,2,0,B|259:321|259:321|193:345,1,90,8|0,0:0|3:0,0:0:0:0:
182,302,213207,2,0,B|131:320|131:320|95:314,1,90,8|0,0:0|3:0,0:0:0:0:
52,328,213736,2,0,B|31:288|31:288|51:233,1,90,8|0,0:0|3:0,0:0:0:0:
67,205,214266,1,10,0:0:0:0:
44,117,214619,6,0,P|64:73|59:15,1,90,6|8,3:2|0:0,0:0:0:0:
195,64,215501,1,0,3:0:0:0:
195,64,215677,2,0,L|186:120,1,45,10|0,0:0|0:0,0:0:0:0:
255,167,216207,1,0,3:0:0:0:
255,167,216383,2,0,L|248:223,1,45,8|0,0:0|0:0,0:0:0:0:
316,271,216913,1,0,3:0:0:0:
316,271,217089,2,0,L|309:334,1,45,10|2,0:0|0:0,0:0:0:0:
306,360,217442,6,0,P|358:350|406:358,1,90,2|8,3:2|0:0,0:0:0:0:
448,230,218324,1,0,3:0:0:0:
448,230,218501,2,0,L|389:226,1,45,10|0,0:0|0:0,0:0:0:0:
313,221,219030,1,0,3:0:0:0:
313,221,219207,2,0,L|243:214,1,45,8|0,0:0|0:0,0:0:0:0:
178,210,219736,1,0,3:0:0:0:
178,210,219913,2,0,L|108:203,1,45,10|0,0:0|0:0,0:0:0:0:
88,203,220266,6,0,P|101:257|96:304,1,90,2|8,3:2|0:0,0:0:0:0:
207,370,221148,1,0,3:0:0:0:
207,370,221324,2,0,P|217:334|216:312,1,45,10|0,0:0|0:0,0:0:0:0:
275,257,221854,1,0,3:0:0:0:
275,257,222030,2,0,P|271:220|265:200,1,45,8|0,0:0|0:0,0:0:0:0:
292,125,222560,1,0,3:0:0:0:
292,125,222736,2,0,P|276:100|251:78,1,45,10|0,0:0|0:0,0:0:0:0:
240,51,223089,6,0,P|295:54|352:31,1,90,2|8,3:2|0:0,0:0:0:0:
395,161,223972,1,0,3:0:0:0:
395,161,224148,2,0,P|360:154|330:155,1,45,10|0,0:0|3:0,0:0:0:0:
310,174,224501,2,0,P|251:162|214:163,1,90,0|8,3:0|0:0,0:0:0:0:
326,78,225383,1,0,3:0:0:0:
326,78,225560,2,0,P|375:65|442:70,1,90,10|2,0:0|3:2,0:0:0:0:
