osu file format v14

[General]
AudioFilename: audio.mp3
AudioLeadIn: 0
PreviewTime: 111527
Countdown: 0
SampleSet: Soft
StackLeniency: 0.2
Mode: 0
LetterboxInBreaks: 0
WidescreenStoryboard: 0

[Editor]
Bookmarks: 11292,13775,22586,45174,67762,83291,112939,135527,158115,159527,203291,225880,237174,248468
DistanceSpacing: 0.15
BeatDivisor: 8
GridSize: 32
TimelineZoom: 6.499995

[Metadata]
Title:Reiteration
TitleUnicode:Reiteration
Artist:Au5
ArtistUnicode:Au5
Creator:NeilPerry
Version:Relapse
Source:
Tags:drumstep Monstercat dnb wub dubstep rmdy snownino_ namki fcl wajinshu vanucik
BeatmapID:1392244
BeatmapSetID:487775

[Difficulty]
HPDrainRate:6
CircleSize:4.3
OverallDifficulty:8.3
ApproachRate:9.4
SliderMultiplier:1.92
SliderTickRate:1

[Events]
//Background and Video events
0,0,"bgv2.jpg",0,0
//Break Periods
2,45407,53137
2,135760,143490
//Storyboard Layer 0 (Background)
//Storyboard Layer 1 (Fail)
//Storyboard Layer 2 (Pass)
//Storyboard Layer 3 (Foreground)
//Storyboard Sound Samples

[TimingPoints]
11325,352.941176470588,4,2,1,30,1,0
16089,-100,4,2,1,30,0,0
16619,-125,4,2,1,30,0,0
16883,-125,4,2,1,5,0,0
16972,-125,4,2,1,30,0,0
20324,-100,4,2,1,30,0,0
21207,-142.857142857143,4,2,1,60,0,0
21736,-100,4,2,1,60,0,0
22266,-71.4285714285714,4,2,1,60,0,0
22619,-100,4,2,1,60,0,0
25266,-125,4,2,1,60,0,0
25442,-100,4,2,1,60,0,0
36736,-83.3333333333333,4,2,1,60,0,0
37795,-111.111111111111,4,2,1,60,0,0
39560,-83.3333333333333,4,2,1,60,0,0
40619,-100,4,2,1,60,0,0
42383,-100,4,2,1,60,0,0
44854,-76.9230769230769,4,2,1,60,0,0
45207,-66.6666666666667,4,2,1,60,0,0
53677,-100,4,2,1,5,0,0
54383,-100,4,2,1,10,0,0
54736,-100,4,2,1,15,0,0
55089,-100,4,2,1,20,0,0
55442,-100,4,2,1,25,0,0
55795,-100,4,2,1,30,0,0
56148,-100,4,2,1,40,0,0
56501,-62.5,4,2,1,60,0,0
56854,-100,4,2,1,10,0,0
59324,-100,4,2,1,12,0,0
59501,-100,4,2,1,15,0,0
59677,-100,4,2,1,17,0,0
59854,-100,4,2,1,20,0,0
60030,-100,4,2,1,22,0,0
60207,-100,4,2,1,25,0,0
60383,-100,4,2,1,27,0,0
60560,-100,4,2,1,30,0,0
60736,-100,4,2,1,32,0,0
60913,-100,4,2,1,34,0,0
61089,-100,4,2,1,36,0,0
61266,-100,4,2,1,38,0,0
61442,-100,4,2,1,40,0,0
61619,-100,4,2,1,44,0,0
61795,-100,4,2,1,48,0,0
61972,-100,4,2,1,54,0,0
62148,-66.6666666666667,4,2,1,60,0,0
62501,-111.111111111111,4,2,1,60,0,0
64972,-90.9090909090908,4,2,1,60,0,0
65677,-83.3333333333333,4,2,1,60,0,0
67795,-55.5555555555556,4,2,1,60,0,1
68148,-52.6315789473684,4,2,1,60,0,1
68324,-133.333333333333,4,2,1,60,0,1
68501,-83.3333333333333,4,2,1,60,0,1
68677,-52.6315789473684,4,2,1,60,0,1
69207,-133.333333333333,4,2,1,60,0,1
69560,-66.6666666666667,4,2,1,60,0,1
69913,-55.5555555555556,4,2,1,60,0,1
70266,-50,4,2,1,60,0,1
70619,-55.5555555555556,4,2,1,60,0,1
70972,-50,4,2,1,60,0,1
71148,-166.666666666667,4,2,1,60,0,1
71677,-50,4,2,1,60,0,1
71854,-166.666666666667,4,2,1,60,0,1
72383,-37.5253549695742,4,2,1,60,0,1
73089,-83.3333333333333,4,2,1,60,0,1
73442,-66.6666666666667,4,2,1,60,0,1
73795,-55.5555555555556,4,2,1,60,0,1
74854,-166.666666666667,4,2,1,60,0,1
75207,-52.6315789473684,4,2,1,60,0,1
76266,-40.5701754385967,4,2,1,60,0,1
76619,-153.846153846153,4,2,1,60,0,1
76972,-50,4,2,1,60,0,1
77148,-153.846153846153,4,2,1,60,0,1
77501,-50,4,2,1,60,0,1
77677,-153.846153846153,4,2,1,60,0,1
78030,-44.1527446300719,4,2,1,60,0,1
78560,-66.6666666666667,4,2,1,60,0,1
79089,-55.5555555555556,4,2,1,60,0,1
79619,-133.333333333333,4,2,1,60,0,1
79972,-55.5555555555556,4,2,1,60,0,1
80148,-50,4,2,1,60,0,1
80501,-133.333333333333,4,2,1,60,0,1
80854,-66.6666666666667,4,2,1,60,0,1
81207,-55.5555555555556,4,2,1,60,0,1
81560,-50,4,2,1,60,0,1
81913,-200,4,2,1,60,0,1
82266,-50,4,2,1,60,0,1
82442,-166.666666666667,4,2,1,60,0,1
82972,-50,4,2,1,60,0,1
83148,-166.666666666667,4,2,1,60,0,1
83677,-37.5253549695742,4,2,1,60,0,1
84383,-83.3333333333333,4,2,1,60,0,1
84734,-62.5,4,2,1,60,0,1
85089,-55.5555555555556,4,2,1,60,0,1
86148,-50,4,2,1,60,0,1
86501,-55.5555555555556,4,2,1,60,0,1
86854,-50,4,2,1,60,0,1
87560,-44.1527446300719,4,2,1,60,0,1
87913,-55.5555555555556,4,2,1,60,0,1
88266,-66.6666666666667,4,2,1,60,0,1
88442,-50,4,2,1,60,0,1
88795,-36.1681329423267,4,2,1,60,0,1
88972,-100,4,2,1,60,0,1
89854,-200,4,2,1,60,0,1
90030,-100,4,2,1,60,0,1
90207,-200,4,2,1,60,0,1
90383,-153.846153846153,4,2,1,60,0,1
90736,-71.4285714285714,4,2,1,60,0,1
91795,-153.846153846153,4,2,1,60,0,1
92148,-66.6666666666667,4,2,1,60,0,1
92677,-58.8235294117647,4,2,1,60,0,1
93207,-66.6666666666667,4,2,1,60,0,1
93560,-44.1527446300719,4,2,1,60,0,1
94089,-66.6666666666667,4,2,1,60,0,1
94530,-44.1527446300719,4,2,1,60,0,1
94795,-66.6666666666667,4,2,1,60,0,1
95324,-44.1527446300719,4,2,1,60,0,1
96030,-100,4,2,1,60,0,1
96383,-71.4285714285714,4,2,1,60,0,1
97442,-153.846153846153,4,2,1,60,0,1
97795,-66.6666666666667,4,2,1,60,0,1
98324,-58.8235294117647,4,2,1,60,0,1
98854,-44.1527446300719,4,2,1,60,0,1
99207,-153.846153846153,4,2,1,60,0,1
99560,-50,4,2,1,60,0,1
99736,-153.846153846153,4,2,1,60,0,1
100089,-50,4,2,1,60,0,1
100266,-153.846153846153,4,2,1,60,0,1
100619,-44.1527446300719,4,2,1,60,0,1
101148,-66.6666666666667,4,2,1,60,0,1
101677,-125,4,2,1,60,0,1
102030,-71.4285714285714,4,2,1,60,0,1
103089,-153.846153846153,4,2,1,60,0,1
103442,-66.6666666666667,4,2,1,60,0,1
103972,-58.8235294117647,4,2,1,60,0,1
104501,-66.6666666666667,4,2,1,60,0,1
104854,-44.1527446300719,4,2,1,60,0,1
105383,-66.6666666666667,4,2,1,60,0,1
105824,-44.1527446300719,4,2,1,60,0,1
106089,-66.6666666666667,4,2,1,60,0,1
106619,-44.1527446300719,4,2,1,60,0,1
106972,-52.6315789473684,4,2,1,60,0,1
107324,-125,4,2,1,60,0,1
107677,-71.4285714285714,4,2,1,60,0,1
108736,-153.846153846153,4,2,1,60,0,1
109089,-66.6666666666667,4,2,1,60,0,1
109619,-58.8235294117647,4,2,1,60,0,1
110148,-153.846153846153,4,2,1,60,0,1
110501,-55.5555555555556,4,2,1,60,0,1
111560,-125,4,2,1,60,0,0
112972,-100,4,2,1,60,0,0
144030,-100,4,2,1,5,0,0
144736,-100,4,2,1,10,0,0
145089,-100,4,2,1,15,0,0
145442,-100,4,2,1,20,0,0
145795,-100,4,2,1,25,0,0
146148,-100,4,2,1,30,0,0
146501,-100,4,2,1,40,0,0
146854,-62.5,4,2,1,60,0,0
147207,-100,4,2,1,10,0,0
149677,-100,4,2,1,12,0,0
149854,-100,4,2,1,15,0,0
150030,-100,4,2,1,17,0,0
150207,-100,4,2,1,20,0,0
150383,-100,4,2,1,22,0,0
150560,-100,4,2,1,25,0,0
150736,-100,4,2,1,27,0,0
150913,-100,4,2,1,30,0,0
151089,-100,4,2,1,32,0,0
151266,-100,4,2,1,34,0,0
151442,-100,4,2,1,36,0,0
151619,-100,4,2,1,38,0,0
151795,-100,4,2,1,40,0,0
151972,-100,4,2,1,44,0,0
152148,-100,4,2,1,48,0,0
152324,-100,4,2,1,54,0,0
152501,-66.6666666666667,4,2,1,60,0,0
152854,-111.111111111111,4,2,1,60,0,0
155324,-90.9090909090908,4,2,1,60,0,0
156030,-83.3333333333333,4,2,1,60,0,0
157442,-166.666666666667,4,2,1,60,0,0
157530,-166.666666666667,4,2,1,5,0,0
158148,-55.5555555555556,4,2,1,60,0,1
158501,-52.6315789473684,4,2,1,60,0,1
158677,-66.6666666666667,4,2,1,60,0,1
159383,-50,4,2,1,60,0,1
159913,-66.6666666666667,4,2,1,60,0,1
160089,-50,4,2,1,60,0,1
160266,-44.1527446300719,4,2,1,60,0,1
160972,-66.6666666666667,4,2,1,60,0,1
161324,-50,4,2,1,60,0,1
161677,-166.666666666667,4,2,1,60,0,1
162030,-50,4,2,1,60,0,1
162207,-166.666666666667,4,2,1,60,0,1
162736,-50,4,2,1,60,0,1
162913,-76.9230769230769,4,2,1,60,0,1
163795,-55.5555555555556,4,2,1,60,0,1
164677,-83.3333333333333,4,2,1,60,0,1
165207,-133.333333333333,4,2,1,60,0,1
165560,-50,4,2,1,60,0,1
166619,-37.5253549695742,4,2,1,60,0,1
166972,-153.846153846153,4,2,1,60,0,1
167324,-50,4,2,1,60,0,1
167501,-153.846153846153,4,2,1,60,0,1
168030,-100,4,2,1,60,0,1
168383,-44.1527446300719,4,2,1,60,0,1
168736,-66.6666666666667,4,2,1,60,0,1
168913,-52.6315789473684,4,2,1,60,0,1
169442,-55.5555555555556,4,2,1,60,0,1
169795,-52.6315789473684,4,2,1,60,0,1
169972,-66.6666666666667,4,2,1,60,0,1
170677,-50,4,2,1,60,0,1
171207,-66.6666666666667,4,2,1,60,0,1
171383,-50,4,2,1,60,0,1
171560,-44.1527446300719,4,2,1,60,0,1
172266,-100,4,2,1,60,0,1
172619,-55.5555555555556,4,2,1,60,0,1
172972,-166.666666666667,4,2,1,60,0,1
173324,-50,4,2,1,60,0,1
173501,-166.666666666667,4,2,1,60,0,1
174030,-66.6666666666667,4,2,1,60,0,1
174207,-76.9230769230769,4,2,1,60,0,1
175089,-55.5555555555556,4,2,1,60,0,1
175442,-50,4,2,1,60,0,1
175972,-83.3333333333333,4,2,1,60,0,1
176501,-166.666666666667,4,2,1,60,0,1
176854,-44.1527446300719,4,2,1,60,0,1
177207,-50,4,2,1,60,0,1
177913,-66.6666666666667,4,2,1,60,0,1
178266,-142.857142857143,4,2,1,60,0,1
178795,-62.5,4,2,1,60,0,1
179060,-166.666666666667,4,2,1,60,0,1
179501,-100,4,2,1,60,0,1
180030,-66.6666666666667,4,2,1,60,0,1
180119,-111.111111111111,4,2,1,60,0,1
180560,-83.3333333333333,4,2,1,60,0,1
180736,-66.6666666666667,4,2,1,60,0,1
181089,-133.333333333333,4,2,1,60,0,1
181442,-50,4,2,1,60,0,1
181619,-66.6666666666667,4,2,1,60,0,1
182148,-166.666666666667,4,2,1,60,0,1
182501,-55.5555555555556,4,2,1,60,0,1
183030,-83.3333333333333,4,2,1,60,0,1
183560,-55.5555555555556,4,2,1,60,0,1
184089,-44.1527446300719,4,2,1,60,0,1
184560,-66.6666666666667,4,2,1,60,0,1
184795,-44.1527446300719,4,2,1,60,0,1
185148,-66.6666666666667,4,2,1,60,0,1
185280,-66.6666666666667,4,2,1,5,0,1
185324,-66.6666666666667,4,2,1,60,0,1
185677,-44.1527446300719,4,2,1,60,0,1
185942,-66.6666666666667,4,2,1,60,0,1
186383,-125,4,2,1,60,0,1
186736,-66.6666666666667,4,2,1,60,0,1
187795,-133.333333333333,4,2,1,60,0,1
188148,-55.5555555555556,4,2,1,60,0,1
189207,-44.1527446300719,4,2,1,60,0,1
189560,-133.333333333333,4,2,1,60,0,1
189913,-50,4,2,1,60,0,1
190089,-166.666666666667,4,2,1,60,0,1
190619,-100,4,2,1,60,0,1
190972,-44.1527446300719,4,2,1,60,0,1
191324,-66.6666666666667,4,2,1,60,0,1
192030,-100,4,2,1,60,0,1
192383,-44.1527446300719,4,2,1,60,0,1
193442,-153.846153846153,4,2,1,60,0,1
193795,-58.8235294117647,4,2,1,60,0,1
194324,-83.3333333333333,4,2,1,60,0,1
194854,-50,4,2,1,60,0,1
195383,-44.1527446300719,4,2,1,60,0,1
195854,-66.6666666666667,4,2,1,60,0,1
196089,-44.1527446300719,4,2,1,60,0,1
196383,-66.6666666666667,4,2,1,60,0,1
196574,-66.6666666666667,4,2,1,5,0,1
196619,-66.6666666666667,4,2,1,60,0,1
196972,-50,4,2,1,60,0,1
197324,-36.1681329423267,4,2,1,60,0,1
197677,-83.3333333333333,4,2,1,60,0,1
198030,-55.5555555555556,4,2,1,60,0,1
199089,-125,4,2,1,60,0,1
199442,-66.6666666666667,4,2,1,60,0,1
200501,-133.333333333333,4,2,1,60,0,1
200854,-66.6666666666667,4,2,1,60,0,1
201560,-76.9230769230769,4,2,1,60,0,1
201913,-100,4,2,1,60,0,0

[Colours]
Combo1 : 152,31,55
Combo2 : 163,173,175
Combo3 : 235,175,234
Combo4 : 90,125,177

[HitObjects]
340,100,11325,5,0,0:0:0:0:
352,92,11501,1,0,0:0:0:0:
232,156,11677,5,0,0:0:0:0:
244,162,11854,1,0,0:0:0:0:
116,140,12030,5,0,0:0:0:0:
71,230,12207,1,0,0:0:0:0:
172,304,12383,5,0,0:0:0:0:
141,209,12560,1,0,0:0:0:0:
40,156,12736,5,0,0:0:0:0:
27,149,12913,1,0,0:0:0:0:
152,202,13089,5,0,0:0:0:0:
141,209,13266,1,0,0:0:0:0:
252,128,13442,5,0,0:0:0:0:
330,237,13619,1,0,0:0:0:0:
239,216,13795,5,0,0:0:0:0:
336,145,13972,1,0,0:0:0:0:
248,325,14148,5,0,0:0:0:0:
233,329,14325,1,0,0:0:0:0:
360,280,14501,5,0,0:0:0:0:
357,293,14677,1,0,0:0:0:0:
381,157,14854,5,0,0:0:0:0:
242,117,15030,1,0,0:0:0:0:
309,198,15207,5,0,0:0:0:0:
291,49,15383,1,0,0:0:0:0:
134,221,15560,5,0,0:0:0:0:
304,204,15736,1,0,0:0:0:0:
162,332,15913,5,0,0:0:0:0:
207,144,16089,2,0,L|214:110,2,24
201,172,16266,5,0,0:0:0:0:
157,356,16442,1,0,0:0:0:0:
134,221,16619,2,0,B|181:253|181:253|248:244,1,115.2,4|0,0:0|0:0,0:0:0:0:
312,228,16972,5,0,0:0:0:0:
320,236,17148,1,0,0:0:0:0:
432,152,17325,5,0,0:0:0:0:
424,160,17501,1,0,0:0:0:0:
329,78,17677,5,0,0:0:0:0:
464,64,17854,1,0,0:0:0:0:
476,228,18030,5,0,0:0:0:0:
338,245,18207,1,0,0:0:0:0:
132,80,18383,5,0,0:0:0:0:
140,72,18560,1,0,0:0:0:0:
252,156,18736,5,0,0:0:0:0:
244,148,18913,1,0,0:0:0:0:
102,275,19089,5,0,0:0:0:0:
178,366,19266,1,0,0:0:0:0:
270,251,19442,5,0,0:0:0:0:
165,171,19619,1,0,0:0:0:0:
117,273,19795,5,0,0:0:0:0:
289,248,19972,1,0,0:0:0:0:
88,375,20148,5,2,0:0:0:0:
276,348,20324,2,0,L|284:310,2,24
269,374,20501,5,0,0:0:0:0:
204,264,20677,1,0,0:0:0:0:
288,164,20854,5,0,0:0:0:0:
223,54,21030,1,0,0:0:0:0:
404,96,21207,6,0,B|308:88,1,67.1999979492188
160,184,21560,1,0,0:0:0:0:
371,246,21736,2,0,L|406:248,3,24
162,315,22089,1,0,0:0:0:0:
160,184,22266,6,0,B|137:134|196:109|221:149|221:149|250:199|191:257,1,201.599993847656,8|0,3:0|0:0,0:0:0:0:
162,315,22619,5,2,3:2:0:0:
162,315,22972,2,0,L|49:311,1,96,8|2,0:0|0:0,0:0:0:0:
38,222,23324,1,0,0:0:0:0:
21,137,23501,1,0,0:0:0:0:
215,248,23677,2,0,L|328:252,1,96,10|0,0:2|0:0,0:0:0:0:
403,152,24030,5,0,0:0:0:0:
325,344,24207,2,0,L|269:342,1,48,0|0,3:0|0:0,0:0:0:0:
143,196,24383,2,0,B|118:230|118:230|138:311,1,96,8|0,0:0|0:0,0:0:0:0:
261,135,24736,2,0,B|269:107|269:107|249:52,1,64
252,61,24913,1,0,0:0:0:0:
73,98,25089,1,8,0:0:0:0:
202,248,25266,2,0,L|217:292,1,38.4
94,244,25442,6,0,L|211:247,1,96,2|0,3:2|0:0,0:0:0:0:
401,172,25795,1,8,0:0:0:0:
351,269,25972,2,0,P|346:300|351:358,1,64,2|0,0:0|0:0,0:0:0:0:
349,349,26148,1,0,0:0:0:0:
457,370,26324,1,0,0:0:0:0:
401,172,26501,2,0,P|400:122|410:60,1,96,10|2,0:2|0:0,0:0:0:0:
279,48,26854,5,0,0:0:0:0:
483,31,27030,1,2,3:2:0:0:
302,218,27207,2,0,P|292:269|304:350,1,128,8|0,0:0|0:0,0:0:0:0:
302,351,27501,1,0,0:0:0:0:
305,357,27560,1,0,0:0:0:0:
401,172,27736,1,0,3:0:0:0:
149,202,27913,2,0,B|197:228|197:228|324:215,1,160,12|0,0:0|1:0,0:0:0:0:
310,196,28266,6,0,L|211:207,1,96,2|0,3:2|0:0,0:0:0:0:
37,322,28619,2,0,L|136:311,1,96,8|2,0:0|0:0,0:0:0:0:
150,116,28972,1,0,0:0:0:0:
50,133,29148,1,0,0:0:0:0:
213,255,29324,2,0,B|229:292|229:292|223:371,1,96,10|0,0:2|0:0,0:0:0:0:
37,322,29677,5,0,0:0:0:0:
213,255,29854,1,0,3:0:0:0:
50,133,30030,2,0,B|43:86|43:86|64:39,1,96,8|0,0:0|0:0,0:0:0:0:
258,41,30383,2,0,B|266:69|266:69|253:127,1,64
256,118,30560,1,0,0:0:0:0:
364,273,30736,1,8,0:0:0:0:
364,273,30913,2,0,L|442:258,1,64
466,176,31089,6,0,B|433:163|433:163|351:181,1,96,2|0,3:2|0:0,0:0:0:0:
246,376,31442,2,0,L|251:206,1,160,8|0,0:0|0:0,0:0:0:0:
252,202,31795,1,0,0:0:0:0:
129,293,31972,1,0,0:0:0:0:
42,126,32148,2,0,P|86:181|97:214,1,96,10|0,0:0|0:0,0:0:0:0:
105,376,32501,5,0,0:0:0:0:
325,329,32677,1,0,3:0:0:0:
233,220,32854,2,0,P|224:163|260:84,1,128,8|0,0:0|0:0,0:0:0:0:
254,94,33148,1,0,0:0:0:0:
260,91,33207,1,0,0:0:0:0:
403,24,33383,5,0,3:0:0:0:
474,40,33472,1,0,3:0:0:0:
490,111,33560,2,0,B|441:130|441:130|327:107,1,160,8|0,0:3|0:0,0:0:0:0:
335,108,33913,6,0,L|342:262,1,144,2|0,3:2|0:0,0:0:0:0:
446,303,34266,2,0,L|441:187,1,96,8|2,0:0|0:0,0:0:0:0:
185,72,34619,1,0,0:0:0:0:
274,40,34795,1,0,0:0:0:0:
154,181,34972,2,0,P|87:182|53:149,1,96,10|0,0:0|0:0,0:0:0:0:
18,63,35324,5,2,0:0:0:0:
239,126,35501,1,2,3:2:0:0:
115,352,35677,2,0,B|104:311|104:311|134:242,1,96,10|2,0:0|0:0,0:0:0:0:
261,212,36030,1,2,0:0:0:0:
249,304,36207,1,2,0:0:0:0:
246,315,36295,1,0,0:0:0:0:
244,326,36383,6,0,L|233:386,1,48,10|0,0:0|0:0,0:0:0:0:
377,239,36560,2,0,L|366:299,1,48,2|0,0:0|0:0,0:0:0:0:
488,192,36736,6,0,B|386:152|406:233|312:202,1,172.799994726563,2|0,3:2|0:0,0:0:0:0:
295,129,37089,2,0,L|289:-5,1,115.199996484375,8|2,0:0|0:0,0:0:0:0:
422,68,37442,1,2,0:0:0:0:
229,176,37619,1,2,0:0:0:0:
349,371,37795,6,0,P|370:312|335:190,1,172.799994726563,10|0,0:0|0:0,0:0:0:0:
222,88,38324,1,2,3:2:0:0:
69,163,38501,2,0,L|63:294,1,115.199996484375,8|0,0:0|0:0,0:0:0:0:
64,285,38795,1,0,0:0:0:0:
63,291,38854,1,2,0:0:0:0:
279,352,39030,6,0,L|267:273,1,43.1999986816407,2|0,3:2|0:0,0:0:0:0:
170,213,39207,2,0,L|277:233,1,86.3999973632813,10|2,0:0|0:0,0:0:0:0:
409,234,39472,1,0,1:0:0:0:
349,180,39560,6,0,B|315:142|315:142|337:281,1,172.799994726563,2|0,3:2|0:0,0:0:0:0:
402,303,39913,2,0,B|424:320|424:320|408:229,1,115.199996484375,8|2,0:0|0:0,0:0:0:0:
442,68,40266,1,2,0:0:0:0:
239,117,40442,1,2,0:0:0:0:
430,72,40619,6,0,L|309:100,1,96,10|0,0:0|0:0,0:0:0:0:
142,141,40972,1,2,0:0:0:0:
373,238,41148,1,2,3:2:0:0:
223,348,41324,6,0,B|207:286|230:244|230:244|252:202|237:142,1,192,8|2,0:0|0:0,0:0:0:0:
185,42,41854,1,2,0:0:0:0:
105,224,42030,6,0,L|96:292,1,48,10|0,0:0|0:0,0:0:0:0:
51,125,42207,2,0,L|42:57,1,48,2|0,0:0|0:0,0:0:0:0:
162,140,42383,6,0,B|226:147|226:147|234:143|234:143|242:149|242:149|330:156,1,144,2|0,3:2|0:0,0:0:0:0:
408,159,42736,2,0,P|426:98|396:49,1,96,8|2,0:0|0:0,0:0:0:0:
312,24,43001,1,0,0:0:0:0:
310,39,43089,1,2,3:2:0:0:
407,288,43266,2,0,P|381:208|421:148,1,144,8|0,0:0|0:0,0:0:0:0:
304,149,43619,6,0,L|310:117,2,32,0|0|0,3:0|0:0|0:0,0:0:0:0:
295,180,43795,2,0,L|142:204,1,144,8|0,0:0|0:0,0:0:0:0:
136,121,44148,5,0,3:0:0:0:
19,262,44324,2,0,B|66:244|77:186|77:186|67:244|123:275,1,192,8|0,0:0|3:0,0:0:0:0:
192,342,44795,1,0,3:0:0:0:
197,347,44854,2,0,L|209:141,1,187.199991430664,8|0,2:0|0:0,0:0:0:0:
158,25,45207,5,4,3:1:0:0:
256,192,53677,12,0,56148,0:0:0:0:
372,157,56501,6,2,B|410:134|451:81|417:1|371:25|358:88|405:192|473:247,1,307.2,8|0,0:0|0:1,0:1:0:0:
423,326,57030,1,0,0:0:0:0:
261,344,57207,5,0,0:0:0:0:
341,368,57383,1,0,0:0:0:0:
338,285,57560,1,0,0:0:0:0:
414,333,57736,1,0,0:0:0:0:
344,203,57913,5,0,0:0:0:0:
347,188,58089,1,0,0:0:0:0:
366,107,58266,1,0,0:0:0:0:
363,92,58442,1,0,0:0:0:0:
280,83,58619,5,0,0:0:0:0:
448,95,58795,1,0,0:0:0:0:
195,80,58972,1,0,0:0:0:0:
363,92,59148,1,0,0:0:0:0:
261,179,59324,5,0,0:0:0:0:
259,193,59501,1,0,0:0:0:0:
293,267,59677,1,0,0:0:0:0:
295,281,59854,1,0,0:0:0:0:
241,347,60030,5,0,0:0:0:0:
382,291,60207,1,0,0:0:0:0:
182,259,60383,1,0,0:0:0:0:
365,186,60560,1,0,0:0:0:0:
241,347,60736,5,0,0:0:0:0:
237,369,60913,1,0,0:0:0:0:
182,259,61089,5,0,0:0:0:0:
163,187,61266,1,0,0:0:0:0:
70,220,61442,5,0,0:0:0:0:
271,258,61619,1,0,0:0:0:0:
184,112,61795,5,0,0:0:0:0:
160,335,61972,1,0,0:0:0:0:
444,160,62148,6,2,B|293:184|293:184|334:195|351:244,1,216.000008239746,8|0,0:0|0:0,0:1:0:0:
367,337,62501,6,0,P|363:305|352:283,1,43.1999986816407,0|0,3:0|0:0,0:0:0:0:
271,258,62677,1,0,0:0:0:0:
269,267,62766,1,0,0:0:0:0:
267,275,62854,2,0,P|271:306|281:329,1,43.1999986816407,0|0,3:0|0:0,0:0:0:0:
355,171,63030,5,0,0:0:0:0:
356,162,63119,1,0,0:0:0:0:
356,154,63207,2,0,L|362:96,1,43.1999986816407,0|0,3:0|0:0,0:0:0:0:
277,28,63383,1,0,0:0:0:0:
278,37,63472,1,0,0:0:0:0:
278,45,63560,2,0,L|284:103,1,43.1999986816407,0|0,3:0|0:0,0:0:0:0:
451,256,63736,5,0,0:0:0:0:
454,240,63824,1,0,0:0:0:0:
454,223,63913,2,0,P|444:192|431:178,1,43.1999986816407,0|0,3:0|0:0,0:0:0:0:
210,107,64089,1,0,0:0:0:0:
213,127,64177,1,0,0:0:0:0:
222,144,64266,2,0,P|242:158|268:163,1,43.1999986816407,0|0,3:0|0:0,0:0:0:0:
485,89,64442,5,0,0:0:0:0:
455,95,64530,1,0,0:0:0:0:
419,101,64619,2,0,L|347:114,1,43.1999986816407,0|0,3:0|0:0,0:0:0:0:
284,242,64795,1,0,0:0:0:0:
281,285,64883,1,0,0:0:0:0:
278,326,64972,6,0,L|274:394,1,52.8000016113282,0|0,3:0|0:0,0:0:0:0:
172,217,65148,2,0,L|176:285,1,52.8000016113282,0|0,3:0|0:0,0:0:0:0:
386,183,65324,6,0,L|382:251,1,52.8000016113282,0|0,3:0|0:0,0:0:0:0:
183,35,65501,2,0,L|187:103,1,52.8000016113282,0|0,3:0|0:0,0:0:0:0:
370,24,65677,5,0,1:0:0:0:
366,78,65766,1,0,1:0:0:0:
412,109,65854,2,0,L|467:97,2,38.399998828125,0|0|0,1:0|1:0|1:0,0:0:0:0:
386,183,66030,1,0,1:0:0:0:
375,236,66119,1,0,3:0:0:0:
418,270,66207,5,2,3:0:0:0:
472,328,66295,1,2,3:0:0:0:
416,382,66383,1,0,3:0:0:0:
176,78,67266,6,0,L|171:111,3,28.7999991210938
160,69,67442,2,0,L|95:76,1,57.5999982421876,8|0,1:0|0:0,0:0:0:0:
34,174,67619,1,0,3:0:0:0:
190,344,67795,6,2,B|140:353|102:301|108:229|190:209|190:209|166:287,1,259.199992089844,4|0,3:1|0:0,0:1:0:0:
23,330,68148,2,0,L|135:339,1,91.1999975646973,8|0,0:0|0:0,0:0:0:0:
318,370,68324,2,0,P|293:359|278:340,1,36.0000013732911
255,260,68501,2,0,L|271:204,1,57.5999982421876,0|0,1:0|0:0,0:0:0:0:
102,68,68677,6,0,L|227:92,1,91.1999975646973,0|0,3:0|0:0,0:0:0:0:
426,136,68854,2,0,B|414:80|366:70|366:70|336:136|260:125|260:125|274:99|271:73,1,273.599992694092,8|0,2:0|0:0,0:0:0:0:
310,241,69207,6,0,L|294:302,1,36.0000013732911
124,177,69383,1,0,3:0:0:0:
408,328,69560,6,0,P|470:291|366:254,1,216.000008239746,8|0,0:0|0:0,0:0:0:0:
310,241,69913,2,0,L|289:325,1,86.3999973632813,0|0,1:0|0:0,0:0:0:0:
426,145,70089,1,0,3:0:0:0:
124,177,70266,6,0,B|182:168|204:111|204:111|237:155|235:209|235:209|269:143|359:169,1,320,8|0,0:0|0:0,0:0:0:0:
334,153,70619,6,2,B|309:70|350:19|350:19|376:75|335:153,1,259.199992089844,0|0,3:0|0:0,0:1:0:0:
310,333,70972,6,0,L|160:312,1,96,8|0,0:0|0:0,0:0:0:0:
0,150,71148,2,2,P|62:135|130:184,1,143.999995605469,2|0,3:1|0:1,0:1:0:0:
408,231,71677,6,0,L|258:252,1,96,8|0,0:0|0:0,0:0:0:0:
6,277,71854,2,2,P|68:292|136:243,1,143.999995605469,2|0,3:1|0:1,0:1:0:0:
192,49,72383,6,0,B|230:37|258:65|258:65|227:56|193:73,1,127.913509003261,8|0,0:0|0:0,0:0:0:0:
234,262,72560,2,0,B|217:222|232:190|232:190|243:162|229:116,1,127.913509003261,0|0,3:0|0:0,0:0:0:0:
101,148,72736,2,2,L|373:173,1,255.827018006522,0|0,0:0|3:0,0:1:0:0:
441,157,73001,1,0,0:0:0:0:
420,80,73089,6,0,P|343:94|356:171,1,172.799994726563,8|0,0:0|0:0,0:0:0:0:
441,157,73442,6,0,B|480:147|497:96|497:96|475:164|511:227,1,216.000008239746,0|0,3:0|0:0,0:0:0:0:
283,312,73795,6,0,B|372:248|467:284|467:284|412:348,1,259.199992089844,8|0,0:0|0:0,0:0:0:0:
417,342,74148,1,0,0:0:0:0:
192,250,74324,1,0,3:0:0:0:
315,38,74501,6,0,B|356:-1|356:-1|390:72|365:156|365:156|312:127,1,259.199992089844,12|0,0:0|0:0,0:0:0:0:
251,105,74854,6,0,L|148:120,1,86.3999973632813,0|0,3:0|0:0,0:0:0:0:
93,127,75207,6,0,B|75:49|174:20|221:118|156:163|156:163|172:131|161:103,1,273.599992694092,8|0,0:0|0:0,0:0:0:0:
309,176,75560,2,0,L|446:154,1,121.59999675293,0|0,0:0|1:0,0:0:0:0:
429,156,75736,1,4,3:2:0:0:
284,29,75913,6,0,B|292:2|292:2|313:31,1,45.5999987823487,2|0,3:0|0:0,0:0:0:0:
236,229,76089,2,0,B|228:256|228:256|207:227,1,45.5999987823487,2|0,3:0|0:0,0:0:0:0:
44,165,76266,6,2,B|8:119|8:119|87:60|153:99|153:99|163:194|87:242,1,354.940542882579,0|0,3:0|0:0,0:1:0:0:
38,335,76619,6,2,P|27:259|4:238,1,93.5999957153322,8|0,0:0|0:1,0:1:0:0:
228,106,76972,6,0,B|232:77|221:56|221:56|240:74|239:100,1,96,0|0,3:0|0:0,0:0:0:0:
196,376,77148,2,2,P|155:375|116:332,1,93.5999957153322,8|0,0:0|0:1,0:1:0:0:
329,121,77501,6,0,B|335:109|348:99|348:99|351:114|357:127,2,48,0|0|0,3:0|0:0|0:0,0:0:0:0:
342,300,77677,2,2,P|281:347|274:377,1,93.5999957153322,8|0,1:1|0:1,0:1:0:0:
246,262,78030,6,2,B|287:211|375:205|439:248|439:248|388:315|314:295,1,326.140543028795,0|0,3:1|0:0,0:1:0:0:
90,303,78383,1,2,0:0:0:0:
93,294,78472,1,2,0:0:0:0:
113,200,78560,6,0,L|91:307,1,96.0000036621095,0|0,3:0|3:0,0:0:0:0:
53,370,78736,2,0,L|97:142,1,216.000008239746,8|0,1:0|0:0,0:0:0:0:
224,88,79089,6,2,B|163:7|67:75|67:75|131:60|170:108,1,259.199992089844,4|0,3:1|0:0,0:1:0:0:
320,115,79442,2,0,L|343:15,1,86.3999973632813,8|0,0:0|0:0,0:0:0:0:
248,177,79619,1,0,0:0:0:0:
421,55,79795,2,0,L|407:119,1,36.0000013732911,0|0,1:0|0:0,0:0:0:0:
436,257,79972,6,0,B|482:251|482:251|453:308,1,86.3999973632813,0|0,3:0|0:0,0:0:0:0:
489,365,80148,2,0,B|434:378|400:336|400:336|361:285|304:292|300:354|300:354|315:314|356:312,1,288,8|0,0:0|0:0,0:0:0:0:
493,170,80501,6,0,L|505:116,1,36.0000013732911,0|0,1:0|0:0,0:0:0:0:
421,55,80677,1,0,3:0:0:0:
258,177,80854,6,0,P|192:132|291:94,1,216.000008239746,8|0,0:0|0:0,0:0:0:0:
323,137,81207,2,0,P|334:177|303:244,1,86.3999973632813
214,347,81383,1,0,3:0:0:0:
67,256,81560,6,0,B|16:226|16:226|99:165|155:217|155:217|205:264|290:250,1,320,8|0,0:0|1:0,0:0:0:0:
323,219,81913,6,0,P|334:178|323:142,1,72,0|0,3:0|0:0,0:0:0:0:
258,0,82266,6,0,P|244:45|277:102,1,96,8|0,0:0|0:0,0:0:0:0:
453,301,82442,2,2,B|419:321|386:305|386:305|377:299|377:299|344:284|295:318,1,143.999995605469,0|0,3:1|0:1,0:1:0:0:
102,91,82972,6,0,P|154:94|196:143,1,96,8|0,0:0|0:0,0:0:0:0:
450,327,83148,2,2,B|416:347|383:331|383:331|374:325|374:325|341:310|292:344,1,143.999995605469,0|0,3:1|0:1,0:1:0:0:
149,178,83677,6,0,B|142:130|181:109|181:109|164:128|162:156,1,127.913509003261,8|0,0:0|0:0,0:0:0:0:
243,287,83854,2,0,L|238:140,1,127.913509003261,0|0,3:0|0:0,0:0:0:0:
333,0,84030,2,2,B|410:19|410:19|232:53,1,255.827018006522,0|0,1:0|3:0,0:1:0:0:
80,81,84295,1,0,0:0:0:0:
98,81,84383,6,0,B|147:75|167:25|167:25|147:75|191:113,1,172.799994726563,8|0,0:0|0:0,0:0:0:0:
411,133,84736,6,0,B|324:97|246:147|246:147|314:194,1,230.4,0|0,3:0|0:0,0:0:0:0:
486,210,85089,6,0,P|422:233|343:207,2,129.599996044922,8|0|0,0:0|0:0|0:0,0:0:0:0:
505,109,85442,1,0,1:0:0:0:
461,314,85619,1,0,3:0:0:0:
170,190,85795,6,0,P|234:167|313:193,2,129.599996044922,8|0|0,0:0|0:0|0:0,0:0:0:0:
222,298,86148,6,0,B|134:336|74:283|87:206|87:206|97:254|143:270,1,288,0|0,3:0|0:0,0:0:0:0:
174,75,86501,6,0,B|118:18|118:18|179:221,1,259.199992089844,8|0,0:0|0:0,0:0:0:0:
292,179,86854,2,0,L|443:162,1,128,0|0,0:1|1:0,0:0:0:0:
419,164,87030,1,0,3:0:0:0:
306,330,87207,6,0,B|301:362|301:362|324:338,1,48,2|0,3:0|0:0,0:0:0:0:
374,73,87383,2,0,B|379:41|379:41|356:65,1,48,2|0,3:0|0:0,0:0:0:0:
116,238,87560,6,0,B|182:223|184:147|184:147|225:176|225:241|225:241|243:181|318:174,1,326.140543028795,0|0,3:0|0:0,0:0:0:0:
476,270,87913,6,0,L|291:253,1,172.799994726563,8|0,0:0|0:0,0:0:0:0:
79,76,88207,1,0,1:0:0:0:
85,82,88266,2,0,L|106:206,1,72.0000027465821,0|0,3:0|0:0,0:0:0:0:
100,308,88442,6,0,P|45:252|184:216,1,288,8|0,0:0|0:0,0:0:0:0:
382,289,88795,2,0,B|400:244|375:216|375:216|386:254|359:303,1,132.713514101872,0|0,3:0|0:0,0:0:0:0:
221,118,88972,6,0,B|330:112|354:12|271:-5|222:60|245:189|305:241|305:241|290:192|340:146,1,432,8|0,0:1|0:0,0:0:0:0:
395,124,89854,6,0,L|373:130,2,16
404,108,90030,2,0,L|413:48,1,48,8|0,1:0|0:0,0:0:0:0:
457,197,90207,6,0,L|479:191,2,16,0|0|0,3:0|0:0|0:0,0:0:0:0:
438,204,90383,2,0,L|427:316,1,93.5999957153322,0|0,3:0|0:0,0:0:0:0:
383,356,90736,6,2,B|345:325|359:275|359:275|413:224|508:271|508:271|440:265|407:324,1,335.999989746094,8|0,1:0|0:1,0:1:0:0:
71,314,91266,6,2,B|165:276|226:342|226:342|284:402|421:341,1,335.999989746094,8|0,1:1|0:1,0:1:0:0:
200,280,91795,6,0,P|189:227|210:181,1,93.5999957153322,0|0,3:0|0:0,0:0:0:0:
241,110,92148,6,2,B|196:95|159:38|159:38|223:185|198:291,1,360.000013732911,8|0,0:0|0:1,0:1:0:0:
414,347,92677,2,2,B|446:304|446:254|408:204|354:211|354:211|372:297|319:351|319:351|308:301|248:290,1,408.000007781983,8|0,0:0|0:0,0:1:0:0:
137,352,93207,6,2,B|86:379|86:379|267:365,1,216.000008239746,0|0,1:1|0:1,0:1:0:0:
414,347,93560,6,0,B|360:350|360:350|415:330,1,108.713514342932,8|0,0:0|0:0,0:0:0:0:
363,92,93736,1,4,0:3:0:0:
297,43,93824,6,0,B|240:-8|240:-8|301:198,1,271.78378585733,0|0,3:0|0:0,0:0:0:0:
299,187,94089,2,2,L|172:223,1,108.000004119873,0|0,0:1|0:1,0:1:0:0:
186,214,94266,5,8,0:0:0:0:
46,364,94530,6,0,B|-1:194|-1:194|65:272,1,271.78378585733,4|0,3:0|0:0,0:0:0:0:
69,268,94795,2,2,L|161:292,1,96.0000036621095,0|0,0:1|0:1,0:1:0:0:
168,297,94972,5,8,0:0:0:0:
293,174,95148,1,0,3:0:0:0:
510,155,95324,6,2,L|279:176,1,217.427028685864,0|0,1:1|3:1,0:1:0:0:
455,52,95589,1,2,1:2:0:0:
486,56,95677,2,0,P|513:95|494:178,1,108.713514342932,8|0,0:0|0:0,0:0:0:0:
216,210,95854,1,2,0:0:0:0:
226,245,95942,1,2,0:0:0:0:
254,264,96030,6,0,P|274:266|280:169,1,144,0|0,3:0|0:0,0:0:0:0:
224,127,96383,6,2,B|164:121|132:158|125:219|125:219|119:141|96:164|70:95|70:95|80:129|63:168,1,335.999989746094,8|0,1:1|0:1,0:1:0:0:
131,327,96913,6,2,B|114:391|114:391|6:300|50:209|50:209|49:261|91:290,1,335.999989746094,8|0,1:1|0:1,0:1:0:0:
204,272,97442,6,0,P|246:255|306:266,1,93.5999957153322,0|0,3:0|0:0,0:0:0:0:
311,261,97795,6,2,B|348:176|339:102|257:53|257:53|301:117|271:200,1,360.000013732911,8|0,0:0|0:1,0:1:0:0:
210,376,98324,6,2,B|298:354|312:261|312:261|440:376|440:376|348:367,1,408.000007781983,8|0,0:0|0:1,0:1:0:0:
162,215,98854,6,2,B|102:177|10:237|10:237|89:320|168:275,1,326.140543028795,0|0,3:1|0:1,0:1:0:0:
288,126,99207,2,2,L|299:8,1,93.5999957153322,8|0,0:0|0:1,0:1:0:0:
244,279,99560,6,0,B|241:309|216:322|216:322|231:298|225:248,1,96,0|0,3:0|0:0,0:0:0:0:
382,107,99736,2,2,L|393:-11,1,93.5999957153322,8|0,0:0|0:1,0:1:0:0:
334,334,100089,6,0,B|318:353|318:353|328:322,2,48,0|0|0,3:0|0:0|0:0,0:0:0:0:
477,93,100266,2,2,L|488:-25,1,93.5999957153322,8|0,0:1|0:0,0:1:0:0:
435,30,100619,6,2,B|403:23|365:43|341:78|344:121|368:169|435:184|452:168|452:168|405:151|397:99,1,326.140543028795,0|0,0:3|0:0,0:1:0:0:
133,83,100972,1,2,0:0:0:0:
147,85,101060,1,2,0:0:0:0:
242,93,101148,6,0,L|114:81,1,96.0000036621095,0|0,3:0|3:0,0:0:0:0:
71,49,101324,2,0,L|292:69,1,216.000008239746,8|0,1:0|0:0,0:0:0:0:
284,168,101677,6,0,P|294:225|273:295,1,115.2,0|0,3:0|0:0,0:0:0:0:
228,326,102030,6,2,B|197:375|129:375|102:316|102:316|120:258|206:260|206:260|174:270|161:303,1,335.999989746094,8|0,0:1|0:1,0:1:0:0:
46,193,102560,2,2,B|99:137|105:20|105:20|111:125|154:158,1,335.999989746094,8|0,0:1|0:1,0:1:0:0:
160,384,103089,6,0,L|168:288,1,93.5999957153322,0|0,0:0|0:0,3:0:0:0:
365,119,103442,6,2,B|433:59|533:125|533:125|470:223|359:183,1,360.000013732911,8|0,0:0|0:0,0:1:0:0:
104,331,103972,2,2,B|46:317|46:317|97:268|171:271|198:321|198:321|251:341|286:330|318:277|318:277|272:226,1,408.000007781983,8|0,0:0|0:1,0:1:0:0:
179,215,104501,6,0,B|219:168|219:168|196:336,1,216.000008239746,0|0,3:0|0:0,0:0:0:0:
99,350,104854,6,0,B|48:337|48:337|77:325|130:334,1,108.713514342932,8|0,0:0|0:0,0:0:0:0:
429,167,105030,1,4,0:3:0:0:
340,187,105119,6,0,P|335:96|422:178,1,271.78378585733,0|0,3:0|0:0,0:0:0:0:
423,172,105383,2,2,L|408:307,1,108.000004119873,0|0,0:1|0:1,0:1:0:0:
415,287,105560,5,8,0:0:0:0:
85,130,105824,6,0,P|56:175|156:141,1,271.78378585733,4|0,3:0|0:0,0:0:0:0:
162,144,106089,2,2,L|174:4,1,108.000004119873,0|0,0:1|0:1,0:1:0:0:
178,31,106266,5,8,0:0:0:0:
254,166,106442,1,0,3:0:0:0:
467,120,106619,6,2,L|237:170,1,217.427028685864,0|0,0:1|3:1,0:1:0:0:
374,330,106883,1,0,0:0:0:0:
384,313,106972,6,2,B|424:258|400:198|400:198|386:171|386:171|353:114|411:38,1,273.599992694092,8|0,0:0|0:1,0:1:0:0:
331,243,107324,6,0,L|206:270,1,115.2,0|0,3:0|0:0,0:0:0:0:
61,309,107677,6,2,B|63:357|100:375|100:375|89:261|160:218|160:218|131:259|148:304,1,335.999989746094,8|0,0:0|0:1,0:1:0:0:
331,243,108207,2,2,B|305:98|305:98|218:267,1,335.999989746094,8|0,0:0|0:1,0:1:0:0:
305,347,108736,6,0,L|417:322,1,93.5999957153322,0|0,3:0|0:0,0:0:0:0:
434,258,109089,6,2,B|464:270|476:310|476:310|482:246|433:210|433:210|382:172|321:185|321:185|333:259,1,360.000013732911,8|0,1:0|0:0,0:1:0:0:
20,261,109619,2,2,B|47:191|110:205|110:205|97:286|164:312|164:312|228:327|246:264|246:264|226:295|190:298,1,408.000007781983,8|0,0:1|0:1,0:1:0:0:
223,95,110148,6,0,L|204:199,1,93.5999957153322,0|0,3:0|0:0,0:0:0:0:
184,224,110501,6,0,B|210:58|210:58|154:151,1,259.199992089844,8|0,0:0|1:0,0:0:0:0:
20,276,110854,2,0,L|26:382,1,86.3999973632813,0|0,3:0|0:0,0:0:0:0:
262,262,111030,6,0,B|184:225|184:225|92:267,1,172.799994726563,8|0,0:0|0:0,0:0:0:0:
334,370,111295,1,0,0:0:0:0:
344,358,111383,2,0,L|350:252,1,86.3999973632813,0|0,3:0|0:0,0:0:0:0:
351,109,111560,6,0,B|353:35|298:-13|298:-13|332:42|310:90|310:90|285:152|311:214|353:236|353:236|403:215|422:150|422:150|406:183|369:189,1,576,8|0,0:1|0:0,0:0:0:0:
236,228,112972,6,0,L|67:264,1,144,6|0,3:2|0:0,0:0:0:0:
173,41,113324,2,0,B|148:73|148:73|162:147,1,96,8|2,0:0|0:0,0:0:0:0:
344,204,113677,1,0,0:0:0:0:
234,313,113854,6,0,L|303:296,1,48,0|0,3:0|0:0,0:0:0:0:
245,116,114030,1,10,0:0:0:0:
245,116,114207,6,0,L|233:228,1,96
323,365,114560,6,0,L|392:348,1,48,0|0,3:0|0:0,0:0:0:0:
362,73,114736,1,8,0:0:0:0:
362,73,114913,6,0,L|350:185,1,96,0|2,0:0|0:0,0:0:0:0:
468,272,115266,1,0,3:0:0:0:
197,250,115442,2,0,P|244:264|298:293,1,96,10|2,0:0|0:0,0:0:0:0:
377,353,115736,1,4,0:3:0:0:
381,346,115795,6,0,L|398:181,1,144,2|0,3:2|0:0,0:0:0:0:
438,125,116148,2,0,B|341:85|343:186|226:144,1,192,8|0,0:0|0:0,0:0:0:0:
114,37,116677,5,0,3:0:0:0:
197,227,116854,1,10,0:0:0:0:
197,227,117030,6,0,L|187:345,1,96
42,29,117383,6,0,L|117:39,1,48,2|0,3:2|0:0,0:0:0:0:
105,258,117560,1,8,0:0:0:0:
105,258,117736,6,0,L|95:376,1,96,0|2,0:0|0:0,0:0:0:0:
19,112,118089,1,0,3:0:0:0:
308,235,118266,2,0,B|267:249|267:249|203:228,1,96,10|0,0:0|0:0,0:0:0:0:
163,14,118560,1,4,0:3:0:0:
168,21,118619,6,0,L|176:188,1,144,2|0,3:2|0:0,0:0:0:0:
137,214,118972,2,0,P|122:134|234:144,1,192,8|0,0:0|0:0,0:0:0:0:
331,207,119501,5,0,3:0:0:0:
458,38,119677,1,10,0:0:0:0:
458,38,119854,6,0,L|442:152,1,96
311,286,120207,5,2,3:2:0:0:
259,33,120383,1,8,0:0:0:0:
259,33,120560,6,0,L|250:97,1,48,0|0,0:0|1:0,0:0:0:0:
196,133,120736,1,2,0:0:0:0:
151,68,120824,5,0,1:0:0:0:
137,70,120913,2,0,L|68:84,1,48,0|0,3:0|0:0,0:0:0:0:
45,172,121089,5,10,0:0:0:0:
63,264,121266,1,2,0:0:0:0:
158,382,121442,6,0,P|151:316|201:261,1,144,2|0,3:2|0:0,0:0:0:0:
295,226,121795,2,0,B|301:182|301:182|298:172|298:172|303:163|303:163|313:76,1,128,8|0,0:0|0:0,0:0:0:0:
313,91,122089,1,0,1:0:0:0:
315,83,122148,1,0,3:0:0:0:
498,90,122324,2,0,L|381:102,1,96,8|2,0:0|0:0,0:0:0:0:
192,229,122677,6,0,L|222:224,3,24,0|0|0|0,3:0|0:0|0:0|0:0,0:0:0:0:
172,231,122854,2,0,L|155:68,1,144,8|0,0:0|0:0,0:0:0:0:
259,19,123207,5,0,3:0:0:0:
25,0,123383,2,0,B|76:44|128:21|128:21|74:43|83:119,1,192,8|0,0:0|3:0,0:0:0:0:
32,219,123854,1,0,3:0:0:0:
40,215,123913,2,0,P|108:216|165:287,1,144,10|0,0:0|0:0,0:0:0:0:
185,337,124266,6,0,L|206:163,1,144,6|0,3:2|0:0,0:0:0:0:
288,192,124619,2,0,P|356:173|386:136,1,96,8|2,0:0|0:0,0:0:0:0:
203,185,124972,1,0,0:0:0:0:
458,51,125148,6,0,P|431:72|421:93,1,48,0|0,3:0|0:0,0:0:0:0:
377,339,125324,1,10,0:0:0:0:
377,339,125501,6,0,L|394:199,1,96
335,17,125854,6,0,P|314:44|310:67,1,48,2|0,3:2|0:0,0:0:0:0:
272,304,126030,1,8,0:0:0:0:
272,304,126207,6,0,L|289:164,1,96,0|2,0:0|0:0,0:0:0:0:
194,26,126560,1,0,3:0:0:0:
369,114,126736,2,0,L|237:128,1,96,10|2,0:0|0:0,0:0:0:0:
196,33,127030,1,0,1:0:0:0:
197,40,127089,6,0,B|176:81|188:113|188:113|202:150|178:193,1,144,0|0,3:2|0:0,0:0:0:0:
112,245,127442,2,0,P|50:184|137:154,1,192,8|0,0:0|0:0,0:0:0:0:
366,227,127972,5,0,3:0:0:0:
112,245,128148,1,10,0:0:0:0:
112,245,128324,6,0,L|96:358,1,96
439,222,128677,6,0,L|364:228,1,48,2|0,3:2|0:0,0:0:0:0:
203,281,128854,1,8,0:0:0:0:
203,281,129030,6,0,L|187:394,1,96,0|2,0:0|0:0,0:0:0:0:
303,328,129383,5,0,3:0:0:0:
135,147,129560,2,0,L|242:137,1,96,10|0,0:0|0:0,0:0:0:0:
386,80,129854,1,0,1:0:0:0:
378,77,129913,6,0,B|331:41|273:67|273:67|295:78|308:101,1,144,2|0,3:2|0:0,0:0:0:0:
346,205,130266,2,0,B|283:211|283:211|277:204|277:204|266:213|266:213|149:225,1,192,8|0,0:0|0:0,0:0:0:0:
40,90,130795,5,0,3:0:0:0:
154,320,130972,1,10,0:0:0:0:
154,320,131148,6,0,L|165:183,1,96
107,32,131501,5,2,3:2:0:0:
266,261,131677,1,8,0:0:0:0:
266,261,131854,6,0,L|272:180,1,48
313,148,132030,1,2,0:0:0:0:
351,224,132119,5,0,1:0:0:0:
363,231,132207,2,0,L|431:213,1,48,0|0,3:0|0:0,0:0:0:0:
488,92,132383,5,10,0:0:0:0:
394,121,132560,1,2,0:0:0:0:
481,340,132736,6,0,L|492:173,1,144,2|0,3:2|0:0,0:0:0:0:
409,2,133089,2,0,P|381:72|406:138,1,128,8|0,0:0|0:0,0:0:0:0:
402,125,133383,1,0,0:0:0:0:
410,131,133442,1,0,0:0:0:0:
494,47,133619,5,0,3:0:0:0:
271,79,133795,1,10,0:0:0:0:
271,79,133972,5,0,3:0:0:0:
294,339,134148,2,0,P|322:269|292:193,1,144,0|0,3:0|0:0,0:0:0:0:
194,155,134501,2,0,B|239:216|297:187|297:187|331:130|404:147|404:147|380:209,1,288,8|0,0:0|3:0,0:0:0:0:
348,280,135148,1,0,3:0:0:0:
356,281,135207,2,0,L|505:268,1,144,8|0,0:0|0:0,0:0:0:0:
488,92,135560,5,0,3:0:0:0:
256,192,144030,12,0,146501,0:0:0:0:
149,126,146854,6,2,B|104:68|54:21|160:2|179:55|121:185|60:218,1,307.2,8|0,0:0|0:0,0:1:0:0:
106,304,147383,1,0,0:0:0:0:
271,312,147560,5,0,0:0:0:0:
190,306,147736,1,0,0:0:0:0:
157,376,147913,1,0,0:0:0:0:
174,230,148089,1,0,0:0:0:0:
264,117,148266,5,0,0:0:0:0:
268,134,148442,1,0,0:0:0:0:
367,127,148619,1,0,0:0:0:0:
371,110,148795,1,0,0:0:0:0:
341,40,148972,5,0,0:0:0:0:
429,19,149148,1,0,0:0:0:0:
339,203,149324,1,0,0:0:0:0:
427,224,149500,1,0,0:0:0:0:
211,182,149677,5,0,0:0:0:0:
204,170,149854,1,0,0:0:0:0:
97,178,150030,1,0,0:0:0:0:
104,166,150207,1,0,0:0:0:0:
156,92,150383,5,0,0:0:0:0:
35,116,150560,1,0,0:0:0:0:
161,272,150736,1,0,0:0:0:0:
40,248,150913,1,0,0:0:0:0:
156,92,151089,5,0,0:0:0:0:
160,77,151266,1,0,0:0:0:0:
263,130,151442,5,0,0:0:0:0:
283,212,151619,1,0,0:0:0:0:
355,149,151795,5,0,0:0:0:0:
189,195,151972,1,0,0:0:0:0:
286,56,152148,5,0,0:0:0:0:
268,290,152324,1,0,0:0:0:0:
71,142,152501,6,2,B|126:65|202:116|202:116|165:111|130:140,1,216.000008239746,10|2,0:0|0:0,0:1:0:0:
64,259,152854,6,0,L|56:334,1,43.1999986816407,0|0,3:0|0:0,0:0:0:0:
154,372,153030,1,0,0:0:0:0:
156,359,153119,1,0,0:0:0:0:
159,347,153207,2,0,L|167:272,1,43.1999986816407,0|0,3:0|0:0,0:0:0:0:
281,178,153383,5,0,0:0:0:0:
266,179,153472,1,0,0:0:0:0:
252,185,153560,2,0,P|225:207|213:241,1,43.1999986816407,0|0,3:0|0:0,0:0:0:0:
67,175,153736,1,0,0:0:0:0:
82,176,153824,1,0,0:0:0:0:
96,182,153913,2,0,P|123:204|135:238,1,43.1999986816407,0|0,3:0|0:0,0:0:0:0:
182,30,154089,5,0,0:0:0:0:
184,53,154177,1,0,0:0:0:0:
185,77,154266,2,0,L|175:152,1,43.1999986816407,0|0,3:0|0:0,0:0:0:0:
61,346,154442,1,0,0:0:0:0:
59,323,154530,1,0,0:0:0:0:
58,299,154619,2,0,L|68:224,1,43.1999986816407,0|0,3:0|0:0,0:0:0:0:
212,192,154795,5,0,0:0:0:0:
241,209,154883,1,0,0:0:0:0:
272,220,154972,2,0,P|304:214|330:203,1,43.1999986816407,0|0,3:0|0:0,0:0:0:0:
476,42,155148,1,0,0:0:0:0:
432,42,155236,1,0,0:0:0:0:
391,55,155324,6,0,P|380:85|376:120,1,52.8000016113282,0|0,3:0|0:0,0:0:0:0:
432,269,155501,2,0,L|448:338,1,52.8000016113282,0|0,3:0|0:0,0:0:0:0:
272,62,155677,6,0,P|261:92|257:127,1,52.8000016113282,0|0,3:0|0:0,0:0:0:0:
314,300,155854,2,0,L|328:365,1,52.8000016113282,0|0,3:0|0:0,0:0:0:0:
426,164,156030,5,0,1:0:0:0:
368,153,156119,1,0,1:0:0:0:
321,186,156207,2,0,L|274:208,2,38.399998828125,0|0|0,1:0|1:0|1:0,0:0:0:0:
232,145,156383,1,0,1:0:0:0:
203,190,156472,1,0,3:0:0:0:
218,242,156560,5,2,3:0:0:0:
249,318,156648,1,2,3:0:0:0:
199,383,156736,1,0,3:0:0:0:
103,130,157266,6,0,L|97:162,3,28.7999991210938
113,110,157442,2,0,L|326:103,1,201.599993847656,8|0,0:1|0:0,0:0:0:0:
431,97,158148,6,2,B|377:25|377:25|411:103|391:223,1,259.199992089844,4|0,3:0|0:0,0:1:0:0:
353,270,158501,2,0,B|327:260|325:230|325:230|334:249|361:260,1,91.1999975646973,0|0,1:0|0:0,0:0:0:0:
462,289,158677,2,0,L|453:362,1,72.0000027465821,2|0,0:0|0:0,0:0:0:0:
276,165,158854,2,0,B|339:106|430:157|430:157|365:220,1,216.000008239746,8|0,0:0|0:0,0:0:0:0:
330,342,159207,6,0,P|279:334|252:298,1,72.0000027465821,0|0,1:0|0:0,0:0:0:0:
175,170,159383,2,0,P|211:207|202:284,1,96,2|0,0:0|0:0,0:0:0:0:
1,292,159560,2,0,B|102:262|83:366|212:309,1,192,0|0,3:0|0:0,0:0:0:0:
501,169,159913,6,0,P|503:129|472:87,1,72.0000027465821,0|0,1:0|0:0,0:0:0:0:
239,119,160089,2,0,P|285:149|336:146,1,96,2|0,0:0|0:0,0:0:0:0:
402,130,160266,2,0,L|408:8,1,108.713514342932
395,278,160442,5,0,3:0:0:0:
172,55,160619,6,2,B|242:-13|329:29|329:29|288:101,1,217.427028685864,0|0,0:0|0:0,0:1:0:0:
117,229,160883,1,2,1:2:0:0:
82,151,160972,6,0,B|43:82|96:21|96:21|74:70|111:117,1,216.000008239746,0|0,3:0|0:0,0:0:0:0:
198,247,161324,6,0,P|160:303|114:310,1,96,0|0,1:0|0:0,0:0:0:0:
29,384,161501,2,0,P|25:337|82:292,1,96,4|0,3:0|0:0,0:0:0:0:
303,123,161677,6,2,L|199:144,1,86.3999973632813,8|0,0:0|0:0,0:1:0:0:
198,247,162030,6,0,L|307:225,1,96,0|0,1:0|0:0,0:0:0:0:
382,15,162207,6,2,B|356:47|372:86|372:86|389:121|368:171,1,143.999995605469,4|0,3:1|0:1,0:1:0:0:
335,257,162736,6,0,B|340:232|323:207|323:207|343:231|395:229,1,96,0|0,1:0|0:0,0:0:0:0:
498,124,162913,2,0,L|504:83,3,31.1999985717774,0|0|0|0,3:0|0:0|0:0|0:0,0:0:0:0:
499,143,163089,2,0,L|342:155,1,124.79999428711,8|0,0:1|1:0,0:0:0:0:
125,257,163354,1,0,0:0:0:0:
134,264,163442,2,0,L|291:252,1,124.79999428711,8|2,0:1|0:0,0:0:0:0:
221,98,163707,1,2,0:0:0:0:
165,46,163795,6,2,B|117:-2|117:-2|171:200,1,259.199992089844,4|0,3:1|0:1,0:1:0:0:
341,274,164148,2,0,B|389:254|389:254|317:198|229:230|229:230|282:275,1,259.199992089844,0|0,3:0|0:0,0:0:0:0:
282,353,164501,1,8,0:0:0:0:
442,150,164677,6,0,P|474:107|377:87,1,172.799994726563,0|0,3:0|0:0,0:0:0:0:
177,119,165030,2,0,P|211:123|246:134,1,57.5999982421876
351,131,165207,6,0,P|315:67|332:26,1,108.000004119873,0|0,3:0|0:0,0:0:0:0:
336,19,165560,6,2,L|41:63,1,288,0|0,1:0|0:0,0:1:0:0:
234,130,165913,2,0,P|270:194|256:233,1,96,8|0,0:0|0:0,0:0:0:0:
196,380,166089,2,4,B|218:337|198:284|198:284|173:234|205:178,1,192,4|0,3:1|0:0,3:1:0:0:
419,28,166442,2,0,B|432:55|432:55|405:43,1,48,2|0,3:0|0:0,0:0:0:0:
201,58,166619,6,2,B|178:15|178:15|270:26|270:26|314:111|314:111|401:124|401:124|348:99,1,383.740527009783,0|0,3:1|0:1,0:1:0:0:
339,197,166972,6,2,L|355:316,1,93.5999957153322,0|0,3:0|0:0,0:1:0:0:
492,100,167324,6,0,B|508:48|508:48|468:95,1,96,8|0,0:0|0:0,0:0:0:0:
257,239,167501,2,2,L|274:369,1,124.79999428711,0|0,3:0|0:0,0:1:0:0:
71,351,168030,6,2,B|35:349|20:305|20:305|52:336|103:320,1,144,0|0,3:1|0:1,0:1:0:0:
257,239,168383,6,2,B|315:208|315:208|169:149|50:273,1,326.140543028795,0|0,3:0|0:0,0:1:0:0:
40,147,168736,6,0,P|75:140|102:117,1,72.0000027465821,8|0,0:0|0:0,0:0:0:0:
272,10,168913,2,0,P|226:10|188:38,1,91.1999975646973,0|0,3:0|0:0,0:0:0:0:
189,44,169030,1,0,3:0:0:0:
190,52,169089,2,0,B|228:124|195:184|195:184|158:246|197:326,1,273.599992694092,8|0,0:0|0:0,0:0:0:0:
349,287,169442,6,2,P|254:244|364:243,1,259.199992089844,4|0,3:1|0:0,0:1:0:0:
478,240,169795,2,0,B|513:238|512:206|512:206|500:222|480:230,1,91.1999975646973,0|0,1:0|0:0,0:0:0:0:
433,306,169972,2,0,L|426:382,1,72.0000027465821,2|0,0:0|0:0,0:0:0:0:
423,85,170148,2,0,B|483:30|483:30|453:96|447:196,1,216.000008239746,8|0,0:0|0:0,0:0:0:0:
425,313,170501,6,0,L|416:397,1,72.0000027465821,0|0,1:0|0:0,0:0:0:0:
305,307,170677,2,0,B|296:262|296:262|309:288|339:296,1,96,2|0,0:0|0:0,0:0:0:0:
381,226,170854,2,0,L|149:263,1,192,0|0,3:0|0:0,0:0:0:0:
60,12,171207,6,0,P|67:55|99:84,1,72.0000027465821,0|0,1:0|0:0,0:0:0:0:
211,167,171383,2,0,P|206:120|164:86,1,96,2|0,0:0|0:0,0:0:0:0:
27,207,171560,2,0,L|146:187,1,108.713514342932,8|0,1:0|0:0,0:0:0:0:
267,60,171736,1,0,3:0:0:0:
267,344,171913,6,2,B|239:284|274:233|274:233|311:183|288:111,1,217.427028685864,0|0,0:1|0:1,0:1:0:0:
267,60,172177,1,2,1:2:0:0:
213,0,172266,6,0,P|155:17|222:58,1,144
349,50,172619,6,0,L|446:36,1,86.3999973632813,0|0,1:0|0:0,0:0:0:0:
424,144,172795,2,0,P|431:185|400:243,1,86.3999973632813,0|0,3:0|0:0,0:0:0:0:
185,355,172972,6,2,L|99:367,1,86.3999973632813,8|0,0:0|0:0,0:1:0:0:
26,274,173324,6,0,L|131:259,1,96,0|0,1:0|0:0,0:0:0:0:
329,208,173501,6,2,B|282:167|230:203|230:203|255:203|269:215,1,143.999995605469,12|0,0:0|0:1,0:1:0:0:
350,359,174030,6,0,B|326:331|326:331|291:340,1,72.0000027465821,0|0,1:0|0:0,0:0:0:0:
215,285,174207,2,0,L|184:290,3,31.1999985717774,0|0|0|0,3:0|0:0|0:0|0:0,0:0:0:0:
234,281,174383,2,0,L|255:134,1,124.79999428711,8|0,1:0|1:0,0:0:0:0:
407,19,174648,1,0,0:0:0:0:
418,26,174736,2,0,L|397:173,1,124.79999428711,8|2,1:0|0:0,0:0:0:0:
386,259,175001,1,2,0:0:0:0:
451,295,175089,6,2,B|503:278|503:278|408:196|304:268,1,259.199992089844,12|0,3:0|0:1,0:1:0:0:
130,376,175442,2,0,B|223:336|236:243|236:243|235:325|307:344,1,288,0|0,3:0|0:0,0:0:0:0:
374,362,175795,1,8,0:0:0:0:
401,86,175972,6,0,L|384:274,1,172.799994726563,0|0,3:0|0:0,0:0:0:0:
230,189,176324,2,0,P|264:180|290:154,1,57.5999982421876
324,85,176501,6,0,L|335:-17,1,86.3999973632813,0|0,3:0|0:0,0:0:0:0:
478,37,176854,6,2,B|398:-22|328:41|328:41|256:106|166:56,1,326.140543028795,0|0,1:1|1:1,0:1:0:0:
27,0,177207,2,0,P|77:2|115:40,1,96,8|0,0:0|0:0,0:0:0:0:
104,215,177383,2,0,B|82:244|82:244|33:163|129:92,1,192,4|0,3:1|0:0,0:0:0:0:
325,20,177736,2,0,B|317:49|317:49|342:17,1,48,2|0,3:0|0:0,0:0:0:0:
392,144,177913,6,0,B|272:84|292:201|185:156,1,216.000008239746,0|0,3:0|0:0,0:0:0:0:
111,106,178266,6,2,B|160:33|234:63|234:63|227:92,1,167.999994873047,8|0,0:0|0:0,0:1:0:0:
292,184,178795,6,0,L|334:9,1,153.6,8|0,0:0|0:0,0:0:0:0:
412,6,179060,2,0,L|433:-3,4,14.3999995605469
228,86,179324,1,8,0:1:0:0:
495,42,179501,6,0,L|502:3,2,32,8|0|0,0:1|0:0|0:0,0:0:0:0:
461,104,179677,1,0,1:0:0:0:
395,122,179766,1,0,1:0:0:0:
340,83,179854,1,0,1:0:0:0:
274,71,179942,1,0,1:0:0:0:
212,92,180030,6,0,L|207:135,1,36.0000013732911,2|0,3:2|0:0,0:0:0:0:
187,143,180119,6,0,L|192:170,1,21.5999993408203,2|0,0:0|0:0,0:0:0:0:
183,196,180207,2,0,L|202:225,1,21.5999993408203,2|0,0:0|0:0,0:0:0:0:
201,247,180295,2,0,L|227:262,1,21.5999993408203,2|0,0:0|0:0,0:0:0:0:
238,287,180383,2,0,L|264:282,1,21.5999993408203,2|0,0:0|0:0,0:0:0:0:
287,306,180472,6,0,L|312:282,1,21.5999993408203,2|0,0:0|0:0,0:0:0:0:
338,256,180560,6,0,L|368:239,1,28.7999991210938,2|0,0:0|0:0,0:0:0:0:
340,172,180648,6,0,L|319:147,1,28.7999991210938,2|0,0:0|0:0,0:0:0:0:
340,83,180736,6,0,B|383:42|383:42|353:218,1,216.000008239746,4|0,3:1|0:0,0:0:0:0:
213,367,181089,6,2,P|260:351|313:373,1,108.000004119873,0|0,3:0|0:0,0:1:0:0:
213,251,181442,6,0,B|222:226|255:219|255:219|234:234|231:266,1,96,8|0,0:0|0:0,0:0:0:0:
484,318,181619,2,2,B|550:361|586:225|482:204|424:261|424:261|364:318|276:252,1,360.000013732911,0|0,3:0|0:0,0:1:0:0:
312,179,182148,6,0,P|354:174|402:196,1,86.3999973632813,0|0,3:0|0:0,0:0:0:0:
392,304,182501,6,2,P|322:302|209:136,1,259.199992089844,0|0,3:0|0:0,0:1:0:0:
322,10,182854,2,0,P|309:54|269:80,1,86.3999973632813,8|0,0:0|0:0,0:0:0:0:
8,148,183030,6,2,B|74:35|200:86|200:86|151:90|126:145,1,287.999991210938,4|0,3:1|0:0,0:1:0:0:
144,330,183560,6,2,B|85:303|85:303|173:283|173:283|176:276|176:276|184:282|184:282|191:277|191:277|238:295|289:249,1,259.199992089844,0|0,3:0|0:0,0:1:0:0:
218,207,183913,2,0,B|197:187|204:163|204:163|224:177|219:208,1,86.3999973632813,0|0,3:0|0:0,0:0:0:0:
418,172,184089,2,0,P|343:193|317:236,1,108.713514342932,0|2,0:0|0:0,0:0:0:0:
289,379,184266,6,0,B|262:322|287:271|287:271|323:210|284:125,1,217.427028685864,8|2,0:0|0:1,0:0:0:0:
272,98,184530,1,2,0:1:0:0:
264,86,184619,2,0,P|262:61|310:-6,1,96.0000036621095,0|0,1:0|0:0,0:0:0:0:
488,54,184795,6,0,L|348:92,1,108.713514342932,0|0,3:0|1:0,0:0:0:0:
375,197,184972,1,0,3:0:0:0:
299,169,185060,1,2,0:1:0:0:
294,182,185148,2,2,P|297:229|346:276,1,108.000004119873,0|0,0:1|0:1,0:1:0:0:
336,272,185324,5,0,1:0:0:0:
455,172,185501,1,0,3:0:0:0:
224,271,185677,2,2,L|-39:317,1,217.427028685864,8|2,0:0|0:0,0:1:0:0:
56,103,185942,1,2,0:0:0:0:
69,116,186030,2,0,L|86:205,1,72.0000027465821,2|2,1:2|0:0,0:0:0:0:
203,167,186207,1,0,0:0:0:0:
184,166,186295,1,0,0:0:0:0:
165,165,186383,6,0,L|136:37,1,115.2,4|0,3:1|0:0,0:0:0:0:
377,96,186736,6,2,B|333:20|230:29|230:29|244:85,1,216.000008239746,0|0,3:0|0:0,0:1:0:0:
276,320,187089,1,8,0:0:0:0:
460,259,187266,2,2,B|327:336|364:202|213:251|213:251|271:232|280:161,1,360.000013732911,0|0,3:0|0:0,0:1:0:0:
146,145,187795,6,0,B|187:144|195:173|195:173|157:174|146:145,1,108.000004119873,0|0,3:0|0:0,0:0:0:0:
82,98,188148,6,2,B|45:71|45:71|122:25|224:51|224:51|189:91,1,259.199992089844,0|0,3:0|0:0,0:1:0:0:
130,267,188501,2,0,B|107:263|98:238|98:238|121:240|132:260,1,86.3999973632813,8|0,0:0|0:0,0:0:0:0:
269,361,188677,2,2,B|409:263|325:56|325:56|237:155,1,431.999986816407,4|0,3:1|1:0,0:1:0:0:
233,215,189207,6,2,B|347:241|447:141|447:141|412:186|441:240,1,326.140543028795,0|0,3:0|0:0,0:1:0:0:
502,192,189560,6,2,P|520:136|482:76,1,108.000004119873,0|0,3:0|0:0,0:1:0:0:
257,91,189913,6,0,B|242:70|261:45|261:45|257:78|295:121,1,96,8|0,0:0|0:0,0:0:0:0:
411,329,190089,2,2,P|407:264|450:212,1,115.199996484375,0|0,3:0|0:0,0:1:0:0:
503,192,190530,1,2,1:2:0:0:
433,223,190619,6,2,P|390:203|385:108,1,144,0|0,3:0|0:0,0:1:0:0:
237,142,190972,6,2,B|191:93|191:93|479:160,1,326.140543028795,0|0,1:0|0:0,0:1:0:0:
504,74,191324,6,0,P|459:62|434:31,1,72.0000027465821,8|0,0:0|0:0,0:0:0:0:
282,41,191501,2,0,P|327:29|352:-2,1,72.0000027465821,0|0,3:0|0:0,0:0:0:0:
340,4,191619,1,0,3:0:0:0:
330,5,191677,2,0,B|284:45|310:106|310:106|337:169|272:238,1,216.000008239746,8|0,0:0|0:0,0:0:0:0:
218,237,192030,6,0,P|190:165|240:142,1,144,4|0,3:0|0:0,0:1:0:0:
389,251,192383,6,2,B|318:260|318:260|313:254|313:254|301:262|301:262|45:287,1,326.140543028795,0|0,3:1|0:1,0:1:0:0:
204,344,192736,6,0,L|220:220,1,108.713514342932,8|0,0:0|0:0,0:0:0:0:
67,211,192913,2,2,B|29:210|5:244|5:244|15:72|195:39|195:39|203:75|188:120|188:120|183:119|183:119|188:124|188:124|181:122|181:122|187:127|187:127|180:126|180:126|185:131|185:131|177:130|177:130|182:134|182:134|157:141|137:166,1,543.567571714659,0|0,3:0|0:0,0:1:0:0:
208,211,193442,6,0,L|194:318,1,93.5999957153322,0|0,3:1|0:0,0:0:0:0:
8,328,193795,6,2,B|140:276|102:431|271:373,1,244.80000466919,0|0,3:0|0:0,0:1:0:0:
292,247,194148,6,0,L|306:140,1,81.6000015563965,8|0,0:0|0:0,0:0:0:0:
262,17,194324,2,2,B|129:40|137:170|137:170|172:123|232:135,1,287.999991210938,0|0,3:0|1:0,0:1:0:0:
492,169,194854,6,2,B|184:214,1,288,0|0,3:1|0:1,0:1:0:0:
104,252,195207,2,0,B|115:283|152:283|152:283|131:266|125:236,1,96,0|0,3:0|0:0,0:0:0:0:
55,165,195383,2,0,L|25:39,1,108.713514342932,0|2,1:0|0:0,0:0:0:0:
298,39,195560,6,0,P|181:82|145:175,1,217.427028685864,8|2,0:1|0:1,0:0:0:0:
199,222,195824,1,2,0:1:0:0:
207,210,195913,2,0,P|212:151|190:106,1,96.0000036621095,0|0,1:0|0:0,0:0:0:0:
296,240,196089,6,0,P|264:290|287:371,1,108.713514342932,8|0,0:0|1:0,0:0:0:0:
337,306,196266,1,0,3:0:0:0:
413,331,196354,1,2,0:1:0:0:
417,318,196442,2,2,L|441:207,1,108.000004119873,0|0,0:1|0:1,0:1:0:0:
439,212,196619,5,0,1:0:0:0:
173,93,196795,1,0,3:0:0:0:
443,92,196972,2,0,B|334:68|361:180|207:121,1,192,8|2,0:0|0:0,0:0:0:0:
97,84,197236,1,2,0:0:0:0:
93,99,197324,6,2,P|241:135|147:16,1,398.140542305616,0|0,1:0|0:0,0:1:0:0:
149,264,197677,6,0,L|174:82,1,172.799994726563,4|0,3:1|0:0,0:0:0:0:
380,0,198030,6,2,B|317:33|198:16|198:16|242:33|251:71,1,259.199992089844,0|0,3:0|0:0,0:1:0:0:
240,237,198383,2,0,L|228:333,1,86.3999973632813,8|0,0:0|0:0,0:0:0:0:
46,207,198560,2,2,B|-25:221|-25:221|-17:72|119:18|119:18|68:54|83:138,1,431.999986816407,0|0,3:0|0:0,0:1:0:0:
151,281,199089,6,0,L|8:311,1,115.2,0|0,3:0|0:0,0:0:0:0:
216,140,199442,6,2,B|266:92|266:92|234:264,1,216.000008239746,0|0,3:0|0:0,0:1:0:0:
70,339,199795,2,0,L|0:353,1,72.0000027465821,8|0,0:0|0:0,0:0:0:0:
71,221,199972,2,2,B|179:169|234:252|234:252|298:339|412:295,1,360.000013732911,0|0,3:0|1:0,0:1:0:0:
482,125,200501,6,0,P|444:172|437:243,1,108.000004119873,0|0,3:0|0:0,0:0:0:0:
428,372,200854,6,0,P|432:302|363:179,1,216.000008239746,0|0,3:0|0:0,0:0:0:0:
211,147,201207,2,0,P|249:145|283:125,1,72.0000027465821,8|0,0:0|0:0,0:0:0:0:
367,50,201383,1,0,3:0:0:0:
374,35,201472,1,0,0:0:0:0:
382,20,201560,1,0,0:0:0:0:
213,59,201736,2,0,P|173:68|148:86,1,62.3999971435548,0|8,1:0|0:1,0:0:0:0:
65,334,201913,6,0,B|147:279|214:100|10:51|-8:146|-5:256|151:222,1,432,4|0,3:1|0:0,0:0:0:0:
228,222,202795,6,0,L|270:217,3,24,0|0|0|0,1:0|0:0|0:0|0:0,0:0:0:0:
209,309,202972,1,8,1:0:0:0:
244,133,203148,2,0,L|262:66,1,48,0|0,3:0|0:0,0:0:0:0:
462,48,203324,6,0,B|423:24|423:24|305:47,1,144,6|0,3:2|0:0,0:0:0:0:
369,210,203677,2,0,L|399:98,1,96,8|2,0:0|0:0,0:0:0:0:
156,157,204030,1,0,0:0:0:0:
282,273,204207,6,0,L|272:208,1,48,0|0,3:0|0:0,0:0:0:0:
204,46,204383,1,10,0:0:0:0:
204,46,204560,6,0,L|97:68,1,96
205,352,204913,6,0,L|195:287,1,48,0|0,3:0|0:0,0:0:0:0:
147,160,205089,1,8,0:0:0:0:
147,160,205266,6,0,L|40:182,1,96,0|2,0:0|0:0,0:0:0:0:
119,342,205619,1,0,3:0:0:0:
251,197,205795,2,0,P|270:144|257:86,1,96,8|2,0:0|0:0,0:0:0:0:
371,17,206089,1,0,1:0:0:0:
365,25,206148,6,0,P|350:83|379:184,1,144,2|0,3:2|0:0,0:0:0:0:
398,254,206501,2,0,B|301:215|308:311|205:270,1,192,8|0,0:0|0:0,0:0:0:0:
48,116,207030,5,0,3:0:0:0:
277,103,207207,1,10,0:0:0:0:
277,103,207383,6,0,L|166:113,1,96
173,281,207736,6,0,L|190:215,1,48,2|0,3:2|0:0,0:0:0:0:
225,20,207913,1,8,0:0:0:0:
225,20,208089,6,0,L|114:30,1,96,0|2,0:0|0:0,0:0:0:0:
84,216,208442,1,0,3:0:0:0:
320,163,208619,2,0,B|351:144|351:144|360:69,1,96,10|0,0:0|0:0,0:0:0:0:
447,4,208913,1,0,1:0:0:0:
452,12,208972,6,0,L|433:200,1,144,2|0,3:2|0:0,0:0:0:0:
483,276,209324,2,0,B|413:275|385:217|385:217|425:248|477:228,1,192,8|0,0:0|0:0,0:0:0:0:
269,96,209854,5,0,3:0:0:0:
253,335,210030,1,10,0:0:0:0:
253,335,210207,6,0,L|263:222,1,96
144,52,210560,5,2,3:2:0:0:
169,273,210736,1,8,0:0:0:0:
169,273,210913,6,0,L|162:196,1,48,0|0,0:0|1:0,0:0:0:0:
104,177,211089,1,2,0:0:0:0:
84,257,211177,5,0,1:0:0:0:
69,260,211266,2,0,L|8:270,1,48,0|0,3:0|0:0,0:0:0:0:
114,359,211442,5,10,0:0:0:0:
205,372,211619,1,2,0:0:0:0:
272,268,211795,6,0,P|289:200|264:89,1,144,0|0,3:0|0:0,0:0:0:0:
228,12,212148,2,0,P|170:40|201:103,1,128,8|0,0:0|1:0,0:0:0:0:
192,98,212442,1,0,1:0:0:0:
201,101,212501,1,0,3:0:0:0:
454,75,212677,2,0,L|338:94,1,96,8|2,0:0|0:0,0:0:0:0:
103,223,213030,6,0,L|105:255,3,24,0|0|0|0,3:0|0:0|0:0|0:0,0:0:0:0:
109,207,213207,2,0,L|267:239,1,144,8|0,0:0|0:0,0:0:0:0:
292,138,213560,5,0,3:0:0:0:
398,285,213736,2,0,B|335:261|324:212|324:212|336:259|304:293,1,192,8|0,0:0|3:0,0:0:0:0:
94,356,214207,1,0,3:0:0:0:
100,351,214266,2,0,P|176:354|268:383,1,144,10|0,0:0|0:0,0:0:0:0:
194,278,214619,6,0,P|201:215|187:121,1,144,6|0,3:2|0:0,0:0:0:0:
47,29,214972,2,0,P|90:82|132:100,1,96,8|2,0:0|0:0,0:0:0:0:
279,24,215324,1,0,0:0:0:0:
119,171,215501,6,0,P|111:193|106:218,1,48,0|0,3:0|0:0,0:0:0:0:
283,353,215677,1,10,0:0:0:0:
283,353,215854,6,0,L|394:376,1,96
207,131,216207,6,0,P|211:154|219:178,1,48,0|0,3:0|0:0,0:0:0:0:
373,286,216383,1,8,0:0:0:0:
373,286,216560,6,0,L|484:309,1,96,0|2,0:0|0:0,0:0:0:0:
253,258,216913,1,0,3:0:0:0:
477,224,217089,2,0,P|488:176|485:103,1,96,10|2,0:0|0:0,0:0:0:0:
383,23,217383,1,0,1:0:0:0:
376,21,217442,6,0,P|323:27|340:107,1,144,2|0,3:2|0:0,0:0:0:0:
489,130,217795,2,0,B|427:113|392:151|392:151|354:192|287:170,1,192,8|0,0:0|0:0,0:0:0:0:
168,112,218324,5,0,3:0:0:0:
247,281,218501,1,10,0:0:0:0:
247,281,218677,6,0,L|237:380,1,96
104,95,219030,6,0,L|173:112,1,48,0|0,3:0|0:0,0:0:0:0:
342,254,219207,1,8,0:0:0:0:
342,254,219383,6,0,L|332:353,1,96,0|2,0:0|0:0,0:0:0:0:
466,210,219736,1,0,3:0:0:0:
273,157,219913,2,0,P|248:118|237:53,1,96,10|0,0:0|0:0,0:0:0:0:
351,85,220207,1,0,1:0:0:0:
358,86,220266,6,0,P|395:103|351:168,1,144,2|0,3:2|0:0,0:0:0:0:
179,223,220619,2,0,B|243:216|274:157|274:157|267:200|300:231,1,192,8|0,0:0|0:0,0:0:0:0:
455,311,221148,5,0,3:0:0:0:
402,89,221324,1,10,0:0:0:0:
402,89,221501,6,0,P|413:34|431:-6,1,96
304,12,221854,5,0,3:0:0:0:
391,188,222030,1,8,0:0:0:0:
391,188,222207,6,0,P|406:222|426:251,1,48,0|0,0:0|1:0,0:0:0:0:
425,307,222383,1,2,0:0:0:0:
346,294,222472,5,0,1:0:0:0:
331,298,222560,2,0,L|272:320,1,48,0|0,3:0|0:0,0:0:0:0:
419,338,222736,5,10,0:0:0:0:
196,288,222913,1,0,0:0:0:0:
313,142,223089,6,0,L|335:-14,1,144,2|0,3:2|0:0,0:0:0:0:
231,72,223442,2,0,P|166:77|87:99,1,128,8|0,0:0|1:0,0:0:0:0:
95,96,223736,1,0,1:0:0:0:
86,101,223795,1,2,1:2:0:0:
299,9,223972,5,0,3:0:0:0:
196,288,224148,1,10,0:0:0:0:
196,288,224324,5,0,3:0:0:0:
313,141,224501,2,0,L|291:297,1,144,0|0,3:0|0:0,0:0:0:0:
113,384,224854,2,0,B|97:343|132:293|195:287|231:335|231:335|267:379|330:359,1,288,8|0,0:0|3:0,0:0:0:0:
401,257,225501,1,0,3:0:0:0:
402,249,225560,2,0,L|424:93,1,144,10|0,0:0|0:0,0:0:0:0:
341,22,225913,5,2,3:2:0:0:
