osu file format v14

[General]
AudioFilename: audio.mp3
AudioLeadIn: 0
PreviewTime: 111527
Countdown: 0
SampleSet: Soft
StackLeniency: 0.4
Mode: 0
LetterboxInBreaks: 0
WidescreenStoryboard: 0

[Editor]
Bookmarks: 11292,112939,180703
DistanceSpacing: 1.4
BeatDivisor: 4
GridSize: 32
TimelineZoom: 2.099999

[Metadata]
Title:Reiteration
TitleUnicode:Reiteration
Artist:Au5
ArtistUnicode:Au5
Creator:NeilPerry
Version:Collab Advanced
Source:
Tags:drumstep Monstercat dnb wub dubstep rmdy snownino_ namki fcl wajinshu vanucik
BeatmapID:1062697
BeatmapSetID:487775

[Difficulty]
HPDrainRate:5
CircleSize:4
OverallDifficulty:4
ApproachRate:6.5
SliderMultiplier:1.1
SliderTickRate:1

[Events]
//Background and Video events
0,0,"bgv2.jpg",0,0
//Break Periods
2,45407,55526
2,57053,61173
2,135760,145879
2,147406,151526
//Storyboard Layer 0 (Background)
//Storyboard Layer 1 (Fail)
//Storyboard Layer 2 (Pass)
//Storyboard Layer 3 (Foreground)
//Storyboard Sound Samples

[TimingPoints]
11325,352.941176470588,4,2,1,30,1,0
11325,-153.846153846153,4,2,1,30,0,0
21207,-100,4,2,1,60,0,0
22619,-100,4,2,1,60,0,0
53677,-107.52688172043,4,2,1,5,0,0
54383,-107.52688172043,4,2,1,10,0,0
54736,-107.52688172043,4,2,1,15,0,0
55089,-107.52688172043,4,2,1,20,0,0
55442,-107.52688172043,4,2,1,25,0,0
55795,-107.52688172043,4,2,1,30,0,0
56148,-107.52688172043,4,2,1,40,0,0
56501,-83.3333333333333,4,2,1,60,0,0
56854,-133.333333333333,4,2,1,10,0,0
59324,-133.333333333333,4,2,1,12,0,0
59501,-133.333333333333,4,2,1,15,0,0
59677,-133.333333333333,4,2,1,17,0,0
59854,-133.333333333333,4,2,1,20,0,0
60030,-133.333333333333,4,2,1,22,0,0
60207,-133.333333333333,4,2,1,25,0,0
60383,-133.333333333333,4,2,1,27,0,0
60560,-133.333333333333,4,2,1,30,0,0
60736,-133.333333333333,4,2,1,32,0,0
60913,-133.333333333333,4,2,1,34,0,0
61089,-133.333333333333,4,2,1,36,0,0
61266,-133.333333333333,4,2,1,38,0,0
61442,-133.333333333333,4,2,1,40,0,0
61619,-133.333333333333,4,2,1,44,0,0
61795,-133.333333333333,4,2,1,48,0,0
61972,-133.333333333333,4,2,1,54,0,0
62148,-83.3333333333333,4,2,1,60,0,0
62854,-117.647058823529,4,2,1,60,0,0
64972,-100,4,2,1,60,0,0
67795,-100,4,2,1,60,0,1
111560,-100,4,2,1,60,0,0
144030,-107.52688172043,4,2,1,5,0,0
144736,-107.52688172043,4,2,1,10,0,0
145089,-107.52688172043,4,2,1,15,0,0
145442,-107.52688172043,4,2,1,20,0,0
145795,-107.52688172043,4,2,1,25,0,0
146148,-107.52688172043,4,2,1,30,0,0
146501,-107.52688172043,4,2,1,40,0,0
146854,-83.3333333333333,4,2,1,60,0,0
147207,-133.333333333333,4,2,1,10,0,0
149677,-133.333333333333,4,2,1,12,0,0
149854,-133.333333333333,4,2,1,15,0,0
150030,-133.333333333333,4,2,1,17,0,0
150207,-133.333333333333,4,2,1,20,0,0
150383,-133.333333333333,4,2,1,22,0,0
150560,-133.333333333333,4,2,1,25,0,0
150736,-133.333333333333,4,2,1,27,0,0
150913,-133.333333333333,4,2,1,30,0,0
151089,-133.333333333333,4,2,1,32,0,0
151266,-133.333333333333,4,2,1,34,0,0
151442,-133.333333333333,4,2,1,36,0,0
151619,-133.333333333333,4,2,1,38,0,0
151795,-133.333333333333,4,2,1,40,0,0
151972,-133.333333333333,4,2,1,44,0,0
152148,-133.333333333333,4,2,1,48,0,0
152324,-133.333333333333,4,2,1,54,0,0
152501,-83.3333333333333,4,2,1,60,0,0
153207,-117.647058823529,4,2,1,60,0,0
155324,-100,4,2,1,60,0,0
158148,-100,4,2,1,60,0,1
201913,-107.52688172043,4,2,1,60,0,0

[Colours]
Combo1 : 152,31,55
Combo2 : 163,173,175
Combo3 : 235,175,234
Combo4 : 90,125,177

[HitObjects]
64,174,11325,6,0,B|127:196|175:149|175:149|212:200|266:186,1,214.49999018097,0|0,0:0|0:0,0:0:0:0:
352,207,12736,2,0,P|343:110|245:114,1,214.49999018097,0|0,0:0|0:0,0:0:0:0:
205,143,13972,1,0,0:0:0:0:
205,143,14148,6,0,P|193:241|213:358,1,214.49999018097,0|0,0:0|0:0,0:0:0:0:
312,349,15560,2,0,B|357:316|357:316|461:326|461:326|519:293,1,214.49999018097,0|4,0:0|0:0,0:0:0:0:
466,207,16972,6,0,B|404:194|362:234|362:234|320:219|320:219|257:241,1,214.49999018097,0|0,0:0|0:0,0:0:0:0:
191,305,18383,2,0,P|174:275|263:144,1,214.49999018097,0|0,0:0|0:0,0:0:0:0:
306,126,19619,1,0,0:0:0:0:
306,126,19795,6,0,B|321:91|300:49|300:49|376:94|440:67,1,214.49999018097,0|0,0:0|0:0,0:0:0:0:
256,192,21207,12,8,22266,3:0:0:0:
79,253,22619,6,0,P|70:206|99:126,1,110,2|8,3:2|0:0,0:0:0:0:
145,98,23148,2,0,B|186:114|186:114|266:100,1,110,2|0,0:0|0:0,0:0:0:0:
324,125,23677,2,0,P|336:165|330:194,1,55,10|0,0:2|0:0,0:0:0:0:
298,245,24030,5,0,0:0:0:0:
298,245,24207,2,0,L|223:251,1,55,0|8,3:0|0:0,0:0:0:0:
173,282,24560,1,0,0:0:0:0:
104,248,24736,2,0,P|97:217|97:202,2,27.5,0|0|0,0:0|0:0|0:0,0:0:0:0:
66,315,25089,2,0,L|-4:317,1,55,8|0,0:0|0:0,0:0:0:0:
14,239,25442,6,0,P|15:197|72:137,1,110,2|8,3:2|0:0,0:0:0:0:
131,157,25972,2,0,L|259:151,1,110,2|0,0:0|0:0,0:0:0:0:
308,114,26501,2,0,P|347:102|384:102,1,55,10|2,0:2|0:0,0:0:0:0:
432,130,26854,5,0,0:0:0:0:
432,130,27030,1,2,3:2:0:0:
404,202,27207,2,0,L|399:273,1,55,8|0,0:0|0:0,0:0:0:0:
341,307,27560,2,0,P|308:307|275:313,1,55,0|0,0:0|3:0,0:0:0:0:
217,346,27913,1,12,0:0:0:0:
143,324,28089,1,0,0:0:0:0:
88,269,28266,6,0,P|76:221|97:153,1,110,2|8,3:2|0:0,0:0:0:0:
149,113,28795,2,0,P|197:124|276:117,1,110,2|0,0:0|0:0,0:0:0:0:
329,93,29324,2,0,L|405:98,1,55,10|0,0:2|0:0,0:0:0:0:
456,122,29677,5,0,0:0:0:0:
456,122,29854,2,0,L|462:49,1,55,0|8,3:0|0:0,0:0:0:0:
400,18,30207,1,0,0:0:0:0:
323,19,30383,2,0,P|296:24|282:29,2,27.5,0|0|0,0:0|0:0|0:0,0:0:0:0:
329,93,30736,2,0,L|338:174,1,55,8|0,0:0|0:0,0:0:0:0:
358,221,31089,6,0,P|328:224|263:177,1,110,2|8,3:2|0:0,0:0:0:0:
187,176,31619,2,0,L|181:290,1,110,0|0,0:0|0:0,0:0:0:0:
107,308,32148,2,0,P|84:284|69:251,1,55,10|0,0:0|0:0,0:0:0:0:
61,188,32501,6,0,L|0:180,2,55,0|0|8,0:0|3:0|0:0,0:0:0:0:
103,123,33030,2,0,L|72:106,2,27.5,0|0|0,0:0|0:0|0:0,0:0:0:0:
164,76,33383,2,0,L|143:47,2,27.5,0|0|8,3:0|3:0|0:3,0:0:0:0:
239,58,33736,1,0,0:0:0:0:
305,97,33913,6,0,P|342:108|421:85,1,110,2|8,3:2|0:0,0:0:0:0:
484,113,34442,2,0,P|497:155|474:236,1,110,2|0,0:0|0:0,0:0:0:0:
439,281,34972,2,0,P|405:276|368:281,1,55,10|0,0:0|0:0,0:0:0:0:
316,313,35324,5,2,0:0:0:0:
316,313,35501,2,0,L|251:308,1,55,2|10,3:2|0:0,0:0:0:0:
200,260,35854,1,2,0:0:0:0:
129,289,36030,2,0,P|99:298|54:289,1,55,2|2,0:0|0:0,0:0:0:0:
94,221,36383,2,0,P|63:216|26:189,1,55,10|2,0:0|0:0,0:0:0:0:
41,128,36736,6,0,B|27:85|27:85|44:10,1,110,2|8,3:2|0:0,0:0:0:0:
112,52,37266,2,0,L|239:46,1,110,2|2,0:0|0:0,0:0:0:0:
296,65,37795,2,0,P|282:98|246:120,1,55,10|0,0:0|0:0,0:0:0:0:
227,176,38148,6,0,L|235:241,1,55,0|2,0:0|3:2,0:0:0:0:
255,304,38501,1,8,0:0:0:0:
327,328,38677,1,0,0:0:0:0:
399,300,38854,2,0,L|466:289,1,55,2|2,0:0|3:2,0:0:0:0:
470,215,39207,2,0,L|403:204,1,55,10|2,0:0|0:0,0:0:0:0:
348,168,39560,6,0,P|332:121|356:46,1,110,2|8,3:2|0:0,0:0:0:0:
276,25,40089,2,0,B|239:40|239:40|150:33,1,110,2|2,0:0|0:0,0:0:0:0:
100,70,40619,2,0,L|92:128,1,55,10|0,0:0|0:0,0:0:0:0:
46,186,40972,6,0,L|38:253,2,55,2|2|8,0:0|3:2|0:0,0:0:0:0:
122,194,41501,1,0,0:0:0:0:
189,157,41677,2,0,P|230:148|267:151,1,55,2|2,0:0|0:0,0:0:0:0:
307,105,42030,2,0,P|347:114|380:132,1,55,10|2,0:0|0:0,0:0:0:0:
421,165,42383,6,0,L|426:284,1,110,2|8,3:2|0:0,0:0:0:0:
366,325,42913,1,2,0:0:0:0:
295,355,43089,2,0,L|223:342,1,55,2|8,3:2|0:0,0:0:0:0:
182,294,43442,1,0,0:0:0:0:
182,294,43619,1,0,3:0:0:0:
167,218,43795,6,0,L|173:152,1,55,8|0,0:0|0:0,0:0:0:0:
185,87,44148,1,0,3:0:0:0:
245,133,44324,2,0,L|319:129,1,55,8|0,0:0|0:0,0:0:0:0:
376,124,44677,1,0,3:0:0:0:
345,195,44854,2,0,L|340:261,1,55,8|0,2:0|0:0,0:0:0:0:
334,326,45207,5,4,3:1:0:0:
115,186,56501,6,0,B|152:166|188:169|188:169|208:194|256:187,1,131.99999597168,8|0,0:0|0:1,0:0:0:0:
397,186,62148,6,0,B|360:166|324:169|324:169|304:194|256:187,1,131.99999597168,8|0,0:0|3:0,0:0:0:0:
273,188,62854,6,0,L|262:300,1,93.500001783371,0|0,3:0|3:0,0:0:0:0:
137,318,63560,2,0,L|127:224,1,93.500001783371,0|0,3:0|3:0,0:0:0:0:
150,95,64266,2,0,P|186:84|259:81,1,93.500001783371,0|0,3:0|3:0,0:0:0:0:
354,147,64972,6,0,L|412:141,1,55,0|0,3:0|3:0,0:0:0:0:
399,217,65324,2,0,L|459:224,1,55,0|0,3:0|3:0,0:0:0:0:
489,291,65677,2,0,P|456:320|375:312,2,110,0|0|0,1:0|1:0|3:0,0:0:0:0:
167,242,67266,1,0,0:0:0:0:
167,242,67442,2,0,L|174:169,1,55,8|0,1:0|3:0,0:0:0:0:
218,125,67795,6,0,P|255:137|337:103,1,110,4|8,3:1|0:0,0:0:0:0:
374,61,68324,1,0,0:0:0:0:
398,134,68501,2,0,P|399:175|393:204,1,55,0|0,1:0|3:0,0:0:0:0:
336,237,68854,1,8,2:0:0:0:
336,237,69030,1,0,0:0:0:0:
281,291,69207,6,0,P|243:286|152:292,1,110,0|8,0:0|0:0,0:0:0:0:
102,322,69736,1,0,0:0:0:0:
102,322,69913,2,0,P|92:281|95:257,1,55,0|0,1:0|3:0,0:0:0:0:
120,196,70266,2,0,L|115:123,1,55,8|0,0:0|0:0,0:0:0:0:
98,65,70619,6,0,P|146:69|194:125,1,110,0|8,3:0|0:0,0:0:0:0:
249,158,71148,1,0,3:1:0:0:
305,106,71324,2,0,L|431:102,1,110,0|8,0:0|0:0,0:0:0:0:
461,164,71854,1,0,0:0:0:0:
441,238,72030,2,0,L|315:234,1,110,0|8,0:0|0:0,0:0:0:0:
289,300,72560,1,0,3:0:0:0:
289,300,72736,2,0,P|254:275|175:288,1,110,0|8,0:0|0:0,0:0:0:0:
62,238,73442,6,0,B|53:196|53:196|70:114,1,110,0|8,3:0|0:0,0:0:0:0:
101,60,73972,1,0,0:0:0:0:
143,124,74148,2,0,P|183:130|262:99,1,110,0|12,0:0|0:0,0:0:0:0:
316,73,74677,1,0,0:0:0:0:
390,93,74854,6,0,P|419:113|443:191,1,110,0|8,3:0|0:0,0:0:0:0:
372,317,75560,2,0,L|303:320,1,55,0|4,0:0|3:2,0:0:0:0:
250,280,75913,1,2,3:0:0:0:
250,280,76089,1,2,3:0:0:0:
177,306,76266,6,0,L|110:297,2,36.6666666666667,0|0|0,3:0|0:0|0:0,0:0:0:0:
170,254,76619,2,0,L|168:194,1,55,8|0,0:0|0:0,0:0:0:0:
121,137,76972,1,0,3:0:0:0:
197,127,77148,2,0,L|199:67,1,55,8|0,0:0|0:0,0:0:0:0:
250,14,77501,1,0,3:0:0:0:
300,72,77677,6,0,P|332:94|420:79,1,110,8|0,1:1|3:1,0:0:0:0:
478,96,78207,1,0,0:0:0:0:
436,160,78383,2,0,L|443:284,1,110,2|8,0:0|1:0,0:0:0:0:
314,357,79089,6,0,B|250:340|250:340|195:351,1,110,4|8,3:1|0:0,0:0:0:0:
130,337,79619,1,0,0:0:0:0:
59,306,79795,2,0,P|50:266|50:231,1,55,0|0,1:0|3:0,0:0:0:0:
71,178,80148,1,8,0:0:0:0:
71,178,80324,1,0,0:0:0:0:
139,142,80501,6,0,L|255:137,1,110,0|8,1:0|0:0,0:0:0:0:
318,170,81030,2,0,P|324:206|323:244,1,55,0|0,0:0|0:0,0:0:0:0:
312,300,81383,1,0,3:0:0:0:
368,352,81560,2,0,L|441:349,1,55,8|0,0:0|0:0,0:0:0:0:
480,298,81913,6,0,P|457:260|472:178,1,110,0|8,3:0|0:0,0:0:0:0:
468,119,82442,2,0,P|429:108|358:127,1,110,0|0,3:0|0:0,0:0:0:0:
294,161,82972,1,8,0:0:0:0:
222,188,83148,2,0,P|165:167|136:119,1,110,0|0,3:0|0:0,0:0:0:0:
88,72,83677,5,8,0:0:0:0:
88,72,83854,1,0,3:0:0:0:
33,125,84030,2,0,P|22:169|20:191,1,55,0|0,1:0|3:0,0:0:0:0:
39,253,84383,1,8,0:0:0:0:
171,330,84736,6,0,B|214:308|214:308|295:319,1,110,0|8,3:0|0:0,0:0:0:0:
352,308,85266,1,0,0:0:0:0:
409,257,85442,2,0,P|415:217|410:186,1,55,0|0,1:0|3:0,0:0:0:0:
362,145,85795,2,0,L|366:79,1,55,8|0,0:0|0:0,0:0:0:0:
335,18,86148,2,0,P|303:37|292:127,2,110,0|8|0,3:0|0:0|0:1,0:0:0:0:
187,65,87207,2,0,L|115:62,1,55,2|2,3:0|3:0,0:0:0:0:
76,115,87560,6,0,L|81:235,1,110,0|8,3:0|0:0,0:0:0:0:
47,294,88089,2,0,P|77:280|168:288,1,110,0|8,0:0|0:0,0:0:0:0:
229,270,88619,1,0,0:0:0:0:
242,194,88795,1,0,3:0:0:0:
309,232,88972,2,0,B|361:240|399:295|399:295|429:250|423:196|423:196|484:158|471:89,1,330,8|0,0:1|0:0,0:0:0:0:
397,111,90207,2,0,L|402:48,1,55,0|0,3:0|3:0,0:0:0:0:
402,57,90736,6,0,B|359:63|359:63|275:39,1,110,8|0,1:0|0:0,0:0:0:0:
255,111,91266,2,0,B|380:148,1,110,8|0,1:1|0:0,0:0:0:0:
428,178,91795,2,0,P|402:206|369:215,1,55,0|0,3:0|0:0,0:0:0:0:
331,266,92148,2,0,L|219:270,1,110,8|0,0:0|0:0,0:0:0:0:
195,197,92677,2,0,L|304:193,1,110,8|0,0:0|0:0,0:0:0:0:
244,144,93207,6,0,P|226:98|245:24,1,110,0|8,1:1|0:0,0:0:0:0:
312,29,93736,1,4,0:3:0:0:
312,29,93913,2,0,L|305:94,2,55,0|0|0,0:0|0:1|0:0,0:0:0:0:
387,45,94442,1,0,0:0:0:0:
387,45,94619,2,0,L|380:110,1,55,0|0,0:0|0:1,0:0:0:0:
361,173,94972,2,0,P|327:177|285:169,1,55,8|0,0:0|3:0,0:0:0:0:
243,130,95324,2,0,B|218:182|246:223|246:223|207:218|176:254,1,165,0|2,1:1|0:0,0:0:0:0:
139,307,96030,5,0,3:0:0:0:
139,307,96383,2,0,P|89:304|32:360,1,110,8|0,1:1|0:0,0:0:0:0:
0,269,96913,2,0,P|41:240|99:225,1,110,8|0,1:1|0:0,0:0:0:0:
180,222,97442,1,0,3:0:0:0:
180,222,97795,2,0,P|170:166|175:106,1,110,8|0,0:0|0:0,0:0:0:0:
250,110,98324,2,0,P|245:167|262:229,1,110,8|0,0:0|0:0,0:0:0:0:
316,267,98854,6,0,L|380:264,1,55,0|0,3:1|0:0,0:0:0:0:
447,273,99207,2,0,P|443:243|378:190,1,110,8|0,0:0|3:0,0:0:0:0:
343,127,99736,2,0,B|359:74|359:74|339:11,1,110,8|0,0:0|3:0,0:0:0:0:
265,34,100266,2,0,P|228:40|190:28,1,55,8|0,0:1|0:0,0:0:0:0:
148,82,100619,2,0,L|134:148,1,55,0|0,0:3|0:0,0:0:0:0:
176,202,100972,2,0,P|212:216|294:189,2,110,2|8|0,0:0|1:0|3:0,0:0:0:0:
48,116,102030,6,0,B|34:75|34:75|41:3,1,110,8|0,0:1|0:0,0:0:0:0:
118,6,102560,2,0,B|113:66|113:66|134:119,1,110,8|0,0:1|0:0,0:0:0:0:
208,120,103089,1,0,0:0:0:0:
208,120,103442,2,0,B|260:102|260:102|335:118,1,110,8|0,0:0|0:0,0:0:0:0:
310,191,103972,2,0,B|265:183|265:183|203:205,1,110,8|0,0:0|0:0,0:0:0:0:
133,235,104501,5,0,3:0:0:0:
21,128,104854,1,0,0:0:0:0:
96,40,105119,2,0,P|130:41|167:54,1,55,0|0,0:0|0:1,0:0:0:0:
263,22,105560,1,8,0:0:0:0:
348,98,105824,2,0,P|313:107|282:101,1,55,0|0,0:0|0:1,0:0:0:0:
180,127,106266,1,8,0:0:0:0:
112,265,106619,2,0,P|161:303|268:298,1,165,0|0,0:1|0:0,0:0:0:0:
303,238,107324,1,0,3:0:0:0:
236,101,107677,6,0,L|112:92,1,110,8|0,0:0|0:0,0:0:0:0:
87,160,108207,2,0,L|211:151,1,110,8|0,0:0|0:0,0:0:0:0:
260,196,108736,1,0,3:0:0:0:
260,196,109089,2,0,P|246:234|274:317,1,110,8|0,1:0|0:0,0:0:0:0:
193,340,109619,2,0,P|208:287|193:235,1,110,8|0,0:1|0:0,0:0:0:0:
194,158,110148,5,0,3:0:0:0:
194,158,110501,2,0,L|208:44,1,110,8|0,0:0|3:0,0:0:0:0:
281,26,111030,2,0,L|294:135,1,110,8|0,0:0|3:0,0:0:0:0:
350,188,111560,6,0,B|313:230|255:217|225:172|225:172|174:209|174:209|174:258|265:291,1,330,8|0,0:1|0:0,0:0:0:0:
296,140,112972,6,0,P|282:84|308:28,1,110,6|8,3:2|0:0,0:0:0:0:
356,92,113501,2,0,B|388:76|388:76|486:104,1,110,2|0,0:0|3:0,0:0:0:0:
460,172,114030,2,0,L|468:244,1,55,10|0,0:0|0:0,0:0:0:0:
440,300,114383,5,0,0:0:0:0:
440,300,114560,2,0,L|364:308,1,55,0|8,3:0|0:0,0:0:0:0:
308,312,114913,1,0,0:0:0:0:
236,332,115089,2,0,P|229:304|236:280,2,55,2|0|10,0:0|3:0|0:0,0:0:0:0:
168,372,115619,1,2,0:0:0:0:
124,312,115795,6,0,L|12:308,1,110,2|8,3:2|0:0,0:0:0:0:
36,232,116324,2,0,L|160:236,1,110,0|0,0:0|3:0,0:0:0:0:
200,292,116854,1,10,0:0:0:0:
200,292,117030,1,0,0:0:0:0:
156,228,117207,6,0,L|148:160,1,55,0|2,0:0|3:2,0:0:0:0:
72,180,117560,2,0,L|60:104,1,55,8|0,0:0|0:0,0:0:0:0:
28,56,117913,2,0,B|76:48|76:48|160:68,1,110,2|10,0:0|0:0,0:0:0:0:
256,160,118619,6,0,P|312:156|360:100,1,110,2|8,3:2|0:0,0:0:0:0:
368,48,119148,2,0,P|424:104|420:156,1,110,0|0,0:0|3:0,0:0:0:0:
456,200,119677,2,0,L|328:212,1,110,10|0,0:0|0:0,0:0:0:0:
288,260,120207,2,0,L|424:248,1,110,2|0,3:2|0:0,0:0:0:0:
428,320,120736,1,2,0:0:0:0:
448,168,121089,2,0,L|460:100,1,55,10|2,0:0|0:0,0:0:0:0:
464,36,121442,6,0,B|416:28|416:28|340:56,1,110,2|8,3:2|0:0,0:0:0:0:
336,124,121972,2,0,L|200:128,1,110,0|8,0:0|0:0,0:0:0:0:
176,184,122501,1,2,0:0:0:0:
52,92,122854,2,0,P|36:156|52:216,1,110,8|0,0:0|3:0,0:0:0:0:
80,268,123383,2,0,L|212:280,1,110,8|0,0:0|3:0,0:0:0:0:
252,324,123913,2,0,P|272:272|268:248,1,55,10|0,0:0|0:0,0:0:0:0:
240,204,124266,6,0,L|388:192,1,110,6|8,3:2|0:0,0:0:0:0:
412,240,124795,2,0,B|428:204|428:204|408:116,1,110,2|0,0:0|3:0,0:0:0:0:
348,92,125324,2,0,L|224:80,1,110,10|0,0:0|0:0,0:0:0:0:
164,100,125854,6,0,P|164:60|192:24,1,55,2|8,3:2|0:0,0:0:0:0:
236,8,126207,1,0,0:0:0:0:
164,36,126383,2,0,P|132:32|100:44,1,55,2|0,0:0|3:0,0:0:0:0:
68,104,126736,1,10,0:0:0:0:
68,104,126913,1,2,0:0:0:0:
40,176,127089,6,0,B|28:216|28:216|44:304,1,110,0|8,3:2|0:0,0:0:0:0:
116,296,127619,2,0,L|248:304,1,110,0|0,0:0|3:0,0:0:0:0:
288,256,128148,2,0,L|416:260,1,110,10|0,0:0|0:0,0:0:0:0:
428,332,128677,5,2,3:2:0:0:
476,272,128854,2,0,P|484:240|452:164,1,110,8|2,0:0|0:0,0:0:0:0:
380,164,129383,1,0,3:0:0:0:
416,95,129560,1,10,0:0:0:0:
451,26,129736,1,0,0:0:0:0:
451,26,129913,6,0,P|426:11|399:3,1,55,2|0,3:2|0:0,0:0:0:0:
354,62,130266,2,0,P|314:87|294:158,1,110,8|0,0:0|0:0,0:0:0:0:
312,218,130795,1,0,3:0:0:0:
314,295,130972,2,0,L|185:305,1,110,10|0,0:0|0:0,0:0:0:0:
127,301,131501,5,2,3:2:0:0:
110,377,131677,1,8,0:0:0:0:
110,377,131854,2,0,L|50:372,2,55,0|2|0,0:0|0:0|3:0,0:0:0:0:
190,372,132383,1,10,0:0:0:0:
220,304,132560,1,2,0:0:0:0:
228,228,132736,6,0,B|224:188|224:188|176:116,1,110,2|8,3:2|0:0,0:0:0:0:
140,68,133266,2,0,L|8:60,1,110,0|0,0:0|3:0,0:0:0:0:
28,140,133795,1,10,0:0:0:0:
28,140,133972,1,0,3:0:0:0:
64,208,134148,6,0,L|68:340,1,110,0|8,3:0|0:0,0:0:0:0:
136,352,134677,1,0,0:0:0:0:
136,352,134854,1,0,0:0:0:0:
179,288,135030,2,0,P|193:301|211:330,2,27.5,0|8|0,3:0|0:0|0:0,0:0:0:0:
129,141,135560,5,0,3:0:0:0:
236,132,146854,6,0,B|216:104|216:104|184:156|208:200,1,131.99999597168,8|0,0:0|0:0,0:0:0:0:
312,320,152501,6,0,B|334:279|302:227|302:227|282:255,1,131.99999597168,10|0,0:0|3:0,0:0:0:0:
176,176,153207,6,0,L|168:60,1,93.500001783371,0|0,3:0|3:0,0:0:0:0:
288,136,153913,2,0,L|308:28,1,93.500001783371,0|0,3:0|3:0,0:0:0:0:
408,124,154619,2,0,L|444:20,1,93.500001783371,0|0,3:0|3:0,0:0:0:0:
456,188,155324,6,0,L|428:260,1,55,0|0,3:0|3:0,0:0:0:0:
384,296,155677,2,0,L|344:228,1,55,0|0,3:0|3:0,0:0:0:0:
280,232,156030,2,0,P|304:192|368:172,2,110,0|0|0,1:0|1:0|3:0,0:0:0:0:
56,288,157266,6,0,L|60:248,2,27.5,0|0|8,0:0|0:0|0:1,0:0:0:0:
56,288,158148,6,0,P|116:280|184:300,1,110,4|0,3:0|1:0,0:0:0:0:
220,340,158677,1,2,0:0:0:0:
292,364,158854,2,0,P|289:310|250:270,1,110,8|0,0:0|1:0,0:0:0:0:
191,227,159383,1,2,0:0:0:0:
244,176,159560,6,0,L|248:112,1,55,0|0,3:0|0:0,0:0:0:0:
312,80,159913,1,0,1:0:0:0:
312,80,160089,1,2,0:0:0:0:
368,136,160266,1,0,0:0:0:0:
368,136,160442,1,0,3:0:0:0:
420,196,160619,2,0,L|432:272,1,55,0|0,0:0|0:0,0:0:0:0:
448,324,160972,6,0,B|396:328|396:328|332:360,1,110,0|0,3:0|1:0,0:0:0:0:
268,368,161501,1,4,3:0:0:0:
200,332,161677,2,0,L|196:208,1,110,8|0,0:0|1:0,0:0:0:0:
119,235,162207,6,0,L|115:111,1,110,0|0,0:0|1:0,0:0:0:0:
54,77,162736,1,4,3:1:0:0:
124,44,162913,1,0,3:0:0:0:
188,88,163089,1,8,0:1:0:0:
260,224,163442,1,8,0:1:0:0:
328,84,163795,6,0,L|321:152,1,55,4|0,3:1|0:0,0:0:0:0:
393,168,164148,2,0,L|405:40,1,110,0|8,3:0|0:0,0:0:0:0:
480,60,164677,1,0,3:0:0:0:
476,136,164854,2,0,L|472:208,1,55,0|0,0:0|0:0,0:0:0:0:
420,248,165207,6,0,B|460:276|504:264|504:264|476:304|480:336,1,165,0|0,3:0|0:0,0:0:0:0:
404,340,165913,1,8,0:0:0:0:
328,344,166089,2,0,L|268:348,1,55,4|0,3:1|0:0,0:0:0:0:
196,348,166442,1,2,3:0:0:0:
120,340,166619,6,0,L|112:264,1,55,0|0,3:1|0:0,0:0:0:0:
44,256,166972,2,0,L|32:136,1,110,0|8,3:0|0:0,0:0:0:0:
76,84,167501,2,0,B|108:60|108:60|192:84,1,110,0|0,3:0|0:0,0:0:0:0:
244,116,168030,6,0,L|316:116,1,55,0|0,3:1|0:0,0:0:0:0:
368,84,168383,2,0,L|440:80,1,55,0|0,3:0|0:0,0:0:0:0:
440,156,168736,1,8,0:0:0:0:
472,228,168913,2,0,B|444:240|420:232|420:232|392:224|356:236,1,110,0|0,3:0|0:0,0:0:0:0:
396,304,169442,6,0,L|388:376,1,55,4|0,3:1|0:0,0:0:0:0:
312,356,169795,1,0,1:0:0:0:
312,356,170148,2,0,L|188:348,1,110,8|0,0:0|1:0,0:0:0:0:
125,341,170677,1,2,0:0:0:0:
95,269,170854,6,0,P|103:217|83:153,1,110,0|0,3:0|1:0,0:0:0:0:
24,118,171383,1,2,0:0:0:0:
89,76,171560,2,0,P|137:72|201:96,1,110,8|0,1:0|0:1,0:0:0:0:
236,156,172089,1,0,0:1:0:0:
280,220,172266,6,0,P|308:180|300:116,1,110,0|0,0:0|1:0,0:0:0:0:
260,60,172795,1,0,3:0:0:0:
336,60,172972,2,0,L|464:64,1,110,8|0,0:0|1:0,0:0:0:0:
462,138,173501,6,0,P|484:180|468:245,1,110,4|0,3:0|1:0,0:0:0:0:
404,277,174030,1,8,0:0:0:0:
466,321,174207,1,0,3:0:0:0:
412,375,174383,1,8,1:0:0:0:
300,284,174736,1,8,1:0:0:0:
164,356,175089,6,0,P|156:300|172:244,1,110,12|0,3:0|3:0,0:0:0:0:
232,204,175619,2,0,P|236:152|232:136,1,55,0|8,0:0|0:0,0:0:0:0:
180,96,175972,1,0,3:0:0:0:
127,152,176148,2,0,L|67:156,1,55,0|0,0:0|0:0,0:0:0:0:
102,84,176501,6,0,P|126:40|190:20,1,110,0|0,3:0|1:1,0:0:0:0:
252,46,177030,1,0,0:0:0:0:
235,121,177207,1,8,0:0:0:0:
308,141,177383,2,0,L|372:149,1,55,4|0,3:1|0:0,0:0:0:0:
438,132,177736,1,2,3:0:0:0:
434,208,177913,6,0,L|442:288,1,55,0|0,3:0|0:0,0:0:0:0:
460,340,178266,2,0,B|432:348|405:336|405:336|380:324|348:332,1,110,8|0,0:0|0:0,0:0:0:0:
276,352,178795,2,0,L|268:284,1,55,8|0,0:0|0:0,0:0:0:0:
256,220,179148,1,0,0:0:0:0:
196,268,179324,6,0,P|148:264|112:160,1,165,8|0,0:1|1:0,0:0:0:0:
491,119,180736,5,4,3:1:0:0:
339,145,181089,2,0,L|339:26,1,110,0|8,3:0|0:0,0:0:0:0:
261,36,181619,2,0,L|261:163,1,110,0|0,3:0|0:0,0:0:0:0:
253,223,182148,6,0,P|204:200|184:131,1,110,0|0,3:0|3:0,0:0:0:0:
181,73,182677,1,0,0:0:0:0:
181,73,182854,2,0,P|142:78|120:78,1,55,8|4,0:0|3:1,0:0:0:0:
61,120,183207,2,0,P|70:150|75:178,1,55,0|0,0:0|0:0,0:0:0:0:
61,249,183560,6,0,P|107:246|151:179,1,110,0|0,3:0|3:0,0:0:0:0:
201,144,184089,1,0,0:0:0:0:
201,144,184266,2,0,L|271:140,1,55,8|0,0:0|0:1,0:0:0:0:
407,116,184795,1,0,3:0:0:0:
407,116,184972,6,0,L|406:181,1,55,0|0,3:0|0:1,0:0:0:0:
468,216,185324,2,0,L|467:281,1,55,0|0,1:0|3:0,0:0:0:0:
411,324,185677,2,0,B|381:335|345:323|345:323|303:331|303:331|274:322|238:329,1,165,8|0,0:0|0:0,0:0:0:0:
175,302,186383,6,0,P|131:298|99:298,1,55,4|0,3:1|0:0,0:0:0:0:
47,322,186736,2,0,L|51:186,1,110,0|8,3:0|0:0,0:0:0:0:
124,187,187266,2,0,L|127:77,1,110,0|0,3:0|0:0,0:0:0:0:
202,61,187795,5,0,3:0:0:0:
339,143,188148,2,0,P|335:202|365:244,1,110,0|8,3:0|0:0,0:0:0:0:
407,179,188677,2,0,P|423:127|404:77,1,110,4|0,3:1|0:0,0:0:0:0:
329,54,189207,6,0,L|274:54,1,55,0|0,3:0|0:0,0:0:0:0:
217,106,189560,2,0,B|230:162|230:162|211:230,1,110,0|8,3:0|0:0,0:0:0:0:
162,268,190089,2,0,B|213:250|213:250|284:272,1,110,0|0,3:0|0:0,0:0:0:0:
214,328,190619,6,0,B|162:345|162:345|109:329,1,110,0|0,3:0|1:0,0:0:0:0:
55,272,191148,1,0,0:0:0:0:
97,207,191324,2,0,L|96:80,1,110,8|8,0:0|0:0,0:0:0:0:
250,102,192030,5,4,3:0:0:0:
234,255,192383,2,0,P|296:248|361:261,1,110,0|8,3:1|0:0,0:0:0:0:
341,332,192913,2,0,P|286:339|232:332,1,110,0|0,3:0|0:0,0:0:0:0:
162,298,193442,6,0,P|150:244|183:186,1,110,0|0,3:1|3:0,0:0:0:0:
229,143,193972,1,0,0:0:0:0:
298,110,194148,1,8,0:0:0:0:
366,144,194324,2,0,L|444:142,1,55,0|0,3:0|0:0,0:0:0:0:
485,184,194677,1,0,0:0:0:0:
427,235,194854,6,0,L|426:354,1,110,0|0,3:1|3:0,0:0:0:0:
349,356,195383,1,0,1:0:0:0:
273,373,195560,2,0,L|218:370,2,55,8|0|0,0:1|0:1|1:0,0:0:0:0:
349,356,196089,1,8,0:0:0:0:
335,279,196266,6,0,L|337:224,2,55,0|0|0,3:0|0:1|1:0,0:0:0:0:
410,263,196795,1,0,3:0:0:0:
431,188,196972,2,0,P|393:142|326:125,1,110,8|0,0:0|1:0,0:0:0:0:
208,192,197677,6,0,L|130:191,1,55,4|0,3:1|0:0,0:0:0:0:
75,190,198030,2,0,L|79:54,1,110,0|8,3:0|0:0,0:0:0:0:
152,56,198560,2,0,L|276:56,1,110,0|0,3:0|0:0,0:0:0:0:
337,72,199089,6,0,L|337:138,1,55,0|0,3:0|0:0,0:0:0:0:
351,202,199442,2,0,L|352:265,1,55,0|0,3:0|0:0,0:0:0:0:
381,328,199795,1,8,0:0:0:0:
430,268,199972,2,0,L|491:267,2,55,0|0|0,3:0|0:0|0:0,0:0:0:0:
351,256,200501,6,0,P|309:253|287:256,1,55,0|0,3:0|0:0,0:0:0:0:
224,285,200854,2,0,P|184:285|159:280,1,55,0|0,3:0|0:0,0:0:0:0:
108,235,201207,1,8,0:0:0:0:
112,158,201383,1,0,3:0:0:0:
185,134,201560,2,0,P|225:134|250:139,1,55,0|0,0:0|1:0,0:0:0:0:
302,171,201913,6,0,P|374:278|407:167,1,306.900009599991,4|8,3:1|1:0,0:0:0:0:
354,119,203148,1,0,3:0:0:0:
301,70,203324,6,0,L|195:60,1,102.300003199997,6|8,3:2|0:0,0:0:0:0:
179,129,203854,2,0,L|280:138,1,102.300003199997,2|0,0:0|3:0,0:0:0:0:
318,199,204383,2,0,L|318:264,1,51.1500015999985,10|0,0:0|0:0,0:0:0:0:
283,313,204736,5,0,0:0:0:0:
283,313,204913,2,0,L|212:312,1,51.1500015999985,0|8,3:0|0:0,0:0:0:0:
166,283,205266,1,0,0:0:0:0:
118,229,205442,2,0,P|121:172|121:155,1,51.1500015999985,2|0,0:0|3:0,0:0:0:0:
124,106,205795,1,8,0:0:0:0:
191,80,205972,1,2,0:0:0:0:
261,87,206148,6,0,B|313:95|313:95|384:84,1,102.300003199997,2|8,3:2|0:0,0:0:0:0:
362,159,206677,2,0,B|312:166|312:166|260:158,1,102.300003199997,0|0,0:0|3:0,0:0:0:0:
189,146,207207,2,0,L|188:212,1,51.1500015999985,10|0,0:0|0:0,0:0:0:0:
187,268,207560,5,0,0:0:0:0:
238,317,207736,1,2,3:2:0:0:
305,342,207913,2,0,P|341:345|365:343,1,51.1500015999985,8|0,0:0|0:0,0:0:0:0:
421,314,208266,2,0,P|418:278|420:254,1,51.1500015999985,2|0,0:0|3:0,0:0:0:0:
433,192,208619,1,10,0:0:0:0:
461,126,208795,1,0,0:0:0:0:
393,100,208972,6,0,P|305:100|270:105,1,102.300003199997,2|8,3:2|0:0,0:0:0:0:
245,157,209501,2,0,P|157:157|122:152,1,102.300003199997,0|0,0:0|3:0,0:0:0:0:
75,129,210030,2,0,P|72:164|77:186,1,51.1500015999985,10|0,0:0|0:0,0:0:0:0:
119,235,210383,5,0,0:0:0:0:
189,249,210560,2,0,L|245:249,1,51.1500015999985,2|8,3:2|0:0,0:0:0:0:
291,299,210913,1,0,0:0:0:0:
230,337,211089,2,0,L|178:337,1,51.1500015999985,2|0,0:0|3:0,0:0:0:0:
109,319,211442,1,10,0:0:0:0:
74,255,211619,1,2,0:0:0:0:
89,185,211795,6,0,B|99:157|99:157|100:68,1,102.300003199997,0|8,3:0|0:0,0:0:0:0:
137,23,212324,1,0,0:0:0:0:
200,56,212501,2,0,L|270:57,1,51.1500015999985,0|8,3:0|0:0,0:0:0:0:
320,75,212854,1,2,0:0:0:0:
358,134,213030,1,0,3:0:0:0:
345,204,213207,6,0,L|345:258,1,51.1500015999985,8|0,0:0|0:0,0:0:0:0:
364,324,213560,2,0,L|436:323,1,51.1500015999985,0|8,3:0|0:0,0:0:0:0:
469,275,213913,1,0,0:0:0:0:
469,203,214089,2,0,L|469:153,2,25.5750007999993,0|0|10,3:0|0:0|0:0,0:0:0:0:
469,275,214442,1,0,0:0:0:0:
400,252,214619,6,0,P|385:204|410:139,1,102.300003199997,6|8,3:2|0:0,0:0:0:0:
443,99,215148,2,0,P|395:114|330:89,1,102.300003199997,2|0,0:0|3:0,0:0:0:0:
283,66,215677,2,0,P|254:64|219:65,1,51.1500015999985,10|0,0:0|0:0,0:0:0:0:
160,54,216030,5,0,0:0:0:0:
160,54,216207,2,0,P|160:100|154:118,1,51.1500015999985,0|8,3:0|0:0,0:0:0:0:
126,168,216560,1,0,0:0:0:0:
133,239,216736,2,0,P|137:276|133:295,1,51.1500015999985,2|0,0:0|3:0,0:0:0:0:
62,286,217089,2,0,P|59:260|63:235,1,51.1500015999985,10|2,0:0|0:0,0:0:0:0:
133,239,217442,6,0,B|185:248|185:248|246:237,1,102.300003199997,2|8,3:2|0:0,0:0:0:0:
302,217,217972,2,0,B|354:208|354:208|402:216,1,102.300003199997,0|0,0:0|3:0,0:0:0:0:
468,246,218501,2,0,L|468:311,1,51.1500015999985,10|0,0:0|0:0,0:0:0:0:
409,338,218854,5,0,0:0:0:0:
338,329,219030,2,0,L|277:324,1,51.1500015999985,0|8,3:0|0:0,0:0:0:0:
215,315,219383,1,0,0:0:0:0:
149,286,219560,2,0,P|139:256|139:222,1,51.1500015999985,0|0,3:0|0:0,0:0:0:0:
74,202,219913,2,0,P|67:169|80:135,1,51.1500015999985,10|0,0:0|0:0,0:0:0:0:
127,102,220266,6,0,L|242:102,1,102.300003199997,2|8,3:2|0:0,0:0:0:0:
300,112,220795,2,0,L|300:227,1,102.300003199997,0|0,0:0|3:0,0:0:0:0:
304,285,221324,2,0,L|372:285,1,51.1500015999985,10|0,0:0|0:0,0:0:0:0:
413,242,221677,1,0,0:0:0:0:
455,184,221854,2,0,L|453:112,2,51.1500015999985,0|8|0,3:0|0:0|0:0,0:0:0:0:
413,242,222383,1,2,0:0:0:0:
449,303,222560,1,0,3:0:0:0:
403,357,222736,2,0,L|338:357,1,51.1500015999985,10|0,0:0|0:0,0:0:0:0:
280,350,223089,6,0,P|215:353|168:339,1,102.300003199997,2|8,3:2|0:0,0:0:0:0:
118,304,223619,2,0,P|115:239|129:192,1,102.300003199997,0|0,0:0|3:0,0:0:0:0:
184,164,224148,2,0,P|224:162|254:168,1,51.1500015999985,10|0,0:0|3:0,0:0:0:0:
294,203,224501,6,0,P|319:205|344:203,1,51.1500015999985,0|0,3:0|0:0,0:0:0:0:
405,165,224854,2,0,P|407:139|405:114,1,51.1500015999985,8|0,0:0|0:0,0:0:0:0:
359,59,225207,1,0,0:0:0:0:
287,53,225383,2,0,L|248:53,2,25.5750007999993,0|0|10,3:0|0:0|0:0,0:0:0:0:
405,114,225913,5,2,3:2:0:0:
