osu file format v14

[General]
AudioFilename: Au5 - Reiteration.mp3
AudioLeadIn: 0
PreviewTime: 113069
Countdown: 0
SampleSet: Soft
StackLeniency: 0.6
Mode: 0
LetterboxInBreaks: 0
WidescreenStoryboard: 0

[Editor]
Bookmarks: 111686,134265,134274,145559,145568,202039,224627
DistanceSpacing: 1.5
BeatDivisor: 4
GridSize: 4
TimelineZoom: 2.999999

[Metadata]
Title:Reiteration
TitleUnicode:Reiteration
Artist:Au5
ArtistUnicode:Au5
Creator:C00L
Version:Samsara
Source:
Tags:drum and bass dnb electronic dubstep jumpy accelerator acc streams wub -Bumblebee- Ambient -Famous-
BeatmapID:891146
BeatmapSetID:410664

[Difficulty]
HPDrainRate:6
CircleSize:4
OverallDifficulty:8
ApproachRate:9.2
SliderMultiplier:1.74999990463257
SliderTickRate:1

[Events]
//Background and Video events
0,0,"reiteration bg.jpg",0,0
//Break Periods
2,45504,56028
2,135857,146381
//Storyboard Layer 0 (Background)
//Storyboard Layer 1 (Fail)
//Storyboard Layer 2 (Pass)
//Storyboard Layer 3 (Foreground)
//Storyboard Sound Samples

[TimingPoints]
128,352.941176470588,4,2,0,100,1,0
17069,-111.111111111111,4,2,0,20,0,0
22363,-111.111111111111,4,2,0,5,0,0
22716,-111.111111111111,4,2,0,45,0,0
34010,-111.111111111111,4,2,0,60,0,0
45304,-111.111111111111,4,2,0,80,0,0
56598,-111.111111111111,4,2,0,50,0,0
56686,-111.111111111111,4,2,0,20,0,0
61539,-71.4285714285714,4,2,0,60,0,0
61892,-90.9090909090909,4,2,0,60,0,0
66127,-90.9090909090909,4,2,0,30,0,0
66480,-90.9090909090909,4,2,0,60,0,0
89069,-142.857142857143,4,2,0,60,0,0
90304,-90.9090909090909,4,2,0,30,0,0
90480,-76.9230769230769,4,2,0,60,0,0
93657,-83.3333333333333,4,2,0,60,0,1
96127,-76.9230769230769,4,2,0,60,0,1
99304,-83.3333333333333,4,2,0,60,0,1
101775,-76.9230769230769,4,2,0,60,0,1
104951,-83.3333333333333,4,2,0,60,0,1
107422,-76.9230769230769,4,2,0,60,0,1
110598,-90.9090909090909,4,2,0,60,0,1
111657,-166.666666666667,4,2,0,60,0,0
112980,-166.666666666667,4,2,0,35,0,0
113069,-111.111111111111,4,2,0,60,0,0
146951,-111.111111111111,4,2,0,30,0,0
151186,-111.111111111111,4,2,0,5,0,0
151539,-111.111111111111,4,2,0,40,0,0
156657,-76.9230769230769,4,2,0,40,0,0
156833,-111.111111111111,4,2,0,25,0,0
158245,-83.3333333333333,4,2,0,40,0,1
160716,-100,4,2,0,40,0,1
161069,-200,4,2,0,40,0,1
161775,-100,4,2,0,40,0,1
163892,-83.3333333333333,4,2,0,40,0,1
165304,-200,4,2,0,40,0,1
166010,-100,4,2,0,40,0,1
166716,-100,4,2,0,40,0,1
168127,-100,4,2,0,40,0,1
168480,-71.4285714285714,4,2,0,40,0,1
168657,-100,4,2,0,40,0,1
169539,-76.9230769230769,4,2,0,40,0,1
169716,-83.3333333333333,4,2,0,40,0,1
172010,-100,4,2,0,40,0,1
172363,-200,4,2,0,40,0,1
173069,-100,4,2,0,40,0,1
175186,-71.4285714285714,4,2,0,40,0,1
175539,-83.3333333333333,4,2,0,40,0,1
176598,-125,4,2,0,40,0,1
177304,-100,4,2,0,40,0,1
178010,-100,4,2,0,40,0,1
179422,-100,4,2,0,40,0,0
180127,-100,4,2,0,10,0,0
180480,-100,4,2,0,20,0,0
180833,-90.9090909090909,4,2,0,40,0,1
183657,-76.9230769230769,4,2,0,40,0,1
184010,-76.9230769230769,4,2,0,40,0,1
186480,-90.9090909090909,4,2,0,40,0,1
189304,-83.3333333333333,4,2,0,40,0,1
189657,-83.3333333333333,4,2,0,40,0,1
191069,-83.3333333333333,4,2,0,70,0,1
191422,-83.3333333333333,4,2,0,40,0,1
192127,-83.3333333333333,4,2,0,40,0,1
194951,-76.9230769230769,4,2,0,40,0,1
195304,-76.9230769230769,4,2,0,40,0,1
197775,-90.9090909090909,4,2,0,40,0,1
200598,-83.3333333333333,4,2,0,40,0,1
200951,-83.3333333333333,4,2,0,40,0,1
202010,-142.857142857143,4,2,0,40,0,1
202892,-111.111111111111,4,2,0,40,0,1
203422,-111.111111111111,4,2,0,40,0,0
226010,-111.111111111111,4,2,0,40,0,0

[Colours]
Combo1 : 0,0,160
Combo2 : 174,60,242
Combo3 : 0,255,255
Combo4 : 23,209,116
Combo5 : 255,51,51

[HitObjects]
256,192,17069,12,0,22363,0:0:0:0:
352,192,22716,6,0,B|380:160|380:160|432:268,1,157.499986610413,2|0,0:0|0:0,0:0:0:0:
320,272,23245,1,0,0:0:0:0:
264,204,23422,1,0,0:0:0:0:
376,88,23598,1,0,0:0:0:0:
268,320,23775,6,0,B|295:281|295:281|220:304|188:236,1,157.499986610413,2|0,0:0|0:0,0:0:0:0:
108,192,24304,1,0,0:0:0:0:
279,28,24480,2,0,P|263:97|304:176,1,157.499986610413,2|0,0:0|0:0,0:0:0:0:
376,88,25010,1,0,0:0:0:0:
256,240,25186,1,2,0:0:0:0:
232,264,25275,1,0,0:0:0:0:
196,272,25363,1,2,0:0:0:0:
160,268,25451,1,0,0:0:0:0:
128,248,25539,6,0,P|108:192|188:204,1,157.499986610413,2|0,0:0|0:0,0:0:0:0:
256,240,26069,1,0,0:0:0:0:
332,201,26245,1,0,0:0:0:0:
248,64,26422,1,0,0:0:0:0:
372,264,26598,6,0,B|324:288|348:312|332:328|332:328|320:344|272:348|260:300,1,157.499986610413,2|0,0:0|0:0,0:0:0:0:
196,272,27127,1,0,0:0:0:0:
308,120,27304,2,0,B|208:92|216:76|216:76|216:56|276:28,1,157.499986610413,2|0,0:0|0:0,0:0:0:0:
496,192,27833,1,0,0:0:0:0:
364,264,28010,1,2,0:0:0:0:
332,288,28098,1,0,0:0:0:0:
292,288,28186,1,2,0:0:0:0:
256,268,28275,1,0,0:0:0:0:
236,236,28363,6,0,B|332:208|304:88,1,157.499986610413,2|0,0:0|0:0,0:0:0:0:
72,232,28892,5,0,0:0:0:0:
144,180,29069,1,0,0:0:0:0:
120,344,29245,1,0,0:0:0:0:
324,212,29422,6,0,P|240:204|216:128,1,157.499986610413,2|0,0:0|0:0,0:0:0:0:
112,32,29951,1,0,0:0:0:0:
232,36,30127,2,0,P|295:72|284:152,1,157.499986610413,2|0,0:0|0:0,0:0:0:0:
172,124,30657,1,0,0:0:0:0:
172,244,30833,6,0,L|152:292,1,39.3749966526033,2|0,0:0|0:0,0:0:0:0:
264,208,31010,2,0,L|279:171,1,39.3749966526033,2|0,0:0|0:0,0:0:0:0:
224,332,31186,6,0,P|336:316|380:268,1,157.499986610413,2|0,0:0|0:0,0:0:0:0:
216,100,31716,1,0,0:0:0:0:
282,160,31892,1,0,0:0:0:0:
376,48,32069,1,0,0:0:0:0:
260,256,32245,6,0,P|168:200|128:220,1,157.499986610413,2|0,0:0|0:0,0:0:0:0:
182,281,32775,1,0,0:0:0:0:
349,185,32951,2,0,P|337:125|225:133,1,157.499986610413,2|0,0:0|0:0,0:0:0:0:
112,136,33480,2,0,L|72:172,1,39.3749966526033
60,236,33657,1,2,0:0:0:0:
100,260,33745,1,0,0:0:0:0:
148,268,33833,1,2,0:0:0:0:
192,252,33922,1,0,0:0:0:0:
228,220,34010,6,0,P|196:156|260:108,1,157.499986610413,2|0,0:0|0:0,0:0:0:0:
392,96,34539,1,0,0:0:0:0:
404,188,34716,1,0,0:0:0:0:
309,201,34892,1,0,0:0:0:0:
308,268,35069,6,0,B|324:176|296:208|296:208|252:240|200:208,1,157.499986610413,2|0,0:0|0:0,0:0:0:0:
248,140,35598,1,0,0:0:0:0:
348,36,35775,2,0,B|400:44|400:44|340:100|332:144,1,157.499986610413,2|0,0:0|0:0,0:0:0:0:
388,300,36304,1,0,0:0:0:0:
260,300,36480,1,2,0:0:0:0:
224,324,36569,1,0,0:0:0:0:
180,324,36657,1,2,0:0:0:0:
140,312,36745,1,0,0:0:0:0:
108,292,36833,6,0,B|-8:288|116:240|136:172,1,157.499986610413,2|0,0:0|0:0,0:0:0:0:
248,168,37363,5,0,0:0:0:0:
372,244,37539,1,0,0:0:0:0:
248,168,37716,1,0,0:0:0:0:
148,213,37892,6,0,P|188:266|278:275,1,157.499986610413,2|0,0:0|0:0,0:0:0:0:
372,148,38422,1,0,0:0:0:0:
344,312,38598,2,0,P|276:276|260:188,1,157.499986610413,2|0,0:0|0:0,0:0:0:0:
344,48,39127,1,0,0:0:0:0:
436,128,39304,1,2,0:0:0:0:
436,176,39392,1,0,0:0:0:0:
436,224,39480,1,2,0:0:0:0:
436,272,39569,1,0,0:0:0:0:
420,320,39657,6,0,B|420:228|364:252|358:168,1,157.499986610413,2|0,0:0|0:0,0:0:0:0:
108,176,40186,5,0,0:0:0:0:
359,179,40363,1,0,0:0:0:0:
200,312,40539,1,0,0:0:0:0:
232,136,40716,6,0,B|272:116|272:116|184:100|176:40,1,157.499986610413,2|0,0:0|0:0,0:0:0:0:
328,36,41245,1,0,0:0:0:0:
420,84,41422,6,0,B|378:87|362:175|362:175|342:135,1,157.499986610413,2|0,0:0|0:0,0:0:0:0:
276,328,41951,1,0,0:0:0:0:
232,136,42127,1,2,0:0:0:0:
216,94,42216,1,0,0:0:0:0:
178,70,42304,1,2,0:0:0:0:
137,63,42392,1,0,0:0:0:0:
96,78,42480,6,0,P|73:145|151:219,1,157.499986610413,2|0,0:0|0:0,0:0:0:0:
188,324,43010,5,0,0:0:0:0:
316,168,43186,2,0,L|292:248,1,78.7499933052066,2|0,0:0|0:0,0:0:0:0:
188,324,43539,5,0,0:0:0:0:
125,205,43716,2,0,L|181:109,1,78.7499933052066,2|0,0:0|0:0,0:0:0:0:
256,44,44069,5,0,0:0:0:0:
452,152,44245,2,0,L|372:224,1,78.7499933052066,2|0,0:0|0:0,0:0:0:0:
125,205,44598,1,0,0:0:0:0:
256,352,44775,1,0,0:0:0:0:
256,312,44863,1,0,0:0:0:0:
256,272,44951,1,0,0:0:0:0:
256,44,45304,5,4,0:0:0:0:
256,192,56598,5,8,0:0:0:0:
256,192,56686,12,0,61363,0:0:0:0:
256,304,61539,6,0,B|220:264|220:264|272:232|356:292,1,183.749984378815,2|0,0:0|0:0,0:0:0:0:
340,360,61892,6,0,B|412:344|428:296|428:244|396:220|340:204,1,192.499995384216,2|0,0:0|0:0,0:0:0:0:
264,96,62422,1,8,0:0:0:0:
188,172,62598,5,2,0:0:0:0:
184,216,62686,1,0,0:0:0:0:
196,256,62775,1,2,0:0:0:0:
228,288,62863,1,0,0:0:0:0:
272,296,62951,1,2,0:0:0:0:
304,264,63039,1,0,0:0:0:0:
316,224,63127,1,2,0:0:0:0:
304,184,63216,1,0,0:0:0:0:
276,148,63304,2,0,L|236:112,3,48.1249988460541,2|0|2|0,0:0|0:0|0:0|0:0,0:0:0:0:
168,76,63657,5,2,0:0:0:0:
136,108,63745,1,0,0:0:0:0:
116,148,63833,1,2,0:0:0:0:
96,184,63922,1,0,0:0:0:0:
84,224,64010,1,2,0:0:0:0:
84,268,64098,1,0,0:0:0:0:
116,296,64186,1,2,0:0:0:0:
152,276,64275,1,0,0:0:0:0:
184,248,64363,5,2,0:0:0:0:
212,216,64451,1,0,0:0:0:0:
236,180,64539,1,2,0:0:0:0:
264,148,64627,1,0,0:0:0:0:
304,128,64716,1,2,0:0:0:0:
344,140,64804,1,0,0:0:0:0:
364,176,64892,1,2,0:0:0:0:
356,220,64980,1,0,0:0:0:0:
324,292,65069,6,0,L|236:292,1,48.1249988460541,2|0,0:0|0:0,0:0:0:0:
212,228,65245,2,0,L|160:252,1,48.1249988460541,2|0,0:0|0:0,0:0:0:0:
268,176,65422,1,2,0:0:0:0:
296,125,65510,1,0,0:0:0:0:
260,80,65598,1,2,0:0:0:0:
212,112,65686,1,0,0:0:0:0:
168,148,65775,1,2,0:0:0:0:
128,188,65863,1,0,0:0:0:0:
88,232,65951,6,0,L|64:256,2,24.062499423027,2|0|2,0:0|0:0|0:0,0:0:0:0:
100,316,66127,5,2,0:0:0:0:
144,280,66216,1,0,0:0:0:0:
180,240,66304,1,2,0:0:0:0:
216,204,66392,1,0,0:0:0:0:
256,172,66480,1,8,0:0:0:0:
432,252,67363,6,0,L|392:252,2,24.062499423027,8|0|8,0:0|0:0|0:0,0:0:0:0:
304,308,67539,1,0,0:0:0:0:
264,192,67716,1,0,0:0:0:0:
409,118,67892,6,0,P|358:75|328:64,1,96.2499976921082,2|0,0:0|0:0,0:0:0:0:
188,120,68245,5,0,0:0:0:0:
188,120,68422,1,0,0:0:0:0:
160,252,68598,2,0,B|116:240|116:240|160:176,1,96.2499976921082,2|0,0:0|0:0,0:0:0:0:
264,160,68951,2,0,B|300:144|300:144|284:216,1,96.2499976921082,2|0,0:0|0:0,0:0:0:0:
288,324,69304,2,0,B|264:264|264:264|216:260,1,96.2499976921082,2|0,0:0|0:0,0:0:0:0:
180,132,69657,2,0,B|240:80|240:80|276:96,1,96.2499976921082,2|0,0:0|0:0,0:0:0:0:
384,228,70010,2,0,B|308:200|308:200|296:164,1,96.2499976921082,2|0,0:0|0:0,0:0:0:0:
168,48,70363,5,2,0:0:0:0:
168,100,70451,1,0,0:0:0:0:
168,152,70539,1,2,0:0:0:0:
168,204,70627,1,0,0:0:0:0:
168,256,70716,6,0,B|204:280|204:280|288:228|252:120,1,192.499995384216,2|0,0:0|0:0,0:0:0:0:
416,128,71245,1,0,0:0:0:0:
304,296,71422,6,0,P|256:256|256:220,1,96.2499976921082,2|0,0:0|0:0,0:0:0:0:
416,128,71775,2,0,P|448:184|432:224,1,96.2499976921082,2|0,0:0|0:0,0:0:0:0:
296,80,72127,2,0,P|224:92|216:120,1,96.2499976921082,2|0,0:0|0:0,0:0:0:0:
364,300,72480,2,0,L|232:300,1,96.2499976921082,2|0,0:0|0:0,0:0:0:0:
170,143,72833,6,0,B|218:103|218:103|210:167,1,96.2499976921082,2|0,0:0|0:0,0:0:0:0:
64,324,73186,1,0,0:0:0:0:
268,220,73363,1,0,0:0:0:0:
84,220,73539,6,0,B|56:192|56:192|116:192|116:132|116:132|192:148,1,192.499995384216,2|0,0:0|0:0,0:0:0:0:
316,92,74069,2,0,P|372:120|360:160,1,96.2499976921082,0|2,0:0|0:0,0:0:0:0:
249,284,74422,2,0,P|208:255|203:200,1,96.2499976921082,0|2,0:0|0:0,0:0:0:0:
370,144,74775,1,0,0:0:0:0:
356,256,74951,2,0,P|472:196|472:112,1,192.499995384216,2|2,0:0|0:0,0:0:0:0:
312,76,75480,6,0,L|256:104,1,48.1249988460541
240,164,75657,1,8,0:0:0:0:
216,236,75745,1,8,0:0:0:0:
184,308,75833,2,0,P|112:252|108:216,1,96.2499976921082,2|0,0:0|0:0,0:0:0:0:
144,100,76186,1,0,0:0:0:0:
296,76,76363,6,0,B|256:88|256:88|340:112|316:216,1,192.499995384216,2|0,0:0|0:0,0:0:0:0:
188,296,76892,2,0,P|132:272|144:224,1,96.2499976921082,0|2,0:0|0:0,0:0:0:0:
468,248,77245,2,0,B|436:200|396:212|396:212|392:304|312:308,1,192.499995384216
120,72,77775,5,2,0:0:0:0:
252,220,78127,2,0,B|256:156|256:156|184:232,1,144.374996538162,2|0,0:0|0:0,0:0:0:0:
220,280,78480,5,8,0:0:0:0:
268,288,78569,1,0,0:0:0:0:
308,260,78657,1,8,0:0:0:0:
320,216,78745,1,0,0:0:0:0:
304,172,78833,1,8,0:0:0:0:
144,64,79010,1,0,0:0:0:0:
392,172,79186,5,2,0:0:0:0:
176,336,79363,1,0,0:0:0:0:
332,216,79539,1,2,0:0:0:0:
48,216,79716,1,0,0:0:0:0:
120,92,79892,6,0,B|68:108|68:108|108:144,1,96.2499976921082,2|0,0:0|0:0,0:0:0:0:
228,36,80245,2,0,B|276:36|276:36|260:84,1,96.2499976921082,2|0,0:0|0:0,0:0:0:0:
228,244,80598,2,0,B|192:220|192:220|248:176,1,96.2499976921082,2|0,0:0|0:0,0:0:0:0:
376,268,80951,2,0,B|328:304|328:304|264:272,1,96.2499976921082,2|0,0:0|0:0,0:0:0:0:
384,104,81304,2,0,B|348:92|348:92|272:136,1,96.2499976921082,2|0,0:0|0:0,0:0:0:0:
180,292,81657,2,0,B|152:272|152:272|188:196,1,96.2499976921082,2|0,0:0|0:0,0:0:0:0:
224,120,82010,6,0,B|221:91|165:95|165:95|217:43|217:43|165:39,1,192.499995384216,2|0,0:0|0:0,0:0:0:0:
100,168,82539,1,2,0:0:0:0:
100,220,82627,1,0,0:0:0:0:
100,272,82716,2,0,P|204:252|208:248,1,96.2499976921082,2|0,0:0|0:0,0:0:0:0:
224,120,83069,1,2,0:0:0:0:
356,312,83245,5,2,0:0:0:0:
384,268,83333,1,0,0:0:0:0:
404,220,83422,2,0,P|340:188|308:204,1,96.2499976921082,2|0,0:0|0:0,0:0:0:0:
173,247,83775,1,2,0:0:0:0:
176,60,83951,5,2,0:0:0:0:
176,112,84039,1,0,0:0:0:0:
176,164,84127,2,0,B|236:160|260:184|276:216,1,96.2499976921082,2|0,0:0|0:0,0:0:0:0:
416,72,84480,1,2,0:0:0:0:
428,196,84833,5,2,0:0:0:0:
256,80,85010,1,0,0:0:0:0:
256,288,85186,2,0,P|192:248|152:252,1,96.2499976921082,2|0,0:0|0:0,0:0:0:0:
96,76,85539,1,2,0:0:0:0:
96,320,85716,1,0,0:0:0:0:
297,145,85892,6,0,P|237:165|205:185,1,96.2499976921082,2|0,0:0|0:0,0:0:0:0:
256,288,86245,1,2,0:0:0:0:
96,320,86422,1,0,0:0:0:0:
112,160,86598,2,0,L|172:76,1,96.2499976921082,2|0,0:0|0:0,0:0:0:0:
340,140,86951,1,2,0:0:0:0:
340,180,87039,1,0,0:0:0:0:
340,220,87127,1,2,0:0:0:0:
340,260,87216,1,0,0:0:0:0:
315,291,87304,2,0,P|272:264|224:268,1,96.2499976921082,2|0,0:0|0:0,0:0:0:0:
128,208,87657,6,0,P|157:171|208:152,1,96.2499976921082,0|2,0:0|0:0,0:0:0:0:
252,344,88010,5,2,0:0:0:0:
320,104,88186,1,8,0:0:0:0:
320,104,88275,1,0,0:0:0:0:
320,104,88363,1,8,0:0:0:0:
204,224,88539,2,0,L|297:192,1,96.2499976921082,0|2,0:0|0:0,0:0:0:0:
240,320,88892,2,0,L|191:320,1,48.1249988460541
344,268,89069,6,0,B|420:272|420:272|432:192|392:112|335:255|266:222|225:151|231:113|231:113,1,367.499968757631,0|8,0:0|0:0,0:0:0:0:
168,304,90304,2,0,L|168:336,4,24.062499423027
120,116,90833,6,0,L|120:232,1,113.749988594056,8|0,0:0|0:0,0:0:0:0:
392,328,91363,2,0,B|412:348|412:348|464:240,1,113.749988594056,8|0,0:0|0:0,0:0:0:0:
256,72,91892,1,8,0:0:0:0:
72,280,92245,6,0,P|96:307|176:344,1,113.749988594056,8|0,0:0|0:0,0:0:0:0:
328,128,92775,2,0,P|288:56|232:64,1,113.749988594056,8|0,0:0|0:0,0:0:0:0:
64,192,93304,1,8,0:0:0:0:
240,272,93657,5,2,0:0:0:0:
240,232,93745,1,0,0:0:0:0:
240,192,93833,1,2,0:0:0:0:
240,152,93922,1,0,0:0:0:0:
240,112,94010,2,0,L|240:60,1,52.4999955368044,2|0,0:0|0:0,0:0:0:0:
320,128,94186,2,0,P|332:180|364:192,1,52.4999955368044,2|0,0:0|0:0,0:0:0:0:
404,228,94363,5,2,0:0:0:0:
364,260,94451,1,0,0:0:0:0:
312,264,94539,1,2,0:0:0:0:
268,240,94627,1,0,0:0:0:0:
228,212,94716,2,0,L|160:212,1,52.4999955368044,2|0,0:0|0:0,0:0:0:0:
84,276,94892,2,0,B|108:292|108:292|160:272,1,52.4999955368044,2|0,0:0|0:0,0:0:0:0:
228,264,95069,6,0,L|228:208,1,52.4999955368044,2|0,0:0|0:0,0:0:0:0:
292,244,95245,2,0,L|292:184,1,52.4999955368044,2|0,0:0|0:0,0:0:0:0:
364,184,95422,1,2,0:0:0:0:
268,364,95510,2,0,P|220:308|236:248,1,104.999991073609
228,212,95775,5,2,0:0:0:0:
224,156,95863,1,0,0:0:0:0:
172,132,95951,1,2,0:0:0:0:
136,176,96039,1,0,0:0:0:0:
160,228,96127,2,0,P|136:272|68:276,1,113.749988594056
356,296,96480,6,0,P|368:228|356:164,1,113.749988594056,8|4,0:0|0:0,0:0:0:0:
204,88,97010,2,0,P|168:116|192:180,1,113.749988594056,8|0,0:0|0:0,0:0:0:0:
356,296,97539,1,8,0:0:0:0:
136,312,97892,6,0,B|144:260|120:248|156:192,1,113.749988594056,8|0,0:0|0:0,0:0:0:0:
292,68,98422,2,0,P|292:132|352:144,1,113.749988594056,8|0,0:0|0:0,0:0:0:0:
280,320,98951,2,0,L|328:288,1,56.8749942970279,8|0,0:0|0:0,0:0:0:0:
124,256,99304,5,2,0:0:0:0:
124,216,99392,1,0,0:0:0:0:
136,180,99480,1,2,0:0:0:0:
156,148,99569,1,0,0:0:0:0:
192,124,99657,1,2,0:0:0:0:
300,248,99833,5,2,0:0:0:0:
336,232,99922,1,0,0:0:0:0:
372,216,100010,1,2,0:0:0:0:
316,72,100186,2,0,L|288:152,1,52.4999955368044,2|0,0:0|0:0,0:0:0:0:
220,188,100363,5,0,0:0:0:0:
200,224,100451,1,2,0:0:0:0:
192,264,100539,1,0,0:0:0:0:
212,304,100627,1,2,0:0:0:0:
248,328,100716,2,0,P|296:336|344:296,1,104.999991073609
316,148,101069,5,2,0:0:0:0:
260,152,101157,1,0,0:0:0:0:
204,172,101245,1,2,0:0:0:0:
156,208,101333,1,0,0:0:0:0:
120,252,101422,1,2,0:0:0:0:
176,320,101510,1,0,0:0:0:0:
204,296,101598,1,2,0:0:0:0:
228,268,101686,1,0,0:0:0:0:
244,232,101775,1,2,0:0:0:0:
404,208,102127,6,0,L|312:120,1,113.749988594056,8|0,0:0|0:0,0:0:0:0:
156,264,102657,2,0,B|128:280|128:280|212:328,1,113.749988594056,8|0,0:0|0:0,0:0:0:0:
396,116,103186,1,8,0:0:0:0:
76,184,103539,6,0,B|88:224|88:224|164:148,1,113.749988594056,8|0,0:0|0:0,0:0:0:0:
396,116,104069,2,0,B|432:132|432:132|356:200,1,113.749988594056,8|0,0:0|0:0,0:0:0:0:
224,292,104598,1,8,0:0:0:0:
172,108,104951,5,2,0:0:0:0:
204,128,105039,1,0,0:0:0:0:
240,140,105127,1,2,0:0:0:0:
280,144,105216,1,0,0:0:0:0:
320,144,105304,2,0,L|408:144,1,52.4999955368044,2|0,0:0|0:0,0:0:0:0:
448,224,105480,2,0,B|416:212|416:212|372:224,1,52.4999955368044,2|0,0:0|0:0,0:0:0:0:
356,228,105657,5,2,0:0:0:0:
304,252,105745,1,0,0:0:0:0:
256,244,105833,1,2,0:0:0:0:
220,212,105922,1,0,0:0:0:0:
204,168,106010,2,0,L|204:96,1,52.4999955368044,2|0,0:0|0:0,0:0:0:0:
296,52,106186,2,0,B|284:80|284:80|300:124,1,52.4999955368044,2|0,0:0|0:0,0:0:0:0:
380,179,106363,6,0,L|304:251,1,104.999991073609,2|2,0:0|0:0,0:0:0:0:
220,212,106716,2,0,B|204:192|204:192|308:160,1,104.999991073609,2|2,0:0|0:0,0:0:0:0:
188,288,107069,1,2,0:0:0:0:
140,268,107157,1,0,0:0:0:0:
120,220,107245,1,2,0:0:0:0:
124,168,107333,1,0,0:0:0:0:
152,116,107422,1,2,0:0:0:0:
444,68,107775,6,0,L|444:196,1,113.749988594056,8|0,0:0|0:0,0:0:0:0:
256,300,108304,2,0,B|324:328|360:264,1,113.749988594056,8|0,0:0|0:0,0:0:0:0:
228,76,108833,1,8,0:0:0:0:
84,260,109186,6,0,B|100:232|100:232|148:320,1,113.749988594056,8|0,0:0|0:0,0:0:0:0:
424,192,109716,2,0,B|392:192|392:192|440:120,1,113.749988594056,8|0,0:0|0:0,0:0:0:0:
296,352,110245,2,0,B|316:307|264:296|292:240,1,113.749988594056,8|0,0:0|0:0,0:0:0:0:
132,160,110598,5,2,0:0:0:0:
132,160,110686,1,0,0:0:0:0:
132,160,110775,2,0,L|140:224,1,48.1249988460541,2|0,0:0|0:0,0:0:0:0:
200,304,110951,5,2,0:0:0:0:
200,304,111039,1,0,0:0:0:0:
200,304,111127,2,0,L|216:224,1,48.1249988460541,0|2,0:0|0:0,0:0:0:0:
224,144,111304,5,2,0:0:0:0:
272,124,111392,1,0,0:0:0:0:
324,124,111480,1,2,0:0:0:0:
376,140,111569,1,0,0:0:0:0:
416,124,111657,6,0,B|432:216|376:220|376:220|300:164|256:204|232:220|232:220|200:204|176:216|148:166|156:136,1,393.749966526033,2|2,0:0|0:0,0:0:0:0:
156,128,113069,5,0,0:0:0:0:
68,180,113245,2,0,L|84:276,1,78.7499933052066
228,316,113598,1,0,0:0:0:0:
224,136,113775,1,0,0:0:0:0:
152,292,113951,1,0,0:0:0:0:
300,272,114127,2,0,L|368:204,1,78.7499933052066,2|0,0:0|0:0,0:0:0:0:
348,52,114480,2,0,L|284:116,1,78.7499933052066
160,192,114833,1,2,0:0:0:0:
300,272,115010,1,0,0:0:0:0:
452,152,115186,2,0,L|452:230,1,78.7499933052066
348,124,115539,1,2,0:0:0:0:
220,84,115716,1,2,0:0:0:0:
184,112,115804,1,0,0:0:0:0:
156,140,115892,6,0,L|76:220,1,78.7499933052066,2|0,0:0|0:0,0:0:0:0:
200,288,116245,2,0,L|272:216,1,78.7499933052066
348,124,116598,1,0,0:0:0:0:
416,256,116775,1,0,0:0:0:0:
416,68,116951,1,2,0:0:0:0:
332,200,117127,2,0,L|224:200,1,78.7499933052066
204,104,117480,2,0,L|144:168,1,78.7499933052066,0|2,0:0|0:0,0:0:0:0:
200,292,117833,1,0,0:0:0:0:
332,200,118010,2,0,L|332:292,1,78.7499933052066,2|0,0:0|0:0,0:0:0:0:
256,154,118363,1,2,0:0:0:0:
256,114,118451,1,0,0:0:0:0:
220,94,118539,1,2,0:0:0:0:
180,102,118627,1,0,0:0:0:0:
152,130,118716,6,0,P|140:178|156:234,1,78.7499933052066,2|0,0:0|0:0,0:0:0:0:
240,300,119069,1,0,0:0:0:0:
256,154,119245,1,0,0:0:0:0:
480,228,119422,1,0,0:0:0:0:
404,316,119598,2,0,P|352:316|328:264,1,78.7499933052066,0|2,0:0|0:0,0:0:0:0:
368,152,119951,1,0,0:0:0:0:
256,76,120127,2,0,L|256:176,1,78.7499933052066
256,280,120480,1,2,0:0:0:0:
176,180,120657,2,0,L|132:248,1,78.7499933052066,0|2,0:0|0:0,0:0:0:0:
216,344,121010,1,2,0:0:0:0:
320,276,121186,1,2,0:0:0:0:
340,236,121275,1,0,0:0:0:0:
344,192,121363,1,2,0:0:0:0:
324,152,121451,1,0,0:0:0:0:
308,112,121539,6,0,P|328:52|368:60,1,78.7499933052066,2|0,0:0|0:0,0:0:0:0:
436,88,121892,1,0,0:0:0:0:
440,200,122069,1,0,0:0:0:0:
324,152,122245,1,0,0:0:0:0:
244,228,122422,2,0,L|168:304,1,78.7499933052066,0|2,0:0|0:0,0:0:0:0:
64,308,122775,1,0,0:0:0:0:
136,204,122951,5,0,0:0:0:0:
160,56,123127,1,0,0:0:0:0:
136,204,123304,1,2,0:0:0:0:
292,64,123480,1,0,0:0:0:0:
420,192,123657,1,2,0:0:0:0:
292,320,123833,1,0,0:0:0:0:
180,292,124010,1,2,0:0:0:0:
180,252,124098,1,0,0:0:0:0:
200,216,124186,1,2,0:0:0:0:
212,180,124275,1,0,0:0:0:0:
212,140,124363,6,0,P|180:88|208:64,1,78.7499933052066,2|0,0:0|0:0,0:0:0:0:
356,92,124716,1,0,0:0:0:0:
356,240,124892,1,0,0:0:0:0:
356,92,125069,1,0,0:0:0:0:
232,176,125245,2,0,L|232:264,1,78.7499933052066,0|2,0:0|0:0,0:0:0:0:
96,320,125598,6,0,L|184:320,1,78.7499933052066
308,256,125951,1,0,0:0:0:0:
224,96,126127,2,0,L|128:156,1,78.7499933052066,2|0,0:0|0:0,0:0:0:0:
344,132,126480,1,2,0:0:0:0:
480,132,126657,1,0,0:0:0:0:
396,264,126833,1,2,0:0:0:0:
360,280,126922,1,0,0:0:0:0:
320,276,127010,1,2,0:0:0:0:
284,256,127098,1,0,0:0:0:0:
252,232,127186,6,0,P|216:200|180:192,1,78.7499933052066,2|0,0:0|0:0,0:0:0:0:
92,340,127539,1,2,0:0:0:0:
92,192,127716,1,0,0:0:0:0:
92,340,127892,1,2,0:0:0:0:
187,192,128069,5,0,0:0:0:0:
384,180,128245,1,2,0:0:0:0:
187,192,128422,1,0,0:0:0:0:
300,92,128598,6,0,P|244:88|204:104,1,78.7499933052066,2|0,0:0|0:0,0:0:0:0:
232,312,128951,1,0,0:0:0:0:
370,180,129127,2,0,L|258:180,1,78.7499933052066,0|2,0:0|0:0,0:0:0:0:
112,180,129480,1,0,0:0:0:0:
256,288,129657,1,2,0:0:0:0:
256,248,129745,1,0,0:0:0:0:
264,208,129833,1,2,0:0:0:0:
292,180,129922,1,0,0:0:0:0:
324,156,130010,6,0,P|340:100|328:64,1,78.7499933052066,2|0,0:0|0:0,0:0:0:0:
200,80,130363,1,2,0:0:0:0:
112,180,130539,1,0,0:0:0:0:
252,184,130716,1,2,0:0:0:0:
176,296,130892,2,0,L|276:296,1,78.7499933052066,0|2,0:0|0:0,0:0:0:0:
336,188,131245,6,0,P|344:236|336:296,1,78.7499933052066,0|2,0:0|0:0,0:0:0:0:
252,108,131598,1,0,0:0:0:0:
112,36,131775,1,2,0:0:0:0:
288,36,131951,1,0,0:0:0:0:
380,108,132127,2,0,L|380:196,1,78.7499933052066,2|0,0:0|0:0,0:0:0:0:
256,332,132480,1,2,0:0:0:0:
256,292,132569,1,0,0:0:0:0:
244,256,132657,1,2,0:0:0:0:
240,216,132745,1,0,0:0:0:0:
248,176,132833,6,0,B|280:144|220:120|264:72,1,78.7499933052066,2|0,0:0|0:0,0:0:0:0:
108,112,133186,1,2,0:0:0:0:
108,252,133363,1,0,0:0:0:0:
247,101,133539,1,2,0:0:0:0:
336,136,133716,2,0,L|336:244,1,78.7499933052066,0|2,0:0|0:0,0:0:0:0:
256,332,134069,2,0,L|256:244,1,78.7499933052066,0|2,0:0|0:0,0:0:0:0:
180,136,134422,5,8,0:0:0:0:
84,240,134598,1,8,0:0:0:0:
200,160,134775,1,8,0:0:0:0:
104,264,134951,1,8,0:0:0:0:
244,284,135127,2,0,L|244:340,2,39.3749966526033,0|0|8,0:0|0:0|0:0,0:0:0:0:
244,80,135657,5,4,0:0:0:0:
256,192,146951,5,0,0:0:0:0:
256,192,147039,12,0,151186,0:0:0:0:
408,264,151539,6,0,B|304:272|304:272|368:164|244:232|184:168|260:96,1,314.999973220826
172,312,152598,5,2,0:0:0:0:
156,276,152686,1,0,0:0:0:0:
152,236,152775,1,2,0:0:0:0:
172,204,152863,1,0,0:0:0:0:
212,208,152951,1,2,0:0:0:0:
248,224,153039,1,0,0:0:0:0:
288,216,153127,1,2,0:0:0:0:
316,188,153216,1,0,0:0:0:0:
324,148,153304,2,0,L|304:96,3,39.3749966526033,2|0|2|0,0:0|0:0|0:0|0:0,0:0:0:0:
240,52,153657,5,2,0:0:0:0:
204,72,153745,1,0,0:0:0:0:
176,96,153833,1,2,0:0:0:0:
156,132,153922,1,0,0:0:0:0:
148,172,154010,1,2,0:0:0:0:
160,208,154098,1,0,0:0:0:0:
192,232,154186,1,2,0:0:0:0:
232,212,154275,1,0,0:0:0:0:
264,184,154363,5,2,0:0:0:0:
292,152,154451,1,0,0:0:0:0:
324,116,154539,1,2,0:0:0:0:
368,112,154627,1,0,0:0:0:0:
404,132,154716,1,2,0:0:0:0:
428,168,154804,1,0,0:0:0:0:
408,208,154892,1,2,0:0:0:0:
376,240,154980,1,0,0:0:0:0:
340,264,155069,5,2,0:0:0:0:
300,280,155157,1,0,0:0:0:0:
256,284,155245,1,2,0:0:0:0:
212,272,155333,1,0,0:0:0:0:
148,232,155422,6,0,L|96:208,1,39.3749966526033,2|0,0:0|0:0,0:0:0:0:
140,148,155598,2,0,L|115:117,1,39.3749966526033,2|0,0:0|0:0,0:0:0:0:
188,92,155775,2,0,L|188:52,1,39.3749966526033,2|0,0:0|0:0,0:0:0:0:
264,52,155951,2,0,L|264:12,1,39.3749966526033,2|0,0:0|0:0,0:0:0:0:
300,188,156127,5,2,0:0:0:0:
300,248,156216,1,0,0:0:0:0:
300,308,156304,2,0,L|300:336,2,19.6874983263016
224,308,156480,1,0,0:0:0:0:
212,248,156569,1,0,0:0:0:0:
196,188,156657,2,0,P|180:140|132:84,1,113.749988594056,0|8,0:0|0:0,0:0:0:0:
128,276,157363,6,0,L|104:304,4,19.6874983263016,8|0|8|0|8,0:0|0:0|0:0|0:0|0:0,0:0:0:0:
336,280,158245,6,0,B|368:236|368:236|276:272|236:172,1,209.999982147218,2|0,0:0|0:0,0:0:0:0:
301,59,158775,2,0,P|328:102|327:154,1,104.999991073609,0|2,0:0|0:0,0:0:0:0:
240,304,159127,2,0,B|228:328|228:328|136:252,1,104.999991073609,0|2,0:0|0:0,0:0:0:0:
168,56,159480,1,0,0:0:0:0:
280,216,159657,2,0,B|272:188|272:188|312:212|348:164,1,104.999991073609,2|0,0:0|0:0,0:0:0:0:
372,300,160010,1,2,0:0:0:0:
372,300,160186,1,0,0:0:0:0:
164,296,160363,2,0,L|272:296,1,104.999991073609,2|0,0:0|0:0,0:0:0:0:
172,148,160716,6,0,P|256:188|284:160,1,131.249992847443,2|0,0:0|0:0,0:0:0:0:
384,100,161069,6,0,B|316:112|416:148|416:148|408:188,1,131.249992847443,2|0,0:0|0:0,0:0:0:0:
300,292,161775,6,0,P|264:224|232:212,1,87.4999952316285,2|0,0:0|0:0,0:0:0:0:
216,292,162127,1,2,0:0:0:0:
124,176,162304,6,0,P|160:144|208:140,1,87.4999952316285
192,220,162657,1,0,0:0:0:0:
388,220,162833,2,0,L|288:220,1,87.4999952316285,2|0,0:0|0:0,0:0:0:0:
168,56,163186,1,10,0:0:0:0:
168,56,163363,1,8,0:0:0:0:
168,264,163539,2,0,P|156:232|168:164,1,87.4999952316285,2|0,0:0|0:0,0:0:0:0:
348,80,163892,6,0,B|312:104|312:104|376:116|388:236,1,157.499986610413,2|0,0:0|0:0,0:0:0:0:
292,184,164245,2,0,P|240:232|184:240,1,104.999991073609,2|0,0:0|0:0,0:0:0:0:
64,324,164598,1,2,0:0:0:0:
64,112,164775,1,0,0:0:0:0:
168,260,164951,2,0,B|140:272|140:272|176:168,1,104.999991073609,2|0,0:0|0:0,0:0:0:0:
252,92,165304,6,0,B|276:76|276:76|284:208|308:76|380:160,1,174.999990463257,2|2,0:0|0:0,0:0:0:0:
168,260,166186,5,0,0:0:0:0:
416,264,166363,1,2,0:0:0:0:
192,160,166539,2,0,L|96:160,1,87.4999952316285,0|2,0:0|0:0,0:0:0:0:
96,324,166892,1,0,0:0:0:0:
244,324,167069,6,0,B|256:340|256:340|256:264,1,87.4999952316285,2|0,0:0|0:0,0:0:0:0:
256,124,167422,1,2,0:0:0:0:
104,160,167598,2,0,B|104:92|104:92|116:108,1,87.4999952316285,0|2,0:0|0:0,0:0:0:0:
256,216,167951,1,0,0:0:0:0:
428,328,168127,2,0,B|360:328|360:328|376:316,1,87.4999952316285,2|0,0:0|0:0,0:0:0:0:
420,156,168480,6,0,P|368:120|320:168,1,122.499989585877,2|0,0:0|0:0,0:0:0:0:
256,328,168833,1,2,0:0:0:0:
256,328,168922,2,0,L|256:248,1,43.7499976158143,0|2,0:0|0:0,0:0:0:0:
176,192,169098,1,0,0:0:0:0:
176,192,169186,2,0,L|176:260,1,43.7499976158143,2|0,0:0|0:0,0:0:0:0:
99,339,169363,1,2,0:0:0:0:
99,295,169451,1,0,0:0:0:0:
99,243,169539,6,0,P|103:187|100:124,1,113.749988594056,2|2,0:0|0:0,0:0:0:0:
324,148,169892,1,0,0:0:0:0:
204,324,170069,1,0,0:0:0:0:
204,324,170157,1,0,0:0:0:0:
204,324,170245,1,0,0:0:0:0:
408,264,170422,2,0,P|336:240|300:196,1,104.999991073609
408,152,170775,1,0,0:0:0:0:
176,152,170951,1,0,0:0:0:0:
288,88,171127,2,0,P|240:36|192:24,1,104.999991073609
208,236,171480,1,0,0:0:0:0:
211,33,171657,5,8,0:0:0:0:
408,231,171833,1,8,0:0:0:0:
440,164,172010,6,0,B|408:140|408:140|408:236,1,131.249992847443,2|0,0:0|0:0,0:0:0:0:
408,312,172363,6,0,P|348:280|332:208,1,131.249992847443,2|0,0:0|0:0,0:0:0:0:
216,124,173069,6,0,P|176:168|176:224,1,87.4999952316285,2|0,0:0|0:0,0:0:0:0:
252,196,173422,1,2,0:0:0:0:
184,352,173598,2,0,P|224:308|224:252,1,87.4999952316285,0|2,0:0|0:0,0:0:0:0:
148,276,173951,1,0,0:0:0:0:
376,332,174127,2,0,L|376:228,1,87.4999952316285,2|0,0:0|0:0,0:0:0:0:
271,117,174480,1,2,0:0:0:0:
272,36,174657,1,0,0:0:0:0:
192,254,174833,2,0,P|234:263|256:300,1,87.4999952316285,2|0,0:0|0:0,0:0:0:0:
152,68,175186,6,0,B|176:32|176:32|184:116|268:56|256:132|324:160,1,244.999979171754,2|6,0:0|0:0,0:0:0:0:
96,308,175716,1,0,0:0:0:0:
288,308,175892,2,0,L|172:308,1,104.999991073609,2|0,0:0|0:0,0:0:0:0:
352,192,176245,1,2,0:0:0:0:
144,192,176422,1,0,0:0:0:0:
200,80,176598,6,0,B|216:56|248:48|248:48|272:108|216:148|224:204|224:204|260:204|284:168,1,279.999984741211,2|2,0:0|0:0,0:0:0:0:
444,92,177480,5,0,0:0:0:0:
376,212,177657,2,0,P|336:236|316:276,1,87.4999952316285,2|0,0:0|0:0,0:0:0:0:
120,288,178010,1,2,0:0:0:0:
116,112,178363,6,0,L|116:224,1,87.4999952316285,2|0,0:0|0:0,0:0:0:0:
120,288,178716,1,2,0:0:0:0:
208,156,178892,2,0,L|208:272,1,87.4999952316285,0|2,0:0|0:0,0:0:0:0:
208,332,179245,1,0,0:0:0:0:
360,156,179422,5,0,0:0:0:0:
376,244,179598,2,0,L|376:280,2,29.1666650772095
288,324,179775,5,8,0:0:0:0:
288,296,179863,1,8,0:0:0:0:
288,268,179951,1,8,0:0:0:0:
205,203,180127,6,0,L|216:184,6,21.8749988079071
152,320,180480,2,0,L|141:339,6,21.8749988079071
288,324,180833,6,4,B|304:292|304:292|276:216,1,96.2499976921082,6|4,0:0|0:0,0:0:0:0:
171,131,181186,2,0,P|227:103|263:55,1,96.2499976921082,2|0,0:0|0:0,0:0:0:0:
372,148,181539,1,2,0:0:0:0:
283,235,181716,1,0,0:0:0:0:
384,316,181892,2,0,L|252:316,1,96.2499976921082,2|0,0:0|0:0,0:0:0:0:
164,316,182245,5,2,0:0:0:0:
80,120,182598,2,0,P|160:124|200:164,1,96.2499976921082,2|0,0:0|0:0,0:0:0:0:
112,208,182951,1,2,0:0:0:0:
256,324,183127,2,6,P|248:288|268:220,1,96.2499976921082
260,116,183480,1,0,0:0:0:0:
112,208,183657,6,0,P|96:256|156:268,1,113.749988594056,2|0,0:0|0:0,0:0:0:0:
256,304,184010,1,2,0:0:0:0:
256,252,184098,1,0,0:0:0:0:
276,204,184186,1,2,0:0:0:0:
324,184,184275,1,0,0:0:0:0:
376,180,184363,2,0,P|404:176|440:188,1,56.8749942970279,2|0,0:0|0:0,0:0:0:0:
492,128,184539,6,0,P|424:104|404:108,1,56.8749942970279,2|0,0:0|0:0,0:0:0:0:
388,100,184716,1,2,0:0:0:0:
340,112,184804,1,0,0:0:0:0:
288,116,184892,1,2,0:0:0:0:
240,100,184980,1,0,0:0:0:0:
188,100,185069,2,0,P|128:108|104:132,1,56.8749942970279,2|0,0:0|0:0,0:0:0:0:
72,168,185245,2,0,P|100:184|140:188,1,56.8749942970279,2|0,0:0|0:0,0:0:0:0:
256,192,185422,6,0,B|192:264|192:264|260:240|280:296,1,170.624982891084,2|0,0:0|0:0,0:0:0:0:
348,268,185775,2,0,P|332:304|308:316,1,56.8749942970279,2|0,0:0|0:0,0:0:0:0:
216,356,185951,6,0,L|229:331,1,28.437497148514,2|0,0:0|0:0,0:0:0:0:
176,338,186039,2,0,L|193:315,1,28.437497148514,2|0,0:0|0:0,0:0:0:0:
146,308,186127,2,0,L|169:291,1,28.437497148514,2|0,0:0|0:0,0:0:0:0:
121,265,186216,2,0,L|149:259,1,28.437497148514,2|0,0:0|0:0,0:0:0:0:
116,223,186304,2,0,L|145:223,1,28.437497148514,2|0,0:0|0:0,0:0:0:0:
137,183,186392,6,0,L|93:139,1,56.8749942970279,2|4,0:0|0:0,0:0:0:0:
372,64,186833,6,0,P|312:96|292:144,1,96.2499976921082,2|0,0:0|0:0,0:0:0:0:
376,148,187186,1,2,0:0:0:0:
376,280,187363,1,0,0:0:0:0:
284,344,187539,2,0,P|268:320|268:244,1,96.2499976921082,2|0,0:0|0:0,0:0:0:0:
376,280,187892,1,2,0:0:0:0:
140,192,188245,6,0,B|156:216|156:216|236:192,1,96.2499976921082,2|0,0:0|0:0,0:0:0:0:
300,96,188598,1,2,0:0:0:0:
300,248,188775,1,0,0:0:0:0:
284,344,188951,2,0,P|240:328|212:288,1,96.2499976921082,2|0,0:0|0:0,0:0:0:0:
196,87,189304,6,0,P|272:87|336:115,1,104.999991073609,2|0,0:0|0:0,0:0:0:0:
300,248,189657,1,2,0:0:0:0:
212,288,189833,1,2,0:0:0:0:
140,192,190010,1,2,0:0:0:0:
228,208,190186,5,2,0:0:0:0:
56,132,190363,1,2,0:0:0:0:
64,336,190539,1,0,0:0:0:0:
64,336,190627,1,0,0:0:0:0:
64,336,190716,2,0,L|64:276,1,52.4999955368044,2|0,0:0|0:0,0:0:0:0:
160,240,190892,2,0,L|160:292,1,52.4999955368044,2|0,0:0|0:0,0:0:0:0:
228,208,191069,6,0,L|296:176,1,52.4999955368044,2|0,0:0|0:0,0:0:0:0:
356,152,191245,2,0,L|356:92,1,52.4999955368044,2|0,0:0|0:0,0:0:0:0:
432,148,191422,2,0,L|484:172,1,52.4999955368044
456,256,191598,2,0,L|384:228,1,52.4999955368044,2|0,0:0|0:0,0:0:0:0:
328,308,191775,6,0,L|328:256,1,52.4999955368044,2|0,0:0|0:0,0:0:0:0:
296,212,191951,1,2,0:0:0:0:
252,184,192039,1,0,0:0:0:0:
200,192,192127,1,2,0:0:0:0:
104,344,192480,6,0,P|84:276|92:224,1,104.999991073609,2|0,0:0|0:0,0:0:0:0:
256,88,192833,1,2,0:0:0:0:
256,344,193010,1,0,0:0:0:0:
384,292,193186,2,0,P|400:264|384:180,1,104.999991073609,2|0,0:0|0:0,0:0:0:0:
252,184,193539,1,2,0:0:0:0:
108,80,193892,6,0,B|128:56|128:56|144:128,1,104.999991073609,2|0,0:0|0:0,0:0:0:0:
144,284,194245,1,2,0:0:0:0:
256,88,194422,1,0,0:0:0:0:
364,284,194598,2,0,B|392:296|392:296|388:184,1,104.999991073609,2|0,0:0|0:0,0:0:0:0:
256,88,194951,6,0,P|180:92|136:144,1,113.749988594056,2|0,0:0|0:0,0:0:0:0:
228,272,195304,1,2,0:0:0:0:
284,260,195392,1,0,0:0:0:0:
332,232,195480,1,2,0:0:0:0:
308,180,195569,1,0,0:0:0:0:
276,136,195657,2,0,P|264:72|280:60,1,56.8749942970279,2|0,0:0|0:0,0:0:0:0:
328,16,195833,6,0,P|372:56|372:80,1,56.8749942970279,2|0,0:0|0:0,0:0:0:0:
396,100,196010,1,2,0:0:0:0:
412,152,196098,1,0,0:0:0:0:
380,200,196186,1,2,0:0:0:0:
332,232,196275,1,0,0:0:0:0:
284,260,196363,6,0,L|204:228,1,56.8749942970279,2|0,0:0|0:0,0:0:0:0:
168,188,196539,2,0,L|236:152,1,56.8749942970279,2|0,0:0|0:0,0:0:0:0:
176,92,196716,6,0,P|244:88|288:200,1,170.624982891084,2|0,0:0|0:0,0:0:0:0:
236,268,197069,6,0,L|236:316,4,28.437497148514,2|0|2|0|2,0:0|0:0|0:0|0:0|0:0,0:0:0:0:
132,268,197333,6,0,L|104:268,2,28.437497148514
132,124,197775,6,0,P|216:116|248:88,1,96.2499976921082,2|0,0:0|0:0,0:0:0:0:
324,116,198127,1,2,0:0:0:0:
408,220,198304,1,0,0:0:0:0:
356,276,198480,2,0,P|308:292|240:276,1,96.2499976921082,2|0,0:0|0:0,0:0:0:0:
172,336,198833,1,2,0:0:0:0:
136,112,199186,6,0,P|212:96|260:120,1,96.2499976921082,2|0,0:0|0:0,0:0:0:0:
292,140,199539,1,2,0:0:0:0:
376,244,199716,1,0,0:0:0:0:
264,320,199892,2,0,L|160:316,1,96.2499976921082,2|0,0:0|0:0,0:0:0:0:
64,312,200245,1,2,0:0:0:0:
292,212,200422,1,0,0:0:0:0:
384,140,200598,6,0,P|428:208|472:224,1,104.999991073609,2|0,0:0|0:0,0:0:0:0:
324,296,200951,5,2,0:0:0:0:
268,284,201039,1,0,0:0:0:0:
228,240,201127,1,2,0:0:0:0:
216,184,201216,1,0,0:0:0:0:
180,140,201304,1,2,0:0:0:0:
108,196,201480,2,0,L|108:256,2,52.4999955368044
196,304,201833,5,8,0:0:0:0:
196,272,201922,1,0,0:0:0:0:
196,240,202010,6,0,B|172:160|172:160|256:232|324:156,1,244.999979171754,8|8,0:0|0:0,0:0:0:0:
440,276,202892,2,0,L|440:312,2,19.6874983263016,8|0|8,0:0|0:0|0:0,0:0:0:0:
444,196,203069,1,2,0:0:0:0:
248,104,203245,1,0,0:0:0:0:
196,272,203422,6,0,P|152:224|112:208,1,78.7499933052066,2|0,0:0|0:0,0:0:0:0:
112,124,203775,1,0,0:0:0:0:
248,104,203951,1,0,0:0:0:0:
272,216,204127,1,0,0:0:0:0:
258,318,204304,2,0,P|230:290|192:270,1,78.7499933052066
172,160,204657,1,0,0:0:0:0:
324,68,204833,6,0,P|340:124|372:140,1,78.7499933052066,2|0,0:0|0:0,0:0:0:0:
420,168,205186,1,0,0:0:0:0:
420,276,205363,1,0,0:0:0:0:
332,276,205539,2,0,P|276:220|248:224,1,78.7499933052066,2|0,0:0|0:0,0:0:0:0:
172,160,205892,1,2,0:0:0:0:
152,196,205980,1,0,0:0:0:0:
144,236,206069,1,2,0:0:0:0:
152,276,206157,1,0,0:0:0:0:
172,308,206245,6,0,P|224:336|264:336,1,78.7499933052066,2|0,0:0|0:0,0:0:0:0:
332,276,206598,1,0,0:0:0:0:
244,220,206775,1,0,0:0:0:0:
420,156,206951,1,0,0:0:0:0:
296,72,207127,2,0,P|244:80|220:108,1,78.7499933052066,0|2,0:0|0:0,0:0:0:0:
172,192,207480,1,0,0:0:0:0:
220,292,207657,6,0,P|296:276|312:248,1,78.7499933052066
364,192,208010,1,2,0:0:0:0:
252,192,208186,1,0,0:0:0:0:
232,84,208363,2,0,P|164:120|152:144,1,78.7499933052066,2|0,0:0|0:0,0:0:0:0:
60,248,208716,1,2,0:0:0:0:
68,288,208804,1,0,0:0:0:0:
92,316,208892,1,2,0:0:0:0:
128,336,208980,1,0,0:0:0:0:
168,340,209069,6,0,P|244:324|272:300,1,78.7499933052066,2|0,0:0|0:0,0:0:0:0:
388,224,209422,1,0,0:0:0:0:
244,192,209598,1,0,0:0:0:0:
244,24,209775,1,0,0:0:0:0:
176,132,209951,2,0,P|156:172|156:216,1,78.7499933052066,0|2,0:0|0:0,0:0:0:0:
224,288,210304,1,0,0:0:0:0:
320,336,210480,6,0,P|332:280|320:248,1,78.7499933052066
300,152,210833,1,2,0:0:0:0:
80,140,211010,1,0,0:0:0:0:
100,208,211186,2,0,P|136:188|152:136,1,78.7499933052066,2|0,0:0|0:0,0:0:0:0:
236,84,211539,1,2,0:0:0:0:
276,88,211627,1,0,0:0:0:0:
308,112,211716,1,2,0:0:0:0:
320,148,211804,1,0,0:0:0:0:
328,188,211892,6,0,P|328:252|356:288,1,78.7499933052066,2|0,0:0|0:0,0:0:0:0:
436,312,212245,1,0,0:0:0:0:
464,172,212422,1,0,0:0:0:0:
360,76,212598,5,0,0:0:0:0:
304,208,212775,2,0,P|236:224|220:248,1,78.7499933052066,0|8,0:0|0:0,0:0:0:0:
124,316,213127,1,0,0:0:0:0:
80,132,213304,6,0,P|136:88|152:92,1,78.7499933052066,8|0,0:0|0:0,0:0:0:0:
360,76,213657,1,8,0:0:0:0:
276,304,213833,2,0,P|276:265|302:237,1,78.7499933052066,0|8,0:0|0:0,0:0:0:0:
80,132,214186,2,0,L|28:132,2,39.3749966526033,8|0|8,0:0|0:0|0:0,0:0:0:0:
360,76,214716,6,0,P|348:140|324:160,1,78.7499933052066,2|0,0:0|0:0,0:0:0:0:
328,260,215069,1,0,0:0:0:0:
192,156,215245,1,0,0:0:0:0:
368,212,215422,1,0,0:0:0:0:
200,256,215598,1,0,0:0:0:0:
272,188,215775,1,0,0:0:0:0:
108,348,215951,1,0,0:0:0:0:
328,140,216127,6,0,P|366:147|404:137,1,78.7499933052066,2|0,0:0|0:0,0:0:0:0:
428,256,216480,1,0,0:0:0:0:
356,336,216657,1,0,0:0:0:0:
252,300,216833,2,0,P|212:300|160:256,1,78.7499933052066,2|0,0:0|0:0,0:0:0:0:
140,180,217186,1,2,0:0:0:0:
176,164,217275,1,0,0:0:0:0:
216,160,217363,1,2,0:0:0:0:
256,164,217451,1,0,0:0:0:0:
292,176,217539,6,0,P|352:192|388:180,1,78.7499933052066,2|0,0:0|0:0,0:0:0:0:
436,276,217892,1,0,0:0:0:0:
288,276,218069,1,0,0:0:0:0:
436,276,218245,1,0,0:0:0:0:
324,116,218422,1,0,0:0:0:0:
472,208,218598,1,0,0:0:0:0:
260,72,218775,1,0,0:0:0:0:
220,156,218951,6,0,P|176:188|172:236,1,78.7499933052066,2|0,0:0|0:0,0:0:0:0:
208,312,219304,1,0,0:0:0:0:
312,272,219480,1,0,0:0:0:0:
220,156,219657,2,0,P|180:100|184:76,1,78.7499933052066,2|0,0:0|0:0,0:0:0:0:
316,80,220010,1,2,0:0:0:0:
336,112,220098,1,0,0:0:0:0:
352,148,220186,1,2,0:0:0:0:
356,188,220275,1,0,0:0:0:0:
360,228,220363,6,0,P|368:272|352:308,1,78.7499933052066,2|0,0:0|0:0,0:0:0:0:
244,260,220716,1,0,0:0:0:0:
96,156,220892,1,0,0:0:0:0:
244,260,221069,1,0,0:0:0:0:
324,172,221245,2,0,P|304:124|264:104,1,78.7499933052066
48,208,221598,1,0,0:0:0:0:
164,260,221775,6,0,P|192:292|232:308,1,78.7499933052066,2|0,0:0|0:0,0:0:0:0:
332,260,222127,1,0,0:0:0:0:
236,188,222304,1,0,0:0:0:0:
376,156,222480,5,8,0:0:0:0:
356,116,222569,1,0,0:0:0:0:
336,76,222657,1,8,0:0:0:0:
216,68,222833,5,2,0:0:0:0:
188,96,222922,1,0,0:0:0:0:
164,128,223010,1,2,0:0:0:0:
156,168,223098,1,0,0:0:0:0:
152,208,223186,6,0,P|168:252|204:272,1,78.7499933052066,2|0,0:0|0:0,0:0:0:0:
320,268,223539,1,0,0:0:0:0:
468,144,223716,1,0,0:0:0:0:
320,268,223892,1,0,0:0:0:0:
468,328,224069,1,0,0:0:0:0:
468,144,224245,1,0,0:0:0:0:
468,328,224422,1,0,0:0:0:0:
300,324,224598,5,8,0:0:0:0:
172,244,224775,1,8,0:0:0:0:
320,268,224951,1,8,0:0:0:0:
192,192,225127,1,8,0:0:0:0:
340,212,225304,1,8,0:0:0:0:
264,88,225480,2,0,L|264:48,2,39.3749966526033,0|0|8,0:0|0:0|0:0,0:0:0:0:
264,356,226010,5,4,0:0:0:0:
