osu file format v14

[General]
AudioFilename: audio.mp3
AudioLeadIn: 0
PreviewTime: 63000
Countdown: 0
SampleSet: None
StackLeniency: 0.2
Mode: 0
LetterboxInBreaks: 0
WidescreenStoryboard: 0

[Editor]
Bookmarks: 22028,43971,54943,65914,109800,120771,131743,142714,153686
DistanceSpacing: 1
BeatDivisor: 4
GridSize: 16
TimelineZoom: 1

[Metadata]
Title:Metronic (Frequent Remix)
TitleUnicode:Metronic (Frequent Remix)
Artist:Au5
ArtistUnicode:Au5
Creator:Dementation
Version:ex d
Source:
Tags:
BeatmapID:1728188
BeatmapSetID:824682

[Difficulty]
HPDrainRate:6
CircleSize:4
OverallDifficulty:8.5
ApproachRate:9.5
SliderMultiplier:2.2
SliderTickRate:1

[Events]
//Background and Video events
0,0,"bgformetronic.jpg",0,0
//Break Periods
//Storyboard Layer 0 (Background)
//Storyboard Layer 1 (Fail)
//Storyboard Layer 2 (Pass)
//Storyboard Layer 3 (Foreground)
//Storyboard Sound Samples

[TimingPoints]
0.5,-66.6666666666667,4,1,0,20,0,1
86,342.857142857143,4,1,0,100,1,0
86,-333.333333333333,4,1,0,20,0,0
13800,-285.714285714286,4,1,0,20,0,0
16543,-250,4,1,0,20,0,0
19286,-222.222222222222,4,1,0,20,0,0
22028,-142.857142857143,4,1,0,20,0,0
22543,-100,4,1,0,20,0,0
23400,-142.857142857143,4,1,0,20,0,0
25286,-100,4,1,0,20,0,0
26143,-142.857142857143,4,1,0,20,0,0
29571,-111.111111111111,4,1,0,20,0,0
30257,-142.857142857143,4,1,0,20,0,0
33514,-100,4,1,0,20,0,0
34371,-142.857142857143,4,1,0,20,0,0
36257,-100,4,1,0,20,0,0
37114,-142.857142857143,4,1,0,20,0,0
40543,-111.111111111111,4,1,0,20,0,0
41228,-142.857142857143,4,1,0,20,0,0
43971,-333.333333333334,4,1,0,20,0,0
46714,-250.000000000001,4,1,0,20,0,0
49457,-200,4,1,0,20,0,0
52200,-166.666666666667,4,1,0,20,0,0
54943,-333.333333333334,4,1,0,20,0,0
57686,-250.000000000001,4,1,0,20,0,0
60428,-200,4,1,0,20,0,0
65914,-50,4,1,0,20,0,1
66600,-66.6666666666667,4,1,0,20,0,1
67286,-100,4,1,0,20,0,1
67971,-40,4,1,0,20,0,1
69000,-50,4,1,0,20,0,1
69343,-33.3333333333333,4,1,0,20,0,1
69686,-100,4,1,0,20,0,1
70028,-50,4,1,0,20,0,1
70714,-40,4,1,0,20,0,1
71400,-500,4,1,0,20,0,1
72086,-50,4,1,0,20,0,1
73800,-500,4,1,0,20,0,1
74143,-66.6666666666667,4,1,0,20,0,1
74486,-50,4,1,0,20,0,1
74828,-40,4,1,0,20,0,1
75343,-50,4,1,0,20,0,1
75686,-33.3333333333333,4,1,0,20,0,1
75857,-66.6666666666667,4,1,0,20,0,1
76200,-40,4,1,0,20,0,1
76886,-1000,4,1,0,20,0,1
77143,-66.6666666666667,4,1,0,20,0,1
77571,-200,4,1,0,20,0,1
77914,-50,4,1,0,20,0,1
79286,-40,4,1,0,20,0,1
79971,-100,4,1,0,20,0,1
80314,-66.6666666666667,4,1,0,20,0,1
80657,-50,4,1,0,20,0,1
81343,-66.6666666666667,4,1,0,20,0,1
81686,-50,4,1,0,20,0,1
82371,-500,4,1,0,20,0,1
83057,-50,4,1,0,20,0,1
84771,-500,4,1,0,20,0,1
85114,-66.6666666666667,4,1,0,20,0,1
85457,-50,4,1,0,20,0,1
85800,-40,4,1,0,20,0,1
86314,-50,4,1,0,20,0,1
86657,-33.3333333333333,4,1,0,20,0,1
86828,-66.6666666666667,4,1,0,20,0,1
87343,-66.6666666666667,4,1,0,20,0,0
87857,-50,4,1,0,20,0,1
88543,-66.6666666666667,4,1,0,20,0,1
89228,-50,4,1,0,20,0,1
90257,-66.6666666666667,4,1,0,20,0,1
90943,-50,4,1,0,20,0,1
91286,-33.3333333333333,4,1,0,20,0,1
91628,-200,4,1,0,20,0,1
91800,-40,4,1,0,20,0,1
91971,-50,4,1,0,20,0,1
93343,-500,4,1,0,20,0,1
94028,-50,4,1,0,20,0,1
95743,-200,4,1,0,20,0,1
96086,-500,4,1,0,20,0,1
96428,-66.6666666666667,4,1,0,20,0,1
96771,-200,4,1,0,20,0,1
97114,-40,4,1,0,20,0,1
97628,-50,4,1,0,20,0,1
97971,-66.6666666666667,4,1,0,20,0,1
98143,-40,4,1,0,20,0,1
98828,-1000,4,1,0,20,0,1
99086,-66.6666666666667,4,1,0,20,0,1
99514,-200,4,1,0,20,0,1
99857,-50,4,1,0,20,0,1
101228,-40,4,1,0,20,0,1
101914,-100,4,1,0,20,0,1
102257,-66.6666666666667,4,1,0,20,0,1
102600,-50,4,1,0,20,0,1
103286,-66.6666666666667,4,1,0,20,0,1
103628,-50,4,1,0,20,0,1
104314,-500,4,1,0,20,0,1
105000,-50,4,1,0,20,0,1
105686,-40,4,1,0,20,0,1
106028,-50,4,1,0,20,0,1
106714,-500,4,1,0,20,0,1
107057,-66.6666666666667,4,1,0,20,0,1
107400,-50,4,1,0,20,0,1
107743,-40,4,1,0,20,0,1
108257,-50,4,1,0,20,0,1
108600,-33.3333333333333,4,1,0,20,0,1
108771,-66.6666666666667,4,1,0,20,0,1
109114,-100,4,1,0,20,0,1
109800,-142.857142857143,4,1,0,20,0,0

[HitObjects]
36,68,86,6,0,B|114:43|165:108|165:108|109:186|13:157|13:157|153:199|290:90|290:90|170:199|251:328|251:328|285:227|359:205|359:205|398:258|369:332|369:332|545:247|418:104|418:104|480:109|505:173,1,1583.99995166016
132,262,11057,6,0,B|218:209|213:119|213:119|162:121|128:154,1,263.99999194336
339,292,13800,2,0,P|284:195|408:236,1,307.999990600586
159,156,16543,2,0,B|107:228|157:310|157:310|260:265|253:155,1,352
426,92,19286,2,0,B|372:103|331:99|331:99|311:118|311:118|202:98|145:164|145:164|207:165|236:135,1,395.999987915039
190,276,21343,5,0,0:0:0:0:
190,276,21514,1,0,0:0:0:0:
197,286,21600,1,0,0:0:0:0:
204,296,21686,1,0,0:0:0:0:
258,365,21857,1,0,0:0:0:0:
313,285,22028,6,0,P|343:225|288:100,1,192.499994125366
304,111,22543,2,0,P|294:142|300:189,1,55
313,285,22714,1,0,0:0:0:0:
313,285,23400,6,0,B|244:267|200:289|200:308|151:329|78:309,1,230.99999295044
131,227,24000,1,0,0:0:0:0:
89,311,24086,1,0,0:0:0:0:
89,311,24771,6,0,P|59:251|114:126,1,192.499994125366
97,138,25286,2,0,P|106:169|100:216,1,55
88,312,25457,1,0,0:0:0:0:
89,311,26143,6,0,B|151:329|200:308|200:289|244:267|313:285,1,230.99999295044
270,368,26743,1,0,0:0:0:0:
312,284,26829,1,0,0:0:0:0:
312,284,27343,1,0,0:0:0:0:
312,284,27514,6,0,P|328:173|179:75,1,307.999990600586
181,75,28886,2,0,B|254:107|317:91|317:70|381:52|453:80,1,269.499991775513
444,76,29571,2,0,B|388:11|388:11|469:281,1,346.49998942566
475,301,30257,5,0,0:0:0:0:
475,301,30600,1,0,0:0:0:0:
475,301,30943,2,0,P|391:277|312:309,1,153.999995300293
258,343,31457,1,0,0:0:0:0:
258,343,32143,5,0,0:0:0:0:
269,264,32228,1,0,0:0:0:0:
277,184,32314,1,0,0:0:0:0:
254,268,32571,1,0,0:0:0:0:
262,188,32657,1,0,0:0:0:0:
262,188,33000,6,0,P|292:128|237:3,1,192.499994125366
253,14,33515,2,0,P|243:45|249:92,1,55
262,188,33686,1,0,0:0:0:0:
262,188,34371,6,0,B|193:170|149:192|149:211|100:232|27:212,1,230.99999295044
80,130,34972,1,0,0:0:0:0:
38,214,35058,1,0,0:0:0:0:
38,214,35743,6,0,P|14:276|82:395,1,192.499994125366,0|0,2:0|0:0,0:0:0:0:
64,384,36258,2,0,P|73:352|67:305,1,55
38,214,36429,1,0,0:0:0:0:
38,214,37115,6,0,B|99:196|148:217|148:236|192:258|261:240,1,230.99999295044
219,156,37715,1,0,0:0:0:0:
261,241,37801,1,0,0:0:0:0:
261,241,38315,1,0,0:0:0:0:
261,241,38486,6,0,P|150:224|52:373,1,307.999990600586
52,371,39858,2,0,B|84:298|68:234|47:235|29:170|57:98,1,269.499991775513
53,107,40543,2,0,B|-12:163|-12:163|257:82,1,346.49998942566
278,76,41229,5,0,0:0:0:0:
278,76,41572,1,0,0:0:0:0:
278,76,41915,2,0,P|254:160|286:239,1,153.999995300293
337,316,42429,1,0,0:0:0:0:
337,316,43115,5,0,0:0:0:0:
258,305,43200,1,0,0:0:0:0:
178,297,43286,1,0,0:0:0:0:
262,320,43543,1,0,0:0:0:0:
182,312,43629,1,0,0:0:0:0:
182,312,43971,6,0,B|243:260|210:194|210:194|250:258|336:250,1,263.99999194336
466,73,46714,2,0,P|398:67|252:284,1,352
352,191,49457,2,0,B|289:182|228:137|228:137|317:248|528:235,1,440
183,273,52200,2,0,B|226:207|210:154|201:155|177:86|219:22|219:22|242:119|315:142|315:142|331:201|297:272,1,527.999983886719
96,330,54943,6,0,L|72:66,1,263.99999194336
438,22,57686,6,0,L|406:381,1,352
86,205,60428,6,0,P|146:123|266:126,1,220
324,242,61800,2,0,P|259:326|153:326,1,220
218,20,63000,5,0,0:0:0:0:
290,57,63086,1,0,0:0:0:0:
365,91,63171,5,0,0:0:0:0:
251,165,63343,1,0,0:0:0:0:
365,91,63514,5,0,0:0:0:0:
222,183,63686,1,0,0:0:0:0:
365,91,63857,5,0,0:0:0:0:
186,206,64029,1,0,0:0:0:0:
365,91,64200,5,0,0:0:0:0:
141,234,64372,1,0,0:0:0:0:
365,91,64628,5,0,0:0:0:0:
361,174,64714,1,0,0:0:0:0:
350,253,64799,1,0,0:0:0:0:
342,333,64885,1,0,0:0:0:0:
365,249,65142,1,0,0:0:0:0:
357,329,65228,1,0,0:0:0:0:
356,329,65914,6,0,P|295:323|236:347,1,110
109,351,66086,2,0,B|88:382|38:391|38:391|107:420|169:381,1,220
30,53,66428,2,0,P|9:99|14:173,1,110
45,284,66600,2,0,P|134:248|205:290,1,165.000006294251
454,380,66943,2,0,B|408:301|445:227|445:227|498:246|498:296,1,247.500009441376
497,289,67286,6,0,L|431:294,1,55
309,272,67457,2,0,P|316:341|281:277,1,165
303,142,67800,1,0,0:0:0:0:
303,142,67886,1,0,0:0:0:0:
325,54,67971,2,0,B|467:117|467:117|150:206|150:206|9:144|9:144|325:54,1,962.5
448,22,68657,5,0,0:0:0:0:
369,227,68828,1,0,0:0:0:0:
369,227,69000,2,0,P|430:236|467:191,3,110
462,205,69343,2,0,P|416:271|454:369,1,165.000006294251
509,286,69514,1,0,0:0:0:0:
448,22,69686,2,0,P|424:33|453:22,1,165
448,22,70028,6,0,B|312:15|240:100|240:146|120:182|-8:89|-8:89|34:181|149:201,1,660
330,249,70628,1,0,0:0:0:0:
422,250,70714,2,0,B|426:177|319:71|129:218|303:397|303:397|384:287|533:351|533:351|461:215|510:92,1,962.5
505,102,71400,6,0,L|425:108,1,77
341,5,72086,6,0,P|399:137|321:306,1,330
128,308,72428,1,0,0:0:0:0:
41,277,72513,1,0,0:0:0:0:
14,201,72599,2,0,P|101:89|279:104,1,330
503,216,72942,1,0,0:0:0:0:
492,306,73028,1,0,0:0:0:0:
424,363,73114,2,0,P|283:342|206:183,1,330
341,5,73457,5,0,0:0:0:0:
341,5,73628,1,0,0:0:0:0:
352,91,73714,1,0,0:0:0:0:
373,217,73800,2,0,L|367:179,1,33
367,184,74143,6,0,B|516:258|580:141|481:105|455:178,1,247.500009441376
438,295,74486,2,0,B|430:335|454:373|454:373|410:332|314:329,1,220
169,335,74743,1,0,0:0:0:0:
87,352,74828,2,0,B|115:167|115:167|365:32|365:32|339:249,1,687.5
339,246,75343,2,0,P|280:231|254:176,1,110
220,16,75514,5,0,0:0:0:0:
399,12,75686,2,0,L|382:199,1,165.000006294251
357,338,75857,2,0,B|286:311|232:342|232:355|172:376|107:337,1,247.500009441376
62,197,76200,2,0,B|216:319|216:319|485:139|485:139|219:16|219:16|248:189,1,962.5
243,163,76886,6,0,L|242:150,1,11
243,163,77143,2,0,B|205:92|98:108|98:108|148:142|201:149,1,247.500009441376
463,92,77571,2,0,L|470:5,1,82.5
470,9,77914,6,0,P|440:32|472:14,1,110
343,101,78086,2,0,P|373:123|341:105,1,110
496,202,78257,2,0,B|389:192|304:264|304:278|209:350|76:288,1,440
176,202,78686,1,0,0:0:0:0:
176,202,78771,1,0,0:0:0:0:
176,202,78857,1,0,0:0:0:0:
176,202,78943,6,0,B|131:161|131:161|249:168|249:168|349:298,1,330
418,209,79286,2,0,B|353:249|353:249|235:100|235:100|391:122,1,412.5
420,125,79628,5,0,0:0:0:0:
421,299,79800,1,0,0:0:0:0:
241,155,79971,2,0,L|234:95,2,55
251,240,80228,1,0,0:0:0:0:
260,325,80314,2,0,B|181:363|95:334|95:334|134:308|178:307,1,247.500009441376
174,288,80657,2,0,B|122:292|73:337|73:337|193:388|267:343|266:329|321:304|406:321,1,440
260,325,81171,5,0,0:0:0:0:
349,92,81343,2,0,B|387:73|396:35|396:35|373:144|237:111,1,247.500009441376
152,24,81686,6,0,B|176:145|84:330|84:330|145:245|221:201|221:201|382:227|456:125,1,770
456,124,82371,2,0,L|448:210,1,77
137,384,83057,6,0,P|79:252|157:83,1,330
369,93,83399,1,0,0:0:0:0:
456,124,83484,1,0,0:0:0:0:
483,200,83571,2,0,P|396:312|218:298,1,330
15,161,83913,1,0,0:0:0:0:
26,71,83999,1,0,0:0:0:0:
94,14,84085,2,0,P|235:35|312:194,1,330
137,384,84428,5,0,0:0:0:0:
137,384,84599,1,0,0:0:0:0:
126,298,84685,1,0,0:0:0:0:
105,172,84771,2,0,L|111:210,1,33
105,172,85114,6,0,B|-44:98|-108:215|-9:251|17:178,1,247.500009441376
122,70,85457,2,0,B|130:30|106:-8|106:-8|150:33|246:36,1,220
390,45,85714,1,0,0:0:0:0:
472,28,85800,2,0,B|444:213|444:213|194:348|194:348|220:131,1,687.5
220,134,86314,2,0,P|279:149|305:204,1,110
339,364,86485,5,0,0:0:0:0:
160,368,86657,2,0,L|177:181,1,165.000006294251
202,42,86828,2,0,P|305:54|376:17,1,165.000006294251
361,119,87086,1,0,0:0:0:0:
359,30,87171,1,0,0:0:0:0:
456,193,87343,5,0,0:0:0:0:
444,196,87428,1,0,0:0:0:0:
420,203,87514,1,0,0:0:0:0:
384,213,87600,1,0,0:0:0:0:
331,224,87686,1,0,0:0:0:0:
331,224,87857,6,0,P|274:248|235:299,1,110
132,338,88029,2,0,B|119:373|73:395|73:395|147:405|197:351,1,220
120,31,88371,2,0,P|87:69|73:142,1,110
40,299,88543,2,0,P|116:241|196:263,1,165.000006294251
429,317,88886,2,0,B|389:266|422:217|434:217|451:175|422:148|360:130|331:184,1,247.500009441376
336,175,89229,6,0,P|387:191|446:172,1,110
439,176,89571,2,0,P|409:210|426:279,1,110
416,264,89743,2,0,B|355:257|310:283|310:308|263:331|203:314,1,220
85,167,90000,2,0,L|147:150,1,55
89,78,90086,1,0,0:0:0:0:
285,247,90257,2,0,B|315:319|291:454|153:375|221:295,1,247.500009441376
281,236,90600,5,0,0:0:0:0:
482,263,90771,1,0,0:0:0:0:
482,263,90943,2,0,P|421:272|384:227,3,110
417,384,91286,2,0,P|434:306|389:241,1,165.000006294251
360,97,91457,2,0,P|342:175|388:240,1,165.000006294251
459,164,91628,2,0,L|422:164,1,27.5
258,166,91800,2,0,B|247:211|247:211|264:255|264:255|246:311,1,137.5
388,240,91971,6,0,B|320:333|202:319|208:291|171:217|0:232|-57:352|30:468|193:455|261:326|171:217|158:184,1,660
110,55,92571,1,0,0:0:0:0:
58,0,92657,2,0,B|4:44|13:172|114:201|227:92|227:80|325:32|456:99|456:99|355:196|258:167,1,770
257,166,93343,2,0,L|249:248,1,77
392,240,94028,6,0,P|242:288|103:194,1,330
341,146,94371,1,0,0:0:0:0:
437,150,94457,1,0,0:0:0:0:
392,240,94543,1,0,0:0:0:0:
391,239,94714,6,0,P|258:151|106:199,1,330
347,335,95057,1,0,0:0:0:0:
442,328,95143,1,0,0:0:0:0:
392,240,95229,1,0,0:0:0:0:
392,240,95400,6,0,P|242:189|292:52,1,330
463,88,95743,2,0,L|432:104,1,27.5
359,140,95914,2,0,L|328:156,1,27.5
186,224,96086,2,0,L|224:208,1,33
359,141,96428,2,0,B|329:194|363:227|370:227|394:264|364:333|364:333|353:292|374:263,1,247.500009441376
442,181,96771,2,0,L|501:186,1,55
189,322,97114,6,0,B|56:256|56:256|205:104|205:104|505:245,1,687.5
500,241,97628,2,0,P|457:285|396:280,1,110
218,220,97799,5,0,0:0:0:0:
377,70,97971,2,0,L|367:168,1,82.5000031471254
320,297,98143,2,0,B|69:337|69:337|-29:145|-29:145|194:-4|194:-4|218:222,1,962.5
217,219,98828,6,0,L|216:206,1,11
217,219,99086,2,0,B|179:148|72:164|72:164|122:198|175:205,1,247.500009441376
427,149,99514,2,0,L|434:62,1,82.5
434,66,99857,6,0,P|404:89|436:71,1,110
305,164,100028,2,0,P|335:186|303:168,1,110
460,259,100199,2,0,B|353:249|268:321|268:335|173:407|34:342,1,440
157,269,100628,1,0,0:0:0:0:
157,269,100713,1,0,0:0:0:0:
157,269,100799,1,0,0:0:0:0:
157,269,100885,6,0,B|112:228|112:228|230:235|230:235|330:365,1,330
399,276,101228,2,0,B|334:316|334:316|216:167|216:167|372:189,1,412.5
404,193,101571,5,0,0:0:0:0:
398,368,101743,1,0,0:0:0:0:
223,222,101914,2,0,L|216:162,2,55
234,298,102171,1,0,0:0:0:0:
251,369,102257,2,0,B|175:324|87:345|87:345|123:374|167:379,1,247.500009441376
142,384,102600,2,0,B|90:375|45:326|45:326|167:291|239:337|237:351|289:380|374:368,1,440
251,369,103114,5,0,0:0:0:0:
373,87,103286,2,0,B|411:68|420:30|420:30|397:139|261:106,1,247.500009441376
164,17,103629,6,0,B|140:194|364:287|496:108|496:108|398:237|456:375,1,770
456,375,104314,2,0,L|370:367,1,77
178,319,105000,6,0,P|211:165|362:91,1,330
280,295,105343,1,0,0:0:0:0:
253,384,105429,1,0,0:0:0:0:
178,319,105514,1,0,0:0:0:0:
224,44,105686,1,0,0:0:0:0:
204,54,105771,6,0,B|183:84|145:91|145:91|181:95|218:127,1,137.5
337,172,105943,1,0,0:0:0:0:
364,121,106028,2,0,P|379:182|362:224,1,110
280,295,106200,1,0,0:0:0:0:
312,48,106371,1,0,0:0:0:0:
363,351,106543,1,0,0:0:0:0:
352,265,106629,1,0,0:0:0:0:
331,139,106715,2,0,L|337:177,1,33
331,139,107057,6,0,B|182:65|118:182|217:218|243:145,1,247.500009441376
392,84,107400,2,0,B|410:47|396:4|396:4|428:55|520:83,1,220
490,221,107657,1,0,0:0:0:0:
507,303,107743,2,0,B|321:277|321:277|132:17|132:17|314:46,1,687.5
308,45,108257,2,0,P|339:97|318:154,1,110
229,291,108428,5,0,0:0:0:0:
91,13,108600,2,0,L|179:136,1,137.5
239,203,108771,2,0,P|160:256|154:347,1,165.000006294251
74,258,109029,1,0,0:0:0:0:
147,319,109114,2,0,L|159:192,1,110
74,258,109371,1,0,0:0:0:0:
157,210,109457,1,0,0:0:0:0:
46,64,109628,1,0,0:0:0:0:
74,258,109800,5,0,0:0:0:0:
234,165,109971,1,0,0:0:0:0:
231,158,110057,1,0,0:0:0:0:
228,151,110143,1,0,0:0:0:0:
225,144,110228,1,0,0:0:0:0:
222,137,110314,1,0,0:0:0:0:
277,253,110486,1,0,0:0:0:0:
277,253,111171,6,0,P|174:207|40:326,1,307.999990600586
40,323,112543,6,0,B|38:258|71:216|90:220|122:184|123:112,1,230.99999295044
31,135,113143,1,0,0:0:0:0:
123,113,113229,1,0,0:0:0:0:
123,113,113914,6,0,P|181:208|357:187,1,307.999990600586
357,187,115286,6,0,B|289:252|225:255|212:234|141:243|82:305,1,307.999990600586
81,305,116657,6,0,P|134:206|27:64,1,307.999990600586
28,64,118028,5,0,0:0:0:0:
81,305,118200,1,0,0:0:0:0:
81,305,118628,1,0,0:0:0:0:
60,218,118714,1,0,0:0:0:0:
60,218,119400,6,0,P|141:295|306:229,1,307.999990600586
182,312,120771,6,0,B|243:260|210:194|210:194|250:258|336:250,1,263.99999194336
466,73,123514,2,0,P|398:67|252:284,1,352
352,191,126257,2,0,B|289:182|228:137|228:137|317:248|528:235,1,440
183,273,129000,2,0,B|226:207|210:154|201:155|177:86|219:22|219:22|242:119|315:142|315:142|331:201|297:272,1,527.999983886719
