osu file format v14

[General]
AudioFilename: audio.mp3
AudioLeadIn: 0
PreviewTime: -1
Countdown: 0
SampleSet: Soft
StackLeniency: 0.7
Mode: 0
LetterboxInBreaks: 0
WidescreenStoryboard: 1

[Editor]
Bookmarks: 35202
DistanceSpacing: 0.4
BeatDivisor: 4
GridSize: 16
TimelineZoom: 1

[Metadata]
Title:Atlantis
TitleUnicode:Atlantis
Artist:Au5
ArtistUnicode:Au5
Creator:Vel0ciTy
Version:Drowned
Source:
Tags:
BeatmapID:1910780
BeatmapSetID:814468

[Difficulty]
HPDrainRate:6
CircleSize:4
OverallDifficulty:8
ApproachRate:9
SliderMultiplier:2
SliderTickRate:1

[Events]
//Background and Video events
0,0,"38028085_p0.jpg",0,0
//Break Periods
//Storyboard Layer 0 (Background)
//Storyboard Layer 1 (Fail)
//Storyboard Layer 2 (Pass)
//Storyboard Layer 3 (Foreground)
//Storyboard Sound Samples

[TimingPoints]
70,428.571428571429,4,2,0,5,1,0
13784,-100,4,2,0,5,0,0
14202,-133.333333333333,4,2,0,5,0,0
14845,-200,4,2,0,5,0,0
15488,-400,4,2,0,5,0,0
17631,-133.333333333333,4,2,0,5,0,0
18274,-200,4,2,0,5,0,0
18917,-400,4,2,0,5,0,0
20202,-133.333333333333,4,2,0,5,0,0
21702,-200,4,2,0,5,0,0
22345,-400,4,2,0,5,0,0
24488,-133.333333333333,4,2,0,5,0,0
25131,-200,4,2,0,5,0,0
25774,-400,4,2,0,5,0,0
27060,-100,4,2,0,5,0,0
27488,-333.333333333333,4,2,0,5,0,0
34345,-200,4,2,0,5,0,0
41202,-133.333333333333,4,2,0,9,0,0
52345,-200,4,2,0,9,0,0
52988,-100,4,2,0,9,0,0
54917,-66.6666666666667,4,1,0,30,0,0

[Colours]
Combo1 : 39,239,234
Combo2 : 17,172,255
Combo3 : 37,185,239
Combo4 : 23,209,116
Combo5 : 29,45,243
Combo6 : 26,116,242

[HitObjects]
80,64,13784,5,0,0:0:0:0:
68,160,14212,2,0,P|65:192|73:222,2,37.5000014305115
150,183,14641,1,0,0:0:0:0:
150,106,14855,2,0,P|149:86|141:64,2,25
167,95,15498,2,0,P|166:86|162:79,2,12.5
240,192,17641,6,0,P|245:208|246:229,2,37.5000014305115
256,192,18284,2,0,P|260:205|262:224,2,25
272,192,18927,2,0,P|276:202|276:215,2,12.5
383,114,20212,6,0,B|365:101|365:101|350:104,2,37.5000014305115
390,207,21070,6,0,P|373:205|353:199,2,37.5000014305115
384,221,21713,2,0,P|370:220|351:215,2,25
378,236,22356,2,0,P|367:236|355:231,2,12.5
253,322,24498,6,0,P|248:306|247:285,2,37.5000014305115
237,322,25141,2,0,P|233:309|231:290,2,25
221,322,25784,2,0,P|217:312|217:298,2,12.5
105,320,27070,6,0,B|97:294|97:294|109:275,3,50
128,249,27498,6,0,B|139:221|177:210|177:210|216:251|199:286,1,149.999995422363
279,318,28784,2,0,P|284:305|288:286,1,29.9999990844727
289,214,29212,2,0,P|282:197|271:180,1,29.9999990844727
133,120,29641,2,0,B|154:99|204:94|204:94|221:108|241:116,1,119.999996337891
276,20,30712,2,0,P|307:25|333:40,1,59.9999981689454
403,85,31354,2,0,P|417:96|428:113,1,29.9999990844727
459,184,31783,2,0,P|466:208|466:218,1,29.9999990844727
371,223,32212,2,0,P|359:201|361:183,1,29.9999990844727
466,212,32640,2,0,B|475:229|466:258|466:258|447:272|438:289,1,89.9999972534181
511,330,33498,2,0,P|482:363|440:376,1,89.9999972534181
317,330,34355,6,0,P|291:283|292:219,1,100
395,253,34998,1,0,0:0:0:0:
395,253,35212,2,0,P|390:213|380:193,1,50
316,104,35641,2,0,B|297:85|258:77|258:77|237:100|236:125,1,100
250,207,36284,1,0,0:0:0:0:
250,207,36498,2,0,B|261:238|286:257,1,50
337,307,36927,2,0,P|299:329|265:331,1,75
123,293,37570,1,0,0:0:0:0:
123,293,37784,2,0,B|76:223|124:134|124:134|225:129|297:208|267:340,1,450
322,41,41212,6,0,B|387:41|435:117|435:117|352:150|288:108|288:108|324:145|340:201,1,375.000014305115
360,264,42498,2,0,P|364:311|337:356,1,75.0000028610231
281,294,42927,2,0,B|234:282|211:254|200:223|200:223|227:205|261:196,1,150.000005722046
330,173,43570,1,0,0:0:0:0:
330,173,43784,2,0,B|311:127|267:78|221:54|221:54|203:96|164:108|164:108,1,225.000008583069
126,13,44641,1,0,0:0:0:0:
126,13,44855,2,0,B|81:47|82:98|82:98|82:165|60:195|60:195|126:180|172:239,1,300.000011444092
89,277,45927,2,0,P|133:303|176:299,1,75.0000028610231
152,217,46355,2,0,B|199:159|276:174|276:174|257:227|287:262|287:262,1,225.000008583069
354,209,47212,2,0,P|322:330|222:314,1,225.000008583069
282,254,48070,6,0,B|259:213|283:154|283:154|317:146|333:122|333:122|358:147|389:143,1,225.000008583069
381,76,48927,2,0,P|429:91|450:125,1,75.0000028610231
386,143,49355,2,0,B|331:142|316:91|316:91|258:39|189:72,1,225.000008583069
239,162,50212,2,0,P|180:170|140:152,1,75.0000028610231
119,93,50641,1,0,0:0:0:0:
119,93,50855,2,0,P|92:119|78:153,1,75.0000028610231
166,166,51284,1,0,0:0:0:0:
166,166,51498,2,0,P|151:200|125:226,1,75.0000028610231
166,166,52355,2,0,P|151:200|130:225,1,50
175,174,52998,5,0,0:0:0:0:
175,174,53105,1,0,0:0:0:0:
175,174,53212,2,0,P|208:209|266:225,1,100
423,244,53855,1,0,0:0:0:0:
274,106,54498,1,0,0:0:0:0:
140,129,54927,6,0,B|181:105|181:105|207:53|207:53|248:29,1,150.000005722046
274,106,55355,1,0,0:0:0:0:
302,90,55462,1,0,0:0:0:0:
330,74,55569,1,0,0:0:0:0:
122,194,55784,2,0,L|38:242,1,75.0000028610231
16,256,55998,1,0,0:0:0:0:
93,304,56212,5,0,0:0:0:0:
105,295,56320,1,0,0:0:0:0:
119,287,56427,1,0,0:0:0:0:
133,279,56534,1,0,0:0:0:0:
147,271,56641,6,0,B|188:246|188:246|206:181|206:181|289:134,1,150.000005722046
275,235,57070,1,0,0:0:0:0:
302,218,57177,1,0,0:0:0:0:
330,202,57284,1,0,0:0:0:0:
122,194,57498,2,0,L|52:234,1,75.0000028610231
16,256,57712,1,0,0:0:0:0:
58,84,57927,5,0,0:0:0:0:
74,110,58034,1,0,0:0:0:0:
90,138,58141,1,0,0:0:0:0:
106,165,58248,1,0,0:0:0:0:
122,194,58355,2,0,B|138:221|138:221|221:173|221:173|253:229,1,150.000005722046
288,288,58784,1,0,0:0:0:0:
304,315,58891,1,0,0:0:0:0:
320,343,58998,1,0,0:0:0:0:
176,96,59212,2,0,L|138:31,1,75.0000028610231
124,0,59427,1,0,0:0:0:0:
363,25,59641,5,0,0:0:0:0:
335,40,59748,1,0,0:0:0:0:
307,56,59855,1,0,0:0:0:0:
279,72,59962,1,0,0:0:0:0:
252,88,60070,2,0,B|224:103|224:103|264:173|264:173|222:197,1,150.000005722046
112,256,60498,1,0,0:0:0:0:
84,271,60605,1,0,0:0:0:0:
56,288,60712,1,0,0:0:0:0:
335,136,60927,2,0,B|371:118|371:118|414:127,1,75.0000028610231
448,144,61141,5,0,0:0:0:0:
446,162,61248,1,0,0:0:0:0:
445,181,61355,1,0,0:0:0:0:
434,196,61462,1,0,0:0:0:0:
422,209,61569,1,0,0:0:0:0:
