osu file format v14

[General]
AudioFilename: audio.mp3
AudioLeadIn: 0
PreviewTime: -1
Countdown: 0
SampleSet: Normal
StackLeniency: 0.7
Mode: 0
LetterboxInBreaks: 0
WidescreenStoryboard: 0

[Editor]
DistanceSpacing: 1.3
BeatDivisor: 4
GridSize: 32
TimelineZoom: 1.9

[Metadata]
Title:Snowblind
TitleUnicode:Snowblind
Artist:Au5 (feat. Tasha Baxter)
ArtistUnicode:Au5 (feat. Tasha Baxter)
Creator:Aqualis
Version:Out of mind
Source:
Tags:Snowblind Monstercat Au5 Dubstep
BeatmapID:3421013
BeatmapSetID:1674695

[Difficulty]
HPDrainRate:2
CircleSize:4
OverallDifficulty:6
ApproachRate:9
SliderMultiplier:3.59999990463257
SliderTickRate:2

[Events]
//Background and Video events
//Break Periods
2,11927,22406
2,62682,67521
//Storyboard Layer 0 (Background)
//Storyboard Layer 1 (Fail)
//Storyboard Layer 2 (Pass)
//Storyboard Layer 3 (Foreground)
//Storyboard Layer 4 (Overlay)
//Storyboard Sound Samples

[TimingPoints]
448.80843303951,352.46431298831,4,1,0,100,1,0
1506,-66.6666666666667,4,1,0,100,0,0
23006,-100,4,1,0,100,0,0
24416,-400,4,1,0,100,0,0
24416,-200,4,1,0,100,0,0
27236,352.46431298831,4,1,0,100,1,0
27236,-133.333333333333,4,1,0,100,0,0
27236,-133.333333333333,4,1,0,100,0,0
68474,352.46431298831,4,1,0,100,1,0

[Colours]
Combo1 : 128,128,255
Combo2 : 128,128,192
Combo3 : 255,128,255
Combo4 : 255,128,192

[HitObjects]
160,192,272,5,0,0:0:0:0:
192,192,360,1,0,0:0:0:0:
224,192,448,1,0,0:0:0:0:
399,48,801,5,0,0:0:0:0:
320,160,1153,1,0,0:0:0:0:
160,192,1506,2,0,P|96:128|224:128,1,269.999992847443
128,64,2211,5,0,0:0:0:0:
192,192,2563,1,0,0:0:0:0:
256,192,2916,2,0,P|320:128|192:128,1,269.999992847443
384,64,3620,5,0,0:0:0:0:
384,256,3973,1,0,0:0:0:0:
160,192,4325,2,0,P|180:103|248:212,1,269.999992847443,0|0,0:0|0:0,0:3:0:0:
256,160,5030,5,0,0:0:0:0:
96,64,5383,1,0,0:0:0:0:
128,128,5735,2,0,B|224:224|160:160|320:96|384:224|384:192,1,270.000003147125
128,320,6440,5,0,0:0:0:0:
256,288,6793,1,0,0:0:0:0:
384,160,7145,2,0,B|322:280|363:200|191:188|170:330|160:299,1,270.000003147125
128,288,7850,5,0,0:0:0:0:
96,128,8203,1,0,0:0:0:0:
32,128,8555,2,0,B|160:64|128:64|288:320|256:224,1,270.000003147125
128,64,9260,5,0,0:0:0:0:
320,64,9612,1,0,0:0:0:0:
352,192,9965,2,0,B|224:128|256:128|288:256|128:288,1,270.000003147125,0|0,0:3|0:3,0:3:0:0:
64,192,10670,5,0,0:0:0:0:
192,96,11022,1,0,0:0:0:0:
256,160,11375,1,0,0:0:0:0:
256,192,11727,1,0,0:0:0:0:
64,128,23006,6,0,B|192:64|352:160|224:288,1,359.999990463257
320,224,23711,6,0,B|192:288|32:192|160:64,1,359.999990463257
384,224,24416,6,0,P|384:128|384:128,1,89.9999976158143
256,64,25121,1,0,0:0:0:0:
160,160,25473,1,0,0:0:0:0:
64,224,25826,6,0,P|64:320|64:320,1,89.9999976158143
192,288,26531,1,0,0:0:0:0:
256,224,26883,1,0,0:0:0:0:
256,96,27236,5,0,0:0:0:0:
352,288,27588,1,0,0:0:0:0:
160,288,27940,1,0,0:0:0:0:
256,192,28293,1,0,0:0:0:0:
352,192,28469,5,0,0:0:0:0:
352,160,28557,1,0,0:0:0:0:
352,128,28645,1,0,0:0:0:0:
128,128,28822,5,0,0:0:0:0:
128,256,28998,1,0,0:0:0:0:
192,64,29174,1,0,0:0:0:0:
224,192,29350,1,0,0:0:0:0:
288,96,29527,1,0,0:0:0:0:
320,256,29703,1,0,0:0:0:0:
448,128,29879,5,0,0:0:0:0:
416,160,29967,1,0,0:0:0:0:
384,192,30055,1,0,0:0:0:0:
256,192,30231,5,0,0:0:0:0:
256,320,30407,1,0,0:0:0:0:
192,128,30583,1,0,0:0:0:0:
160,256,30759,1,0,0:0:0:0:
96,160,30936,1,0,0:0:0:0:
64,320,31112,1,0,0:0:0:0:
160,256,31289,2,0,P|160:160|160:224,2,67.5000007867814
160,96,31641,1,0,0:0:0:0:
256,192,31818,1,0,0:0:0:0:
352,192,31994,2,0,P|352:288|352:223,2,67.5000007867814
352,96,32346,1,0,0:0:0:0:
256,160,32522,1,0,0:0:0:0:
256,256,32699,2,0,P|256:352|256:288,2,67.5000007867814
256,256,33227,2,0,P|256:352|256:288,2,67.5000007867814
256,256,33580,2,0,P|256:352|256:288,2,67.5000007867814
256,256,33932,2,0,P|256:352|256:288,2,67.5000007867814
160,256,34285,5,0,0:0:0:0:
256,96,34461,1,0,0:0:0:0:
352,256,34637,1,0,0:0:0:0:
160,160,34814,1,0,0:0:0:0:
352,160,34990,1,0,0:0:0:0:
160,256,35166,1,0,0:0:0:0:
256,96,35342,1,0,0:0:0:0:
352,256,35519,1,0,0:0:0:0:
96,256,35695,5,0,0:0:0:0:
160,64,35871,1,0,0:0:0:0:
192,256,36047,5,0,0:0:0:0:
256,64,36223,1,0,0:0:0:0:
288,256,36400,5,0,0:0:0:0:
352,64,36576,1,0,0:0:0:0:
416,256,36752,5,0,0:0:0:0:
480,64,36928,1,0,0:0:0:0:
480,256,37105,5,0,0:0:0:0:
416,64,37281,1,0,0:0:0:0:
352,256,37457,5,0,0:0:0:0:
288,64,37633,1,0,0:0:0:0:
224,256,37810,5,0,0:0:0:0:
160,64,37986,1,0,0:0:0:0:
96,256,38162,5,0,0:0:0:0:
32,64,38338,1,0,0:0:0:0:
96,96,38514,2,0,B|96:288|96:224|96:160,1,179.999995231629
192,96,38867,2,0,B|192:288|192:224|192:160,1,179.999995231629
288,96,39219,2,0,B|288:288|288:224|288:160,1,179.999995231629
384,96,39572,2,0,B|384:288|384:224|384:160,1,179.999995231629
384,256,39924,5,0,0:0:0:0:
96,128,40101,1,0,0:0:0:0:
384,128,40277,1,0,0:0:0:0:
128,256,40453,1,0,0:0:0:0:
128,128,40629,5,0,0:0:0:0:
384,288,40805,1,0,0:0:0:0:
128,288,40982,1,0,0:0:0:0:
384,128,41158,1,0,0:0:0:0:
128,96,41334,6,0,B|128:288|64:256,1,179.999995231629
384,96,41687,6,0,B|384:288|448:256|448:256|448:256|448:256,1,179.999995231629
160,192,42039,5,0,0:0:0:0:
192,160,42215,1,0,0:0:0:0:
224,128,42392,1,0,0:0:0:0:
256,96,42568,1,0,0:0:0:0:
256,96,42744,5,0,0:0:0:0:
276,116,42832,1,0,0:0:0:0:
296,136,42920,1,0,0:0:0:0:
316,156,43008,1,0,0:0:0:0:
320,160,43096,2,0,L|320:256,3,89.9999976158143
256,96,43449,5,0,0:0:0:0:
236,116,43537,1,0,0:0:0:0:
216,136,43625,1,0,0:0:0:0:
196,156,43713,1,0,0:0:0:0:
192,160,43801,2,0,L|192:256,3,89.9999976158143
160,192,44154,5,0,0:0:0:0:
192,160,44330,1,0,0:0:0:0:
224,128,44507,1,0,0:0:0:0:
256,96,44683,1,0,0:0:0:0:
160,256,44859,5,0,0:0:0:0:
256,96,45035,1,0,0:0:0:0:
352,256,45211,1,0,0:0:0:0:
160,160,45388,1,0,0:0:0:0:
160,256,45564,5,0,0:0:0:0:
256,96,45740,1,0,0:0:0:0:
352,256,45916,1,0,0:0:0:0:
160,160,46093,1,0,0:0:0:0:
352,160,46269,1,0,0:0:0:0:
160,256,46445,1,0,0:0:0:0:
256,96,46621,1,0,0:0:0:0:
352,256,46798,1,0,0:0:0:0:
416,256,46974,5,0,0:0:0:0:
352,64,47150,1,0,0:0:0:0:
320,256,47326,5,0,0:0:0:0:
256,64,47502,1,0,0:0:0:0:
224,256,47679,5,0,0:0:0:0:
160,64,47855,1,0,0:0:0:0:
96,256,48031,5,0,0:0:0:0:
32,64,48207,1,0,0:0:0:0:
32,256,48384,5,0,0:0:0:0:
96,64,48560,1,0,0:0:0:0:
160,256,48736,5,0,0:0:0:0:
224,64,48912,1,0,0:0:0:0:
288,256,49089,5,0,0:0:0:0:
352,64,49265,1,0,0:0:0:0:
416,256,49441,5,0,0:0:0:0:
480,64,49617,1,0,0:0:0:0:
96,224,49793,6,0,L|224:96,1,179.999995231629
384,288,50146,6,0,L|256:128,1,179.999995231629
96,128,50498,6,0,L|288:160,1,179.999995231629,0|0,0:0|0:0,0:3:0:0:
288,128,50851,6,0,L|160:256,1,179.999995231629,0|0,0:0|0:0,0:3:0:0:
128,96,51203,5,0,0:0:0:0:
160,224,51379,1,0,0:0:0:0:
256,96,51556,1,0,0:0:0:0:
256,256,51732,1,0,0:0:0:0:
352,192,51908,5,0,0:0:0:0:
352,64,52084,1,0,0:0:0:0:
480,224,52261,1,0,0:0:0:0:
256,96,52437,1,0,0:0:0:0:
352,192,52613,5,0,0:0:0:0:
256,256,52789,1,0,0:0:0:0:
352,320,52966,1,0,0:0:0:0:
256,256,53142,1,0,0:0:0:0:
160,192,53318,5,0,0:0:0:0:
256,96,53494,1,0,0:0:0:0:
352,192,53671,1,0,0:0:0:0:
256,96,53847,1,0,0:0:0:0:
46,266,54023,5,0,0:0:0:0:
46,266,54111,1,0,0:0:0:0:
46,266,54199,1,0,0:0:0:0:
46,266,54288,1,0,0:0:0:0:
46,266,54376,1,0,0:0:0:0:
46,266,54464,1,0,0:0:0:0:
46,266,54552,1,0,0:0:0:0:
46,266,54640,1,0,0:0:0:0:
132,197,54728,5,0,0:0:0:0:
132,197,54816,1,0,0:0:0:0:
132,197,54904,1,0,0:0:0:0:
132,197,54992,1,0,0:0:0:0:
132,197,55081,1,0,0:0:0:0:
132,197,55169,1,0,0:0:0:0:
132,197,55257,1,0,0:0:0:0:
132,197,55345,1,0,0:0:0:0:
122,110,55433,5,0,0:0:0:0:
214,69,55609,1,0,0:0:0:0:
151,203,55785,1,0,0:0:0:0:
246,167,55961,1,0,0:0:0:0:
329,62,56138,5,0,0:0:0:0:
411,176,56314,1,0,0:0:0:0:
309,286,56490,1,0,0:0:0:0:
148,282,56666,1,0,0:0:0:0:
256,192,56843,12,0,62482,0:0:0:0:
64,320,68121,5,0,0:0:0:0:
64,192,68298,1,0,0:0:0:0:
128,96,68474,1,0,0:0:0:0:
128,96,68826,2,0,P|352:128|320:160,1,539.999985694885
256,192,69355,1,0,0:0:0:0:
256,192,69443,1,0,0:0:0:0:
256,192,69531,1,0,0:0:0:0:
256,192,69883,1,0,0:0:0:0:
256,192,69971,1,0,0:0:0:0:
160,96,70236,2,0,P|160:288|224:32,1,1079.99997138977
256,192,70941,1,0,0:0:0:0:
256,192,71205,1,0,0:0:0:0:
256,192,71293,1,0,0:0:0:0:
416,64,71646,6,0,B|416:320|416:320|224:32|256:256|320:128,1,539.999985694885
320,128,71998,1,0,0:0:0:0:
256,192,72351,1,0,0:0:0:0:
256,192,72703,1,0,0:0:0:0:
256,192,72879,1,0,0:0:0:0:
256,192,72967,1,0,0:0:0:0:
256,192,73056,1,0,0:0:0:0:
