osu file format v14

[General]
AudioFilename: Blue.mp3
AudioLeadIn: 0
PreviewTime: 86505
Countdown: 0
SampleSet: Soft
StackLeniency: 0.5
Mode: 0
LetterboxInBreaks: 0
WidescreenStoryboard: 0

[Editor]
Bookmarks: 44156,54956,65927,76899,87870,98841,109813,120784,131756,142727,153699,164670,177013,189356,200327,211299,222270,233241,244213,255184,266156,277127,288099,299070,308670,319641
DistanceSpacing: 2
BeatDivisor: 4
GridSize: 4
TimelineZoom: 2.2

[Metadata]
Title:Blue
TitleUnicode:Blue
Artist:Au5 & Fractal
ArtistUnicode:Au5 & Fractal
Creator:xChorse
Version:Depths
Source:
Tags:monstercat drumstep dubstep aus insane
BeatmapID:786428
BeatmapSetID:357510

[Difficulty]
HPDrainRate:6
CircleSize:4
OverallDifficulty:8
ApproachRate:9.2
SliderMultiplier:1.4
SliderTickRate:1

[Events]
//Background and Video events
0,0,"bg.jpg",0,0
//Break Periods
2,155105,155877
2,156647,158620
2,189562,199763
//Storyboard Layer 0 (Background)
//Storyboard Layer 1 (Fail)
//Storyboard Layer 2 (Pass)
//Storyboard Layer 3 (Foreground)
//Storyboard Sound Samples

[TimingPoints]
105,342.857142857143,4,2,0,100,1,0
1470,-100,4,2,0,40,0,0
2162,-100,4,2,0,50,0,0
2847,-100,4,2,0,60,0,0
3533,-100,4,2,0,70,0,0
4219,-100,4,2,0,75,0,0
4905,-100,4,2,0,80,0,0
5590,-100,4,2,0,85,0,0
6276,-100,4,2,0,90,0,0
6962,-100,4,2,0,95,0,0
7647,-100,4,2,0,100,0,0
10390,-100,4,2,0,5,0,0
11076,-100,4,2,0,100,0,0
15876,-66.6666666666667,4,2,0,100,0,0
16219,-100,4,2,0,100,0,0
44162,-111.111111111111,4,2,0,90,0,0
54960,-105.263157894737,4,2,0,100,0,0
83590,-105.263157894737,4,2,0,100,0,1
85819,-105.263157894737,4,2,0,70,0,1
86162,-105.263157894737,4,2,0,85,0,1
86676,-105.263157894737,4,2,0,100,0,0
87876,-133.333333333333,4,2,0,100,0,0
91990,-100,4,2,0,100,0,0
93362,-133.333333333333,4,2,0,100,0,0
105362,-200,4,2,0,100,0,0
105876,-133.333333333333,4,2,0,100,0,0
107076,-100,4,2,0,100,0,0
109813,-133.333333333333,4,2,0,100,0,0
115990,-100,4,2,0,100,0,0
128505,-66.6666666666667,4,2,0,100,0,0
128847,-100,4,2,0,100,0,0
153705,-100,4,2,0,85,0,0
153790,-100,4,2,0,75,0,0
153876,-100,4,2,0,65,0,0
153962,-100,4,2,0,55,0,0
154047,-100,4,2,0,45,0,0
154133,-100,4,2,0,35,0,0
154219,-100,4,2,0,25,0,0
154305,-100,4,2,0,15,0,0
154390,-100,4,2,0,5,0,0
154990,-100,4,2,0,100,0,0
189362,-100,4,2,0,30,0,0
200333,-133.333333333333,4,2,0,50,0,0
203076,-133.333333333333,4,2,0,60,0,0
205819,-133.333333333333,4,2,0,70,0,0
208562,-133.333333333333,4,2,0,80,0,0
210790,-133.333333333333,4,2,0,100,0,0
211305,-100,4,2,0,100,0,0
227590,-100,4,2,0,100,0,1
232047,-100,4,2,0,100,0,0
233247,-200,4,2,0,100,0,0
234276,-181.818181818182,4,2,0,100,0,0
234619,-153.846153846154,4,2,0,100,0,0
235133,-133.333333333333,4,2,0,100,0,0
235305,-100,4,2,0,100,0,0
259990,-133.333333333333,4,2,0,100,0,0
260676,-100,4,2,0,100,0,0

[Colours]
Combo1 : 0,128,192
Combo2 : 0,128,255
Combo3 : 37,185,239
Combo4 : 0,255,255

[HitObjects]
256,192,1476,12,0,10390,0:0:0:0:
149,272,11076,5,4,3:2:0:0:
149,272,11419,2,0,P|168:228|168:180,1,70,0|0,3:0|3:0,0:0:0:0:
163,82,11762,1,8,0:0:0:0:
56,56,12276,1,0,3:0:0:0:
163,82,12790,2,0,P|243:122|287:78,2,140,0|8|0,3:0|0:0|0:0,0:0:0:0:
75,187,13819,6,0,P|67:243|43:279,1,70,0|0,3:0|0:0,0:0:0:0:
135,339,14162,2,0,P|143:283|167:247,1,70,0|0,0:0|3:0,0:0:0:0:
247,219,14505,2,0,P|239:275|215:311,1,70,8|0,0:0|0:0,0:0:0:0:
380,192,14847,2,0,L|412:188,4,17.5
276,98,15190,5,0,0:0:0:0:
372,268,15533,2,0,L|368:292,6,17.5,0|0|0|0|0|0|0,0:0|0:0|0:0|0:0|3:0|0:0|0:0,0:0:0:0:
372,224,15876,2,0,B|377:203|377:203|345:206|345:206|380:192|380:192|360:184|360:184|432:188|444:108,1,210.000008010865,8|0,0:0|0:0,0:0:0:0:
460,32,16390,1,0,0:0:0:0:
343,81,16562,2,0,L|251:104,1,70,0|0,3:0|3:0,0:0:0:0:
44,256,17076,2,0,L|136:233,1,70,0|8,3:0|0:0,0:0:0:0:
275,97,17590,2,0,P|299:49|291:9,1,70,0|0,0:0|3:0,0:0:0:0:
404,84,17933,5,0,0:0:0:0:
389,115,18018,1,0,0:0:0:0:
384,150,18104,1,0,0:0:0:0:
392,184,18190,1,0,0:0:0:0:
396,218,18275,1,0,3:0:0:0:
389,252,18361,1,0,0:0:0:0:
372,283,18447,1,0,0:0:0:0:
284,324,18619,2,0,P|220:328|188:256,1,140,8|0,0:0|0:0,0:0:0:0:
180,172,19133,1,0,0:0:0:0:
112,240,19305,6,0,P|107:274|95:307,2,70,0|0|0,3:0|0:0|0:0,0:0:0:0:
180,172,19819,1,0,3:0:0:0:
248,100,19990,2,0,P|260:68|264:24,1,70,8|0,0:0|0:0,0:0:0:0:
148,80,20333,1,0,0:0:0:0:
180,172,20505,1,0,3:0:0:0:
380,96,20676,5,0,0:0:0:0:
380,96,20762,1,0,0:0:0:0:
380,96,20847,2,0,P|444:136|432:220,1,140
380,276,21362,1,0,0:0:0:0:
192,316,21705,2,0,P|140:320|100:260,1,105
148,232,22047,6,0,B|104:200|60:224|44:252|44:252|44:224|48:204,1,140,0|0,3:0|3:0,0:0:0:0:
64,120,22562,1,0,3:0:0:0:
171,96,22733,2,0,P|200:78|234:69,2,70,8|0|0,0:0|0:0|0:0,0:0:0:0:
40,232,23247,1,0,3:0:0:0:
235,69,23762,5,0,3:0:0:0:
436,132,24105,2,0,P|448:200|380:216,1,140,8|0,0:0|0:0,0:0:0:0:
235,69,24790,5,0,3:0:0:0:
116,64,25133,2,0,P|80:100|52:112,1,70,0|0,0:0|3:0,0:0:0:0:
40,232,25476,1,8,0:0:0:0:
148,320,25819,1,0,0:0:0:0:
236,268,25990,1,0,3:0:0:0:
324,320,26162,6,0,L|324:348,8,17.5
424,272,26676,1,0,3:0:0:0:
336,220,26847,2,0,P|368:168|368:128,1,70,8|0,0:0|0:0,0:0:0:0:
320,68,27190,2,0,P|288:120|288:160,1,70
336,220,27533,5,0,3:0:0:0:
324,320,27705,1,0,3:0:0:0:
148,320,28047,1,0,3:0:0:0:
108,220,28219,1,8,0:0:0:0:
320,68,28733,1,0,3:0:0:0:
320,68,29247,6,0,P|208:80|192:120,1,140,0|8,3:0|0:0,0:0:0:0:
170,181,29762,2,0,L|190:193,3,17.5
160,176,29933,2,0,P|100:220|92:220,1,70
148,324,30276,6,0,P|208:280|216:280,1,70,0|0,3:0|0:0,0:0:0:0:
304,280,30619,1,0,0:0:0:0:
388,216,30790,1,0,3:0:0:0:
416,116,30962,2,0,P|368:84|360:52,1,70,8|0,0:0|0:0,0:0:0:0:
252,60,31305,2,0,L|256:84,4,17.5,0|0|0|0|0,0:0|0:0|0:0|0:0|3:0,0:0:0:0:
152,32,31647,6,0,L|112:100,1,70
64,184,31990,1,0,0:0:0:0:
56,217,32075,1,0,0:0:0:0:
67,250,32161,1,0,3:0:0:0:
93,273,32247,1,0,3:0:0:0:
127,280,32333,1,8,0:0:0:0:
228,244,32505,1,0,0:0:0:0:
324,284,32676,1,0,0:0:0:0:
350,306,32761,1,0,0:0:0:0:
377,329,32847,1,0,0:0:0:0:
467,274,33019,6,0,P|470:239|465:204,1,70,4|0,3:2|0:0,0:0:0:0:
384,148,33362,1,0,3:0:0:0:
228,244,33533,1,0,3:0:0:0:
377,329,33705,2,0,P|440:336|467:272,1,140,8|0,0:0|0:0,0:0:0:0:
384,148,34219,1,0,3:0:0:0:
176,120,34733,5,0,3:0:0:0:
440,192,35076,2,0,P|451:125|403:79,1,140,8|0,0:0|0:0,0:0:0:0:
223,172,35762,2,0,P|158:188|108:144,1,140,0|0,3:0|0:0,0:0:0:0:
336,96,36276,1,0,3:0:0:0:
340,216,36447,6,0,L|332:304,1,70,8|0,0:0|0:0,0:0:0:0:
324,304,36705,1,0,0:0:0:0:
304,332,36790,1,0,0:0:0:0:
200,332,36962,1,0,3:0:0:0:
104,292,37133,6,0,L|80:296,8,17.5
188,220,37647,1,0,3:0:0:0:
108,144,37819,2,0,P|84:108|48:88,1,70,8|0,0:0|0:0,0:0:0:0:
160,56,38162,2,0,P|184:92|220:112,1,70
308,128,38505,6,0,L|396:152,1,70,0|0,3:0|3:0,0:0:0:0:
199,282,39019,2,0,L|111:258,1,70,0|8,3:0|0:0,0:0:0:0:
308,128,39705,1,0,3:0:0:0:
108,144,40219,1,0,3:0:0:0:
380,124,40562,1,8,0:0:0:0:
160,56,41247,5,0,3:0:0:0:
132,264,41762,1,0,3:0:0:0:
264,308,41933,1,8,0:0:0:0:
297,312,42018,1,0,0:0:0:0:
330,302,42104,1,0,0:0:0:0:
357,279,42190,1,0,0:0:0:0:
372,248,42275,1,0,0:0:0:0:
420,116,42447,1,0,3:0:0:0:
420,116,42619,6,0,L|460:36,1,70
280,40,42962,2,0,L|272:56,7,17.5,0|0|0|0|0|0|0|0,0:0|0:0|0:0|0:0|3:0|0:0|0:0|3:0,0:0:0:0:
272,55,43305,2,0,P|236:67|174:51,1,70,8|0,0:0|0:0,0:0:0:0:
125,180,43647,2,0,P|161:168|223:184,1,70,0|0,3:0|0:0,0:0:0:0:
304,180,43990,5,0,3:0:0:0:
460,216,44162,1,0,3:0:0:0:
420,300,44333,2,0,P|359:311|312:272,1,125.999996154785
304,180,44847,2,0,P|249:149|192:171,1,125.999996154785
132,264,45362,5,0,0:0:0:0:
100,68,45876,1,0,0:0:0:0:
304,180,46390,5,0,0:0:0:0:
304,180,46562,1,0,0:0:0:0:
324,256,46733,2,0,L|256:296,1,62.9999980773926,0|0,3:0|3:0,0:0:0:0:
338,72,47076,2,0,L|392:40,2,62.9999980773926
248,104,47590,2,0,P|184:144|148:112,1,125.999996154785
140,216,48105,6,0,P|113:199|82:194,2,62.9999980773926
227,263,48619,2,0,P|254:280|285:285,1,62.9999980773926
372,256,48962,2,0,L|380:272,8,15.7499995193482,0|0|0|0|0|0|0|0|0,0:0|0:0|3:0|3:0|3:0|3:0|0:0|0:0|0:0,0:0:0:0:
456,212,49476,6,0,P|450:182|434:155,1,62.9999980773926,0|0,3:0|3:0,0:0:0:0:
372,84,49819,2,0,P|308:92|244:56,1,125.999996154785
152,124,50333,1,0,0:0:0:0:
227,263,50505,1,0,0:0:0:0:
119,212,50676,1,0,0:0:0:0:
104,66,50847,6,0,P|160:46|188:54,1,62.9999980773926
254,66,51190,2,0,P|285:62|311:46,1,62.9999980773926
404,44,51533,1,0,0:0:0:0:
404,44,51705,1,0,0:0:0:0:
388,136,51876,2,0,L|360:208,1,62.9999980773926
272,220,52219,6,0,L|300:148,1,62.9999980773926,0|0,3:0|3:0,0:0:0:0:
162,47,52562,1,0,0:0:0:0:
191,136,52733,1,0,0:0:0:0:
254,66,52905,1,0,0:0:0:0:
148,28,53076,1,0,0:0:0:0:
180,152,53247,1,0,0:0:0:0:
264,48,53419,1,0,0:0:0:0:
136,4,53590,6,0,L|100:68,1,62.9999980773926
52,180,53933,1,0,0:0:0:0:
52,180,54105,1,0,0:0:0:0:
92,300,54276,2,0,P|140:320|184:288,1,94.499997116089,0|0,0:0|3:0,0:0:0:0:
175,301,54619,1,0,3:0:0:0:
175,301,54705,1,0,3:0:0:0:
368,304,54962,6,0,L|396:228,1,66.4999982242585,4|0,3:2|0:0,0:0:0:0:
294,161,55305,2,0,L|266:237,1,66.4999982242585,8|0,0:0|0:0,0:0:0:0:
175,301,55647,1,0,0:0:0:0:
175,301,55819,1,0,3:0:0:0:
120,200,55990,1,8,0:0:0:0:
80,72,56162,1,0,0:0:0:0:
80,72,56247,1,0,0:0:0:0:
80,72,56333,6,0,L|164:44,1,66.4999982242585,0|0,3:0|0:0,0:0:0:0:
357,139,56676,2,0,L|273:167,1,66.4999982242585,8|0,0:0|3:0,0:0:0:0:
120,200,57190,1,0,3:0:0:0:
207,301,57362,1,8,0:0:0:0:
368,304,57533,1,0,0:0:0:0:
368,304,57705,6,0,L|416:244,1,66.4999982242585,0|0,3:0|0:0,0:0:0:0:
248,249,58047,2,0,L|200:309,1,66.4999982242585,8|0,0:0|0:0,0:0:0:0:
120,352,58390,1,0,0:0:0:0:
120,200,58562,1,0,3:0:0:0:
56,276,58733,1,8,0:0:0:0:
152,104,58905,1,0,0:0:0:0:
152,104,58990,1,0,0:0:0:0:
152,104,59076,6,0,P|212:84|240:84,1,66.4999982242585,0|0,3:0|0:0,0:0:0:0:
308,48,59419,1,8,0:0:0:0:
308,48,59590,1,0,3:0:0:0:
460,228,59933,1,0,3:0:0:0:
460,228,60105,2,0,P|436:252|408:272,1,66.4999982242585,8|0,0:0|3:0,0:0:0:0:
376,288,60362,1,0,3:0:0:0:
340,288,60447,6,0,P|304:284|264:292,1,66.4999982242585,0|0,3:0|0:0,0:0:0:0:
120,200,60790,2,0,P|156:204|196:196,1,66.4999982242585,8|0,0:0|0:0,0:0:0:0:
356,112,61133,2,0,P|323:107|290:112,1,66.4999982242585,0|0,0:0|3:0,0:0:0:0:
185,199,61476,1,8,0:0:0:0:
60,300,61647,1,0,0:0:0:0:
60,300,61733,1,0,0:0:0:0:
60,300,61819,6,0,P|40:224|32:216,1,66.4999982242585,0|0,3:0|3:0,0:0:0:0:
36,120,62162,2,0,P|56:44|64:36,1,66.4999982242585,8|0,0:0|3:0,0:0:0:0:
272,44,62676,1,0,3:0:0:0:
400,80,62847,2,0,P|440:108|456:140,1,66.4999982242585,8|0,0:0|0:0,0:0:0:0:
484,248,63190,5,0,3:0:0:0:
308,164,63533,1,8,0:0:0:0:
184,296,64047,1,0,3:0:0:0:
184,296,64219,1,8,0:0:0:0:
98,253,64390,2,0,L|80:268,4,16.6249995560646,0|0|0|0|0,0:0|0:0|0:0|0:0|3:0,0:0:0:0:
193,197,64733,5,0,3:0:0:0:
151,80,64905,1,8,0:0:0:0:
266,47,65076,1,0,3:0:0:0:
308,164,65247,1,8,0:0:0:0:
193,197,65419,2,0,L|212:208,4,16.6249995560646,0|0|0|0|0,0:0|0:0|3:0|3:0|3:0,0:0:0:0:
64,192,65762,1,0,0:0:0:0:
64,192,65847,1,0,0:0:0:0:
64,192,65933,6,0,P|36:260|80:304,1,132.999996448517,4|8,3:2|0:0,0:0:0:0:
160,344,66447,1,0,0:0:0:0:
252,308,66619,2,0,P|308:304|336:320,1,66.4999982242585,0|0,0:0|3:0,0:0:0:0:
412,336,66962,2,0,P|440:318|458:290,1,66.4999982242585,8|0,0:0|0:0,0:0:0:0:
468,252,67219,1,0,3:0:0:0:
460,212,67305,6,0,L|440:140,1,66.4999982242585,0|0,3:0|3:0,0:0:0:0:
336,84,67647,2,0,L|356:156,1,66.4999982242585,8|0,0:0|3:0,0:0:0:0:
160,344,68162,2,0,L|142:279,1,66.4999982242585,0|8,3:0|0:0,0:0:0:0:
156,180,68505,1,0,0:0:0:0:
100,100,68676,2,0,P|144:72|160:48,2,66.4999982242585,0|0|8,3:0|0:0|0:0,0:0:0:0:
56,192,69190,1,0,0:0:0:0:
156,180,69362,2,0,P|208:180|234:169,1,66.4999982242585,0|0,0:0|3:0,0:0:0:0:
308,124,69705,5,8,0:0:0:0:
388,68,69876,1,0,0:0:0:0:
408,116,69962,1,0,0:0:0:0:
420,164,70047,1,0,3:0:0:0:
436,264,70219,1,0,3:0:0:0:
344,304,70390,2,0,L|272:300,1,66.4999982242585,8|0,0:0|3:0,0:0:0:0:
88,176,70905,2,0,L|160:180,1,66.4999982242585,0|8,0:0|0:0,0:0:0:0:
252,208,71247,6,0,L|260:224,4,16.6249995560646,0|0|0|0|0,0:0|0:0|0:0|0:0|3:0,0:0:0:0:
224,112,71590,1,0,0:0:0:0:
288,36,71762,2,0,P|356:48|372:48,1,66.4999982242585,8|0,0:0|0:0,0:0:0:0:
420,164,72105,2,0,P|352:176|336:176,1,66.4999982242585,0|0,0:0|3:0,0:0:0:0:
252,208,72447,1,8,0:0:0:0:
188,292,72619,1,0,0:0:0:0:
188,292,72705,1,0,0:0:0:0:
187,291,72790,6,0,P|155:279|122:275,1,66.4999982242585,0|0,3:0|3:0,3:0:0:0:
24,191,73133,6,0,P|72:183|108:163,1,66.4999982242585,8|0,0:0|3:0,0:0:0:0:
256,68,73647,1,0,3:0:0:0:
348,104,73819,2,0,P|388:148|400:156,1,66.4999982242585,8|0,0:0|0:0,0:0:0:0:
448,244,74162,2,0,P|446:303|442:317,1,66.4999982242585,0|0,3:0|0:0,0:0:0:0:
340,340,74505,1,8,0:0:0:0:
256,272,74676,1,0,0:0:0:0:
248,224,74762,1,0,0:0:0:0:
240,176,74847,1,0,0:0:0:0:
256,68,75019,1,0,3:0:0:0:
164,104,75190,6,0,P|124:148|112:156,1,66.4999982242585,8|0,0:0|0:0,0:0:0:0:
80,184,75447,1,0,0:0:0:0:
64,232,75533,2,0,P|61:291|57:305,1,66.4999982242585,0|0,3:0|3:0,0:0:0:0:
160,308,75876,1,8,0:0:0:0:
256,272,76047,5,0,3:0:0:0:
285,286,76132,1,0,0:0:0:0:
318,284,76218,1,8,0:0:0:0:
346,266,76304,1,0,0:0:0:0:
362,238,76389,1,0,3:0:0:0:
361,205,76475,1,0,3:0:0:0:
345,176,76562,1,8,0:0:0:0:
317,159,76647,1,8,0:0:0:0:
284,157,76732,1,8,0:0:0:0:
255,172,76818,1,8,0:0:0:0:
228,192,76905,6,0,P|168:228|124:188,1,132.999996448517,4|8,3:2|0:0,0:0:0:0:
84,108,77419,1,0,0:0:0:0:
180,80,77590,2,0,P|216:80|248:68,1,66.4999982242585,0|0,3:0|0:0,0:0:0:0:
344,52,77933,1,8,0:0:0:0:
412,124,78105,1,0,0:0:0:0:
412,124,78190,1,0,0:0:0:0:
412,124,78276,2,0,L|424:204,1,66.4999982242585,4|0,3:2|0:0,0:0:0:0:
440,288,78619,1,8,0:0:0:0:
440,288,78790,1,0,0:0:0:0:
344,332,78962,6,0,P|284:336|248:344,1,66.4999982242585,0|0,3:0|0:0,0:0:0:0:
184,276,79305,1,8,0:0:0:0:
180,348,79647,2,0,P|120:308|124:236,1,132.999996448517,4|8,3:2|0:0,0:0:0:0:
332,36,80333,2,0,P|392:76|388:148,1,132.999996448517,0|8,3:0|0:0,0:0:0:0:
344,220,80847,1,0,0:0:0:0:
344,220,80933,1,0,0:0:0:0:
344,220,81019,2,0,P|304:264|296:288,1,66.4999982242585,4|0,2:0|0:0,0:0:0:0:
184,276,81362,2,0,P|224:232|232:208,1,66.4999982242585,8|0,0:0|0:0,0:0:0:0:
328,108,81705,2,0,P|288:152|280:176,1,66.4999982242585,0|0,3:0|0:0,0:0:0:0:
184,276,82047,5,8,0:0:0:0:
132,188,82219,1,8,0:0:0:0:
132,188,82305,1,8,0:0:0:0:
132,188,82390,2,0,P|104:132|92:120,1,66.4999982242585,12|0,0:2|3:0,0:0:0:0:
232,164,82733,2,0,P|260:220|272:232,1,66.4999982242585,8|0,0:0|3:0,0:0:0:0:
328,108,83076,2,0,P|300:52|288:40,1,66.4999982242585,8|0,0:0|3:0,0:0:0:0:
176,43,83419,1,8,0:0:0:0:
132,188,83590,5,0,3:0:0:0:
132,188,83676,1,0,3:0:0:0:
132,188,83762,1,12,0:2:0:0:
368,296,83933,1,0,3:0:0:0:
368,296,84019,1,0,3:0:0:0:
368,296,84104,1,12,0:0:0:0:
232,280,84276,5,0,3:0:0:0:
232,280,84362,1,0,3:0:0:0:
232,280,84448,1,12,0:0:0:0:
476,212,84619,1,0,3:0:0:0:
476,212,84705,1,0,3:0:0:0:
476,212,84791,1,12,0:0:0:0:
420,108,84962,5,0,3:0:0:0:
398,82,85047,1,0,3:0:0:0:
371,63,85133,1,12,0:0:0:0:
341,49,85219,1,0,3:0:0:0:
308,43,85304,1,0,3:0:0:0:
275,44,85390,1,0,3:0:0:0:
243,52,85476,1,12,0:0:0:0:
212,68,85562,1,0,3:0:0:0:
188,92,85647,1,0,3:0:0:0:
168,120,85733,1,0,3:0:0:0:
148,144,85819,6,12,L|156:168,7,16.6249995560646
116,160,86162,2,12,L|108:188,7,16.6249995560646
85,160,86505,2,0,P|33:232|149:300,1,232.749993784905
187,284,87190,2,0,P|232:263|280:273,1,99.7499973363877,8|0,0:0|0:0,0:0:0:0:
392,316,87533,2,0,P|355:351|300:352,1,99.7499973363877
187,284,87876,6,0,B|220:208|220:208|284:108,1,183.750007009506,0|0,3:0|0:0,0:0:0:0:
240,152,88562,2,0,P|188:160|164:84,1,131.25000500679,8|0,0:0|0:0,0:0:0:0:
156,52,89076,2,0,P|140:136|100:168,1,131.25000500679,0|0,3:0|0:0,0:0:0:0:
68,184,89590,2,0,P|112:204|160:200,1,78.7500030040742,0|0,3:0|0:0,0:0:0:0:
188,196,89933,1,8,0:0:0:0:
332,67,90105,2,0,B|364:43|364:43|368:115|308:119,1,131.25000500679,0|0,3:0|0:0,0:0:0:0:
273,101,90619,6,0,P|185:97|189:197,1,210.000008010865,0|8,3:0|0:0,0:0:0:0:
216,224,91391,1,0,0:0:0:0:
228,260,91476,1,0,0:0:0:0:
224,300,91562,1,0,0:0:0:0:
196,328,91647,1,0,0:0:0:0:
116,328,91819,1,0,0:0:0:0:
228,260,91990,6,0,B|264:244|303:262|303:262|336:284|367:278,1,140,2|0,0:0|0:0,0:0:0:0:
406,119,92505,1,0,0:0:0:0:
406,119,92590,1,0,3:0:0:0:
406,119,92676,2,2,B|370:135|331:117|331:117|298:95|267:101,1,140,10|0,0:0|0:0,0:0:0:0:
168,256,93362,5,0,3:0:0:0:
151,276,93447,1,0,0:0:0:0:
135,297,93533,1,2,0:0:0:0:
92,180,93705,1,0,3:0:0:0:
65,183,93790,1,0,0:0:0:0:
39,186,93876,1,2,0:0:0:0:
128,84,94047,6,0,P|168:80|192:56,1,52.5000020027161,8|0,0:0|0:0,0:0:0:0:
200,60,94305,1,0,0:0:0:0:
221,45,94390,1,0,0:0:0:0:
246,39,94476,1,0,0:0:0:0:
272,44,94562,1,0,0:0:0:0:
294,58,94647,1,0,0:0:0:0:
312,76,94733,6,0,P|328:132|368:132,1,105.000004005432,0|0,0:0|3:0,0:0:0:0:
464,100,95247,1,0,3:0:0:0:
376,232,95419,2,0,B|384:256|368:276|368:276|340:208|276:212|248:240,1,183.750007009506,8|0,0:0|0:0,0:0:0:0:
296,292,96105,6,0,P|236:300|204:280,1,78.7500030040742,2|0,0:0|0:0,0:0:0:0:
156,324,96447,2,0,P|156:264|204:224,1,105.000004005432,2|0,0:0|0:0,0:0:0:0:
268,168,96962,1,0,0:0:0:0:
336,88,97133,1,8,0:0:0:0:
376,232,97305,1,0,0:0:0:0:
420,136,97476,2,0,P|460:108|480:104,1,52.5000020027161,0|0,3:0|3:0,0:0:0:0:
252,56,97990,1,0,0:0:0:0:
252,56,98076,1,0,0:0:0:0:
252,56,98162,2,0,P|212:84|192:88,1,52.5000020027161,8|0,0:0|0:0,0:0:0:0:
224,196,98505,6,0,P|264:168|284:164,1,52.5000020027161
364,216,98847,2,0,P|428:224|440:216,1,78.7500030040742,0|0,3:0|0:0,0:0:0:0:
420,232,99190,2,0,L|340:280,1,78.7500030040742,0|0,3:0|0:0,0:0:0:0:
336,284,99533,1,8,0:0:0:0:
224,320,99705,1,0,0:0:0:0:
112,300,99876,5,2,0:0:0:0:
87,291,99961,1,2,0:0:0:0:
68,273,100047,1,2,0:0:0:0:
57,249,100133,1,2,0:0:0:0:
56,223,100218,1,2,0:0:0:0:
66,199,100304,1,2,0:0:0:0:
84,180,100390,1,2,0:0:0:0:
172,128,100562,2,0,L|236:140,1,52.5000020027161,0|0,3:0|0:0,0:0:0:0:
324,148,100905,1,8,0:0:0:0:
412,88,101076,6,0,P|468:148|440:192,1,131.25000500679,0|0,3:0|0:0,0:0:0:0:
412,216,101590,2,0,L|404:260,3,26.2500010013581
319,173,101933,2,0,L|323:147,3,26.2500010013581
228,88,102276,2,0,L|213:65,3,26.2500010013581,8|0|0|0,0:0|0:0|0:0|0:0,0:0:0:0:
196,188,102619,2,0,L|210:210,3,26.2500010013581,0|0|0|0,3:0|0:0|0:0|0:0,0:0:0:0:
164,188,102962,5,0,0:0:0:0:
138,194,103047,1,0,0:0:0:0:
117,209,103133,1,0,0:0:0:0:
104,231,103219,1,0,0:0:0:0:
100,257,103304,1,0,0:0:0:0:
106,282,103390,1,0,0:0:0:0:
122,303,103476,1,0,0:0:0:0:
144,316,103562,1,0,3:0:0:0:
168,324,103647,2,0,B|240:280|240:280|300:200,1,183.750007009506,8|0,0:0|0:0,0:0:0:0:
324,168,104333,6,0,P|404:224|360:272,1,183.750007009506,0|0,3:0|0:0,0:0:0:0:
312,268,105019,2,0,L|224:232,1,78.7500030040742,8|0,0:0|0:0,0:0:0:0:
208,220,105362,6,2,B|194:224|194:224|178:212|178:212|158:212|158:212|147:194|147:194|121:195|121:195|113:178|113:178,1,105
96,144,105962,2,0,L|92:128,4,13.125000500679,0|0|0|0|0,3:0|3:0|3:0|3:0|0:0,0:0:0:0:
128,124,106219,1,0,0:0:0:0:
164,112,106305,1,0,0:0:0:0:
204,112,106390,2,0,P|228:152|220:192,1,78.7500030040742,8|0,0:0|0:0,0:0:0:0:
208,220,106733,2,0,L|285:149,1,105.000004005432,0|0,0:0|3:0,0:0:0:0:
436,52,107247,5,0,0:0:0:0:
424,148,107419,2,0,P|416:204|424:228,1,70
460,320,107762,1,8,0:0:0:0:
460,320,107933,1,0,0:0:0:0:
356,316,108105,2,0,P|300:312|272:320,1,70
208,220,108447,2,0,P|264:224|292:216,1,70,0|0,3:0|0:0,0:0:0:0:
328,144,108790,1,0,0:0:0:0:
436,52,108962,1,0,0:0:0:0:
424,148,109133,1,8,0:0:0:0:
240,108,109305,5,0,3:0:0:0:
196,84,109390,1,0,3:0:0:0:
148,64,109476,2,2,L|124:60,7,17.5
124,88,109819,2,0,P|116:140|100:164,1,78.7500030040742,0|0,3:0|0:0,0:0:0:0:
52,220,110162,2,0,P|32:276|56:324,1,105.000004005432,0|8,0:0|0:0,0:0:0:0:
136,323,110676,2,0,L|220:303,1,78.7500030040742
252,308,111019,2,0,P|324:304|352:256,1,131.25000500679,0|0,3:0|0:0,0:0:0:0:
324,152,111533,6,0,B|296:196|296:196|280:260,1,105.000004005432,0|8,3:0|0:0,0:0:0:0:
136,324,112047,2,0,P|80:348|60:280,1,131.25000500679,0|0,3:0|0:0,0:0:0:0:
68,260,112562,2,0,P|100:216|104:180,1,78.7500030040742,0|0,3:0|0:0,0:0:0:0:
112,156,112905,2,2,P|148:128|208:148,1,105.000004005432,2|8,0:0|0:0,0:0:0:0:
351,257,113419,1,0,0:0:0:0:
351,257,113505,1,0,0:0:0:0:
351,257,113590,1,0,0:0:0:0:
276,140,113762,1,0,0:0:0:0:
276,140,113933,6,0,P|376:120|400:188,1,183.750007009506,2|0,3:2|3:0,0:0:0:0:
385,256,114619,2,0,B|460:160|460:160|390:184,1,183.750007009506,10|0,0:0|3:0,0:0:0:0:
360,188,115305,2,0,P|308:212|272:200,1,78.7500030040742
252,204,115647,2,0,L|196:248,1,52.5000020027161,0|0,3:0|0:0,0:0:0:0:
124,296,115990,2,0,P|152:320|200:328,2,70,8|0|0,0:0|0:0|0:0,0:0:0:0:
60,212,116505,1,0,0:0:0:0:
68,108,116676,6,0,L|112:80,1,35
184,104,116847,2,0,L|221:97,1,35
312,132,117019,2,0,P|316:76|292:44,1,70,0|0,3:0|3:0,0:0:0:0:
408,96,117362,2,0,P|404:152|428:184,1,70,8|0,0:0|0:0,0:0:0:0:
468,252,117705,2,0,P|412:300|364:260,1,140,0|0,0:0|3:0,0:0:0:0:
312,132,118219,5,0,0:0:0:0:
208,236,118390,2,0,P|168:260|136:288,1,70,0|0,0:0|3:0,0:0:0:0:
48,240,118733,2,0,P|88:216|120:188,1,70
144,104,119076,1,8,0:0:0:0:
144,104,119247,1,0,0:0:0:0:
244,72,119419,2,0,L|328:52,1,70,0|0,3:0|3:0,0:0:0:0:
417,56,119762,1,0,0:0:0:0:
436,160,119933,5,0,3:0:0:0:
432,212,120019,1,0,3:0:0:0:
424,264,120105,2,0,P|392:296|352:304,1,70,8|0,0:0|0:0,0:0:0:0:
272,268,120447,2,0,P|294:241|326:228,1,70
436,160,120790,6,0,P|464:96|408:56,1,140,0|0,3:0|3:0,0:0:0:0:
216,72,121305,1,0,0:0:0:0:
312,60,121476,1,8,0:0:0:0:
120,60,121647,5,0,0:0:0:0:
87,72,121732,1,0,0:0:0:0:
63,97,121818,1,2,0:0:0:0:
51,130,121904,1,2,0:0:0:0:
53,164,121989,1,2,0:0:0:0:
69,195,122075,1,2,0:0:0:0:
96,217,122161,1,2,0:0:0:0:
129,226,122247,1,2,0:0:0:0:
164,220,122332,1,2,0:0:0:0:
193,201,122418,1,2,0:0:0:0:
212,172,122505,6,0,P|276:168|332:232,1,140,0|8,3:0|0:0,0:0:0:0:
440,136,123019,2,0,P|372:139|324:90,1,140,0|0,3:0|3:0,0:0:0:0:
233,102,123533,6,0,L|216:72,3,35,0|0|0|0,3:0|0:0|0:0|0:0,0:0:0:0:
136,96,123876,2,0,L|144:136,3,35
49,146,124219,2,0,L|56:112,3,35,8|0|0|0,0:0|0:0|0:0|0:0,0:0:0:0:
140,176,124562,2,0,L|122:206,3,35,0|0|0|0,3:0|0:0|0:0|0:0,0:0:0:0:
210,233,124905,6,0,L|220:200,3,35
300,216,125247,2,0,L|306:250,3,35,0|0|0|0,0:0|0:0|0:0|3:0,0:0:0:0:
312,269,125590,2,0,P|364:293|412:241,1,105,8|0,0:0|0:0,0:0:0:0:
448,208,125933,2,0,P|472:152|492:144,1,70
347,95,126276,2,0,P|297:109|252:85,1,105,0|0,3:0|0:0,0:0:0:0:
188,124,126619,2,0,P|140:100|80:128,1,105,0|0,3:0|0:0,0:0:0:0:
40,160,126962,2,0,P|88:184|148:156,1,105,8|0,0:0|0:0,0:0:0:0:
253,86,127305,2,2,L|261:58,8,17.5
134,169,127819,5,0,0:0:0:0:
134,169,127904,1,0,3:0:0:0:
134,169,127990,1,0,3:0:0:0:
88,284,128162,1,0,0:0:0:0:
88,284,128333,1,8,0:0:0:0:
204,284,128505,2,0,B|224:276|236:252|236:252|248:276|248:276|260:252|268:232|268:232|264:252|268:276|268:276|304:220|368:232|368:232,1,262.500010013581
384,228,129019,6,0,P|424:224|460:188,1,70,0|0,3:0|0:0,0:0:0:0:
468,68,129362,2,0,P|428:72|392:108,1,70
384,228,129705,1,8,0:0:0:0:
268,232,129876,1,0,0:0:0:0:
119,269,130047,6,0,L|67:293,1,35
24,228,130219,2,0,L|76:204,1,35
64,200,130390,2,0,B|88:164|152:168,1,70,0|0,3:0|0:0,0:0:0:0:
268,232,130733,1,0,0:0:0:0:
266,51,130905,2,0,L|252:24,4,17.5,0|0|0|0|8,3:0|3:0|3:0|3:0|0:0,3:0:0:0:
140,80,131247,2,2,L|116:64,10,17.5
166,113,131762,6,0,P|194:177|134:233,1,140,0|0,3:0|0:0,0:0:0:0:
325,326,132447,2,0,P|297:262|351:203,1,140,8|0,2:0|0:0,0:0:0:0:
360,56,132962,1,0,0:0:0:0:
360,56,133047,1,0,0:0:0:0:
360,56,133133,1,0,3:0:0:0:
92,156,133647,2,0,P|84:216|72:236,1,70,0|8,3:0|0:0,0:0:0:0:
256,72,134505,5,0,3:0:0:0:
420,156,135019,2,0,P|428:216|440:236,1,70,0|8,3:0|0:0,0:0:0:0:
256,312,135705,1,0,0:0:0:0:
256,312,135790,1,0,0:0:0:0:
256,312,135876,2,0,P|208:324|248:236,1,210,0|0,3:0|0:0,0:0:0:0:
368,264,136562,1,8,0:0:0:0:
336,56,136905,5,0,0:0:0:0:
314,83,136990,1,0,3:0:0:0:
283,100,137076,1,0,2:0:0:0:
249,104,137162,1,0,3:0:0:0:
215,96,137247,1,0,3:0:0:0:
132,52,137933,1,8,0:0:0:0:
76,192,138447,5,0,0:0:0:0:
76,192,138533,1,0,0:0:0:0:
76,192,138619,1,0,3:0:0:0:
392,288,139133,2,0,L|404:204,1,70,0|8,3:0|0:0,0:0:0:0:
215,96,139647,1,0,3:0:0:0:
76,192,139990,1,0,3:0:0:0:
336,56,140676,5,8,0:0:0:0:
172,316,141190,1,0,0:0:0:0:
172,316,141276,1,0,0:0:0:0:
172,316,141362,2,2,P|216:292|128:228,1,210,2|0,3:2|0:0,0:2:0:0:
76,308,142047,1,8,0:0:0:0:
134,221,142219,1,0,0:0:0:0:
156,172,142305,1,0,3:0:0:0:
172,124,142390,2,0,L|148:104,7,17.5,0|0|0|0|0|0|0|0,3:0|0:0|0:0|0:0|0:0|0:0|0:0|0:0,0:0:0:0:
192,116,142733,6,0,P|244:92|280:108,1,70,4|0,3:2|0:0,0:0:0:0:
376,124,143076,1,0,0:0:0:0:
400,300,143419,2,0,P|348:324|312:308,1,70,8|0,0:0|0:0,0:0:0:0:
228,264,143762,1,0,0:0:0:0:
156,172,143933,1,0,0:0:0:0:
156,172,144019,1,0,0:0:0:0:
156,172,144105,5,0,3:0:0:0:
228,264,144619,1,0,3:0:0:0:
356,172,144790,1,8,0:0:0:0:
280,56,144962,1,0,0:0:0:0:
420,56,145133,1,0,0:0:0:0:
296,128,145305,1,0,0:0:0:0:
156,172,145476,6,0,P|96:160|96:72,1,140,0|0,3:0|0:0,0:0:0:0:
176,40,145990,1,0,0:0:0:0:
280,56,146162,2,0,L|424:56,1,140,8|0,0:0|0:0,0:0:0:0:
444,152,146676,1,0,0:0:0:0:
412,192,146762,1,0,0:0:0:0:
380,232,146847,5,0,3:0:0:0:
304,324,147019,1,0,0:0:0:0:
428,324,147190,1,0,0:0:0:0:
184,320,147362,1,0,3:0:0:0:
140,192,147533,1,8,0:0:0:0:
444,152,147876,5,0,0:0:0:0:
444,152,147962,1,0,0:0:0:0:
444,152,148047,1,0,3:0:0:0:
444,152,148133,1,0,3:0:0:0:
444,152,148219,1,0,3:0:0:0:
143,91,148562,1,0,0:0:0:0:
248,68,148905,6,0,L|276:216,1,140,8|0,0:0|0:0,0:0:0:0:
344,284,149419,1,0,0:0:0:0:
344,284,149505,1,0,0:0:0:0:
344,284,149590,2,0,P|404:252|368:196,1,140,0|0,3:0|0:0,0:0:0:0:
274,205,150105,1,0,3:0:0:0:
188,145,150276,2,0,L|132:77,1,70,8|0,0:0|0:0,0:0:0:0:
248,68,150619,2,0,L|304:136,1,70
396,108,150962,2,0,L|340:40,1,70,0|0,3:0|0:0,0:0:0:0:
248,68,151305,6,0,P|208:116|136:72,1,140,0|8,0:0|0:0,0:0:0:0:
52,164,151819,1,0,0:0:0:0:
264,312,152162,1,0,0:0:0:0:
264,312,152247,1,0,0:0:0:0:
264,312,152333,1,0,3:0:0:0:
416,316,152505,1,0,3:0:0:0:
364,188,152676,1,8,0:0:0:0:
496,156,152847,1,0,3:0:0:0:
364,188,153019,1,8,0:0:0:0:
256,160,153190,5,0,3:0:0:0:
204,168,153276,1,0,3:0:0:0:
152,160,153362,2,8,L|100:152,3,35
100,164,153705,6,8,L|65:158,14,35
88,172,156447,5,0,3:0:0:0:
240,272,159190,5,0,3:0:0:0:
412,240,160219,2,0,L|432:280,2,35
112,92,160905,2,0,L|88:76,6,17.5
124,104,161247,2,0,P|144:148|56:164,1,140
244,56,161933,1,0,3:0:0:0:
244,56,162105,2,0,P|300:80|336:76,1,70
376,160,162447,1,0,0:0:0:0:
376,160,162619,1,0,0:0:0:0:
376,160,163305,6,0,L|400:132,2,35
136,160,163647,2,0,L|112:132,2,35
192,264,163990,2,0,P|256:292|320:264,1,140
376,160,164676,1,0,3:0:0:0:
172,224,166047,6,0,P|92:184|104:304,1,245
100,304,166733,2,0,B|136:284|136:284|156:296|188:300|216:276,1,105
244,280,167076,2,0,P|296:260|368:284,1,105
384,284,167419,1,4,3:2:0:0:
256,84,167762,1,0,3:0:0:0:
172,224,167933,1,0,3:0:0:0:
384,284,168105,1,8,0:0:0:0:
436,76,168619,1,0,3:0:0:0:
256,84,169133,2,0,B|152:92|152:92|200:120,1,140,0|8,3:0|0:0,0:0:0:0:
352,216,170162,5,0,3:0:0:0:
172,224,170676,1,0,3:0:0:0:
256,84,170847,1,8,0:0:0:0:
92,348,171362,1,0,3:0:0:0:
80,256,171533,2,0,L|48:228,4,35
172,224,172047,1,0,3:0:0:0:
256,192,172219,2,0,B|288:204|324:176|324:176|336:136,1,105,8|0,0:0|0:0,0:0:0:0:
340,128,172562,6,0,P|384:84|432:152,1,140,0|0,0:0|3:0,0:0:0:0:
456,264,173076,1,0,3:0:0:0:
256,192,173419,1,0,3:0:0:0:
114,61,173590,1,8,0:0:0:0:
80,256,174105,1,0,3:0:0:0:
256,192,174619,2,0,P|320:192|340:128,1,140,0|8,3:0|0:0,0:0:0:0:
332,96,175047,1,0,0:0:0:0:
304,76,175133,1,0,0:0:0:0:
268,72,175219,1,0,0:0:0:0:
232,76,175305,6,0,P|144:92|108:40,1,140,0|0,0:0|3:0,0:0:0:0:
40,152,176162,1,0,3:0:0:0:
80,256,176333,2,0,P|88:292|76:348,1,70,8|0,0:0|0:0,0:0:0:0:
200,356,176676,2,0,P|192:320|204:264,1,70,0|0,0:0|3:0,0:0:0:0:
249,140,177019,2,0,P|321:148|321:80,1,140
332,60,177447,1,0,0:0:0:0:
364,47,177532,1,0,3:0:0:0:
398,51,177619,1,0,3:0:0:0:
426,71,177704,1,8,0:0:0:0:
444,176,177876,5,0,0:0:0:0:
404,272,178047,1,0,0:0:0:0:
360,300,178133,1,0,0:0:0:0:
308,316,178219,1,0,0:0:0:0:
160,292,178390,2,0,P|96:316|40:248,1,140,0|0,3:0|3:0,0:0:0:0:
32,80,178905,1,0,3:0:0:0:
128,180,179076,2,0,L|104:264,2,70,8|0|0,0:0|0:0|0:0,0:0:0:0:
384,180,179590,1,0,3:0:0:0:
40,152,180105,1,0,3:0:0:0:
384,180,180447,6,0,P|420:104|372:64,1,140,8|0,0:0|0:0,0:0:0:0:
208,44,181133,1,0,3:0:0:0:
72,328,181647,1,0,3:0:0:0:
168,288,181819,1,8,0:0:0:0:
168,288,181905,1,0,0:0:0:0:
168,288,181990,1,0,0:0:0:0:
168,288,182076,1,0,0:0:0:0:
168,288,182162,2,0,P|204:304|260:284,1,70,0|0,0:0|3:0,0:0:0:0:
360,196,182505,6,0,P|324:180|268:200,1,70
248,200,182762,1,0,0:0:0:0:
212,232,182847,1,0,0:0:0:0:
72,328,183019,1,0,3:0:0:0:
40,228,183190,2,0,L|32:144,1,70,8|0,0:0|0:0,0:0:0:0:
110,24,183533,2,0,B|118:132|118:132|146:168,1,140,0|0,0:0|3:0,0:0:0:0:
248,200,184047,1,0,3:0:0:0:
328,96,184390,1,0,3:0:0:0:
137,157,184562,1,8,0:0:0:0:
360,196,185076,6,0,P|396:268|332:280,1,140,0|0,3:0|0:0,0:0:0:0:
256,300,185590,2,0,P|212:292|176:296,1,70,0|0,3:0|0:0,0:0:0:0:
82,267,185933,2,0,P|94:183|146:155,1,140,8|0,0:0|0:0,0:0:0:0:
232,124,186447,1,0,0:0:0:0:
328,96,186619,2,0,P|392:76|412:60,2,70,0|0|0,3:0|0:0|0:0,0:0:0:0:
232,124,187133,1,0,3:0:0:0:
144,76,187305,5,8,0:0:0:0:
113,58,187390,1,0,0:0:0:0:
79,58,187476,1,0,0:0:0:0:
48,75,187562,1,0,0:0:0:0:
30,104,187647,1,0,0:0:0:0:
36,208,187819,1,0,3:0:0:0:
120,268,187990,5,0,0:0:0:0:
153,277,188075,1,0,0:0:0:0:
187,287,188161,1,0,0:0:0:0:
220,297,188247,1,0,0:0:0:0:
254,307,188332,1,0,0:0:0:0:
368,284,188505,5,0,3:0:0:0:
392,259,188590,1,0,3:0:0:0:
416,212,188676,2,0,L|420:184,14,17.5,8|0|0|0|0|0|0|0|0|0|0|0|0|0|0,0:0|0:0|0:0|0:0|0:0|0:0|0:0|0:0|0:0|0:0|0:0|0:0|0:0|0:0|0:0,0:0:0:0:
424,156,189362,1,2,0:0:0:0:
124,264,200333,6,0,P|172:272|188:272,1,52.5000020027161
252,256,200676,2,0,P|344:240|360:256,1,105.000004005432
416,272,201190,2,0,L|432:148,1,105.000004005432
388,100,201705,2,0,P|328:116|280:88,1,105.000004005432
228,54,202219,2,0,P|179:36|130:53,1,105.000004005432
76,108,202733,1,0,0:0:0:0:
64,192,202905,1,0,0:0:0:0:
128,264,203076,6,0,P|140:204|148:192,1,52.5000020027161
179,147,203419,2,0,L|235:39,1,105.000004005432
308,40,203933,2,0,P|320:100|368:140,1,105.000004005432
416,176,204447,2,0,P|424:216|420:252,1,52.5000020027161
396,324,204790,1,0,0:0:0:0:
296,324,204962,1,0,0:0:0:0:
204,288,205133,1,0,0:0:0:0:
135,212,205305,1,0,0:0:0:0:
135,212,205476,2,0,P|155:164|155:140,1,52.5000020027161
252,112,205819,6,0,P|232:160|232:184,2,52.5000020027161
344,68,206333,1,0,0:0:0:0:
448,88,206505,2,0,L|436:152,1,52.5000020027161
444,244,206847,2,0,L|453:295,1,52.5000020027161
356,336,207190,2,0,P|292:308|244:324,1,105.000004005432
135,212,207705,2,0,P|199:240|247:224,1,105.000004005432
312,176,208219,2,0,L|376:140,1,52.5000020027161
420,64,208562,5,0,0:0:0:0:
200,48,208905,1,0,0:0:0:0:
132,204,209247,2,0,L|100:268,1,52.5000020027161
68,348,209590,1,0,0:0:0:0:
68,348,209762,1,0,0:0:0:0:
168,320,209933,2,2,L|172:340,4,13.125000500679
260,264,210276,2,0,L|276:336,2,52.5000020027161
312,176,210790,5,0,0:0:0:0:
319,150,210875,1,0,3:0:0:0:
335,130,210961,1,8,0:0:0:0:
357,116,211047,1,0,3:0:0:0:
383,112,211132,1,0,0:0:0:0:
408,118,211218,1,0,0:0:0:0:
432,132,211305,2,0,B|442:176|422:208|422:208|418:252|454:280|454:280,1,140,4|8,3:2|0:0,0:0:0:0:
348,316,211819,5,0,0:0:0:0:
260,264,211990,2,0,P|200:256|184:268,1,70,0|0,0:0|3:0,0:0:0:0:
117,176,212333,2,0,P|177:184|193:172,1,70,8|0,0:0|0:0,0:0:0:0:
225,152,212590,1,0,0:0:0:0:
269,124,212676,2,0,P|302:115|334:129,1,70,0|0,3:0|3:0,0:0:0:0:
472,104,213019,2,0,L|400:64,1,70,8|0,0:0|3:0,0:0:0:0:
40,280,213533,2,0,L|112:320,1,70,0|8,3:0|0:0,0:0:0:0:
204,300,213876,1,0,0:0:0:0:
312,296,214047,6,0,P|348:276|404:272,1,70,0|0,3:0|0:0,0:0:0:0:
404,168,214390,2,0,P|368:188|312:192,1,70,8|0,0:0|0:0,0:0:0:0:
236,184,214733,1,0,0:0:0:0:
100,123,214905,1,0,3:0:0:0:
198,86,215076,1,8,0:0:0:0:
138,222,215247,1,0,0:0:0:0:
152,272,215333,1,0,0:0:0:0:
196,300,215419,1,0,3:0:0:0:
312,296,215590,1,0,3:0:0:0:
400,260,215762,6,0,L|472:236,1,70,8|0,0:0|3:0,0:0:0:0:
198,86,216276,2,0,L|126:110,1,70,0|8,3:0|0:0,0:0:0:0:
64,188,216619,1,0,0:0:0:0:
64,188,216705,1,0,0:0:0:0:
64,188,216790,2,0,P|64:232|40:260,1,70,0|0,3:0|0:0,0:0:0:0:
141,335,217133,2,0,P|172:303|208:301,1,70,8|0,0:0|0:0,0:0:0:0:
312,296,217476,1,0,0:0:0:0:
412,158,217647,1,0,3:0:0:0:
251,211,217819,1,8,0:0:0:0:
412,263,217990,6,0,L|456:304,2,35,0|0|0,0:0|0:0|3:0,0:0:0:0:
312,126,218333,1,0,3:0:0:0:
228,60,218505,2,0,L|136:40,1,70,8|0,0:0|3:0,0:0:0:0:
40,296,219019,2,0,L|132:316,1,70,0|8,3:0|0:0,0:0:0:0:
212,328,219362,1,0,0:0:0:0:
412,263,219533,1,0,3:0:0:0:
228,60,219876,1,8,0:0:0:0:
228,60,220390,2,0,L|136:40,1,70,0|8,3:0|0:0,0:0:0:0:
76,108,220733,2,0,L|56:120,4,17.5,0|0|0|0|0,0:0|0:0|0:0|3:0|3:0,0:0:0:0:
132,196,221076,5,0,3:0:0:0:
276,136,221247,1,8,0:0:0:0:
428,235,221419,1,0,3:0:0:0:
266,317,221590,1,8,0:0:0:0:
276,136,221762,5,0,3:0:0:0:
288,103,221847,1,0,3:0:0:0:
314,80,221933,1,8,0:0:0:0:
347,73,222019,1,8,0:0:0:0:
381,82,222104,1,8,0:0:0:0:
405,107,222190,1,8,0:0:0:0:
416,140,222276,2,0,B|436:148|432:164|432:164|372:164|348:224|360:248,1,140,4|8,3:2|0:0,0:0:0:0:
376,332,222790,1,0,0:0:0:0:
266,317,222962,6,0,P|192:288|184:280,1,70,0|0,3:0|0:0,0:0:0:0:
100,200,223305,1,8,0:0:0:0:
176,128,223476,1,0,0:0:0:0:
176,128,223562,1,0,0:0:0:0:
176,128,223647,2,0,P|220:96|228:56,1,70,4|0,3:2|0:0,0:0:0:0:
320,32,223990,2,0,L|400:52,2,70,8|0|0,0:0|0:0|3:0,0:0:0:0:
225,83,224505,1,0,0:0:0:0:
298,226,224676,1,8,0:0:0:0:
298,226,225019,6,0,P|370:230|400:196,1,70,4|8,3:2|0:0,0:0:0:0:
392,212,225276,1,0,0:0:0:0:
412,184,225362,1,8,0:0:0:0:
320,72,225533,1,0,0:0:0:0:
214,158,225705,2,0,P|142:154|112:188,1,70,0|8,3:2|0:0,0:0:0:0:
120,172,225962,1,0,0:0:0:0:
100,200,226048,1,8,0:0:0:0:
76,300,226219,5,0,0:0:0:0:
76,300,226305,1,0,0:0:0:0:
76,300,226390,1,4,3:2:0:0:
188,336,226562,1,0,0:0:0:0:
296,294,226733,2,0,P|290:255|300:222,1,70,8|0,0:0|0:0,0:0:0:0:
320,72,227076,1,0,3:0:0:0:
216,90,227247,2,0,P|222:129|212:162,1,70,0|8,0:0|0:0,0:0:0:0:
200,240,227590,6,0,L|156:228,2,35,0|0|12,0:0|3:0|0:2,0:0:0:0:
152,124,227933,2,0,L|112:101,2,35,0|0|8,0:0|3:0|0:0,0:0:0:0:
312,144,228276,2,0,L|356:156,2,35,0|0|12,0:0|3:0|0:2,0:0:0:0:
360,260,228619,2,0,L|400:283,2,35,0|0|8,0:0|3:0|0:0,0:0:0:0:
444,196,228962,5,0,3:0:0:0:
444,196,229047,1,0,3:0:0:0:
444,196,229133,1,12,0:0:0:0:
340,40,229305,1,0,3:0:0:0:
340,40,229391,1,0,3:0:0:0:
340,40,229477,1,12,0:0:0:0:
432,92,229647,5,0,3:0:0:0:
432,92,229732,1,0,3:0:0:0:
432,92,229818,1,12,0:0:0:0:
236,36,229990,1,0,3:0:0:0:
236,36,230076,1,0,3:0:0:0:
236,36,230162,1,12,0:0:0:0:
132,44,230333,5,0,3:0:0:0:
106,67,230418,1,0,3:0:0:0:
90,98,230504,1,12,0:0:0:0:
88,133,230590,1,0,3:0:0:0:
100,166,230675,1,0,3:0:0:0:
120,196,230762,5,0,3:0:0:0:
131,228,230847,1,12,0:0:0:0:
129,263,230933,1,0,3:0:0:0:
114,294,231019,1,0,3:0:0:0:
88,318,231104,1,0,3:0:0:0:
56,332,231190,6,12,L|36:320,7,17.5
36,288,231533,2,12,L|28:272,8,17.5
256,192,232562,5,8,0:0:0:0:
256,192,233247,6,0,P|216:272|128:244,1,192.5,0|0,3:0|0:0,0:0:0:0:
232,125,234276,2,0,P|268:120|296:132,1,57.7500017623902
336,240,234619,2,0,L|384:224,2,45.4999979171754
188,208,235133,2,0,P|156:184|136:180,1,52.5
112,184,235390,6,0,L|116:204,6,17.5,0|0|0|0|8|0|0,0:0|0:0|0:0|0:0|0:0|0:0|0:0,0:0:0:0:
47,79,235819,1,0,0:0:0:0:
232,125,235990,2,0,P|272:188|352:180,1,140,0|0,3:0|0:0,0:0:0:0:
452,64,236676,5,8,0:0:0:0:
420,78,236762,1,0,0:0:0:0:
386,89,236847,1,0,0:0:0:0:
352,96,236933,1,0,0:0:0:0:
317,99,237018,1,0,0:0:0:0:
282,98,237104,1,0,0:0:0:0:
248,92,237190,1,0,0:0:0:0:
214,83,237276,1,0,0:0:0:0:
181,70,237362,6,0,P|120:56|32:92,1,140,0|0,3:0|0:0,0:0:0:0:
160,192,237876,1,0,0:0:0:0:
204,220,237962,1,0,0:0:0:0:
248,248,238047,2,0,P|309:262|372:236,1,105,8|0,0:0|0:0,0:0:0:0:
480,188,238390,2,0,P|430:174|380:185,1,105
232,120,238733,2,0,P|293:134|356:108,1,105,0|0,3:0|0:0,0:0:0:0:
464,56,239076,2,0,P|414:42|364:53,1,105,0|0,3:0|0:0,0:0:0:0:
284,64,239419,5,8,0:0:0:0:
132,92,239590,2,0,L|124:60,2,17.5
108,116,239762,1,0,0:0:0:0:
84,141,239847,1,0,0:0:0:0:
73,174,239933,1,0,0:0:0:0:
77,209,240019,1,0,0:0:0:0:
95,239,240104,1,0,0:0:0:0:
123,259,240190,1,0,0:0:0:0:
157,266,240276,1,0,0:0:0:0:
191,258,240362,1,0,0:0:0:0:
218,237,240447,5,0,3:0:0:0:
363,53,240619,1,0,3:0:0:0:
368,224,240790,2,0,P|396:252|444:272,2,70,8|0|0,0:0|0:0|0:0,0:0:0:0:
284,64,241476,1,0,0:0:0:0:
254,44,241561,1,0,0:0:0:0:
220,39,241647,1,0,0:0:0:0:
186,47,241733,1,0,0:0:0:0:
159,69,241818,1,0,0:0:0:0:
56,76,241990,1,0,3:0:0:0:
80,180,242162,6,0,P|77:248|70:265,1,70
175,362,242505,2,0,P|178:294|185:277,1,70,8|0,0:0|0:0,0:0:0:0:
284,208,242847,1,0,3:0:0:0:
396,128,243019,1,0,3:0:0:0:
137,76,243362,1,0,3:0:0:0:
137,76,243447,1,0,3:0:0:0:
137,76,243533,1,8,0:0:0:0:
396,128,243876,6,0,L|444:212,1,70
284,208,244219,2,0,B|252:244|220:244|220:244|160:192|80:260|108:316,1,245,0|0,3:0|0:0,0:0:0:0:
76,368,244905,2,0,B|156:388|184:316|168:280|168:280|149:233|188:192,1,245,8|0,0:0|0:0,0:0:0:0:
205,125,245590,2,0,P|293:81|273:209,1,280,0|8,3:0|0:0,0:0:0:0:
181,199,246447,1,0,3:0:0:0:
220,100,246619,5,2,0:0:0:0:
248,79,246704,1,2,0:0:0:0:
280,66,246790,1,2,0:0:0:0:
315,63,246876,1,2,0:0:0:0:
349,68,246962,5,2,3:2:0:0:
381,83,247047,1,2,0:0:0:0:
408,105,247133,1,2,0:0:0:0:
428,133,247219,1,2,0:0:0:0:
440,168,247305,2,0,P|420:240|468:316,1,140,2|8,0:0|0:0,0:0:0:0:
324,368,247819,2,0,P|344:296|296:220,1,140,0|0,3:0|0:0,0:0:0:0:
233,176,248333,5,0,3:0:0:0:
200,164,248418,1,0,0:0:0:0:
178,138,248504,1,0,0:0:0:0:
173,104,248590,1,0,0:0:0:0:
186,72,248675,1,0,0:0:0:0:
214,52,248761,1,0,0:0:0:0:
249,50,248847,1,0,0:0:0:0:
279,66,248933,1,0,3:0:0:0:
300,96,249019,6,0,P|344:152|364:168,1,70,8|0,0:0|0:0,0:0:0:0:
275,230,249362,2,0,P|231:174|211:158,1,70
139,99,249705,2,0,P|96:136|80:200,1,105,0|0,3:0|0:0,0:0:0:0:
72,216,250047,2,0,P|108:240|96:296,1,105
136,284,250390,2,0,L|248:240,1,105,8|0,0:0|0:0,0:0:0:0:
275,230,250733,2,2,L|272:252,8,17.5
372,188,251247,5,0,0:0:0:0:
372,188,251333,1,0,0:0:0:0:
372,188,251419,2,0,P|384:148|388:120,1,70,0|0,3:0|0:0,0:0:0:0:
296,56,251762,1,8,0:0:0:0:
184,60,251933,2,0,B|152:80|124:76|124:76|148:140|96:176,1,175
72,200,252447,6,0,P|84:244|120:272,1,70,0|0,3:0|0:0,0:0:0:0:
204,240,252790,1,0,0:0:0:0:
373,245,252962,1,0,0:0:0:0:
232,340,253133,1,8,0:0:0:0:
204,240,253305,1,0,0:0:0:0:
72,200,253476,1,0,0:0:0:0:
183,127,253647,1,0,0:0:0:0:
60,112,253819,6,0,P|52:80|64:36,1,70,0|0,3:0|0:0,0:0:0:0:
184,60,254162,2,0,P|191:93|183:127,1,70
204,240,254505,2,0,P|237:247|271:239,1,70,8|0,0:0|3:0,0:0:0:0:
300,224,254762,1,0,3:0:0:0:
328,208,254847,6,2,L|312:180,7,17.5
356,196,255190,2,0,P|408:112|324:112,1,210,0|0,3:0|0:0,0:0:0:0:
204,240,255876,2,0,L|64:328,1,140,8|0,0:0|0:0,0:0:0:0:
40,220,256390,1,0,3:0:0:0:
472,220,256905,1,0,3:0:0:0:
256,216,257247,6,0,P|232:232|216:236,1,35,8|0,0:0|0:0,0:0:0:0:
204,240,257419,2,0,P|176:328|232:328,1,175,0|0,3:0|0:0,0:0:0:0:
260,320,257933,2,0,P|252:264|260:192,1,105,0|0,3:0|0:0,0:0:0:0:
256,176,258276,2,2,B|256:164|256:164|248:136|248:136|264:112|264:112|248:88|248:88|264:56|264:56,1,105
256,52,258619,1,8,0:0:0:0:
152,40,258790,1,0,0:0:0:0:
152,40,258876,1,0,0:0:0:0:
152,40,258962,1,0,0:0:0:0:
80,116,259133,1,0,0:0:0:0:
255,51,259305,6,0,B|304:20|348:48|348:48|356:108|452:128|480:60,1,245,2|0,3:2|0:0,0:0:0:0:
416,32,259990,2,0,L|380:224,1,183.750007009506,10|0,0:0|0:0,0:0:0:0:
364,196,260676,2,0,P|328:228|312:272,1,70,0|0,3:0|0:0,0:0:0:0:
212,236,261019,2,0,P|248:204|264:160,1,70,0|0,3:0|0:0,0:0:0:0:
232,84,261362,2,0,P|196:116|180:160,1,70,8|0,0:0|0:0,0:0:0:0:
212,236,261705,1,0,0:0:0:0:
316,328,261876,1,0,0:0:0:0:
364,196,262047,6,0,L|348:132,1,35
392,92,262219,1,0,0:0:0:0:
484,40,262390,1,0,3:0:0:0:
344,24,262562,1,0,3:0:0:0:
232,84,262733,2,0,P|216:200|208:208,1,105,8|0,0:0|0:0,0:0:0:0:
212,236,263076,2,0,P|156:288|112:276,1,105
80,268,263419,6,0,P|32:268|8:280,1,70,0|0,3:0|0:0,0:0:0:0:
100,164,263762,2,0,P|148:164|172:152,1,70,0|0,0:0|3:0,0:0:0:0:
232,84,264105,1,0,0:0:0:0:
232,84,264276,1,0,0:0:0:0:
324,180,264447,2,0,L|364:244,1,70,8|0,0:0|0:0,0:0:0:0:
424,156,264790,2,0,L|384:92,1,70,0|0,3:0|3:0,0:0:0:0:
100,164,265305,5,0,3:0:0:0:
100,164,265390,1,0,3:0:0:0:
100,164,265476,2,2,L|96:184,15,17.5
92,208,266162,6,0,P|96:292|64:312,1,105,0|0,3:0|3:0,0:0:0:0:
108,280,266505,2,0,P|160:260|208:284,1,105
156,332,266847,2,0,B|208:368|252:328|252:328|280:316|304:324,1,140,8|2,0:0|0:0,0:0:0:0:
328,324,267276,1,2,0:0:0:0:
360,334,267361,1,2,0:0:0:0:
394,326,267447,1,2,0:0:0:0:
418,302,267533,5,2,0:0:0:0:
426,268,267618,1,2,0:0:0:0:
415,235,267704,1,2,0:0:0:0:
389,213,267790,1,2,0:0:0:0:
356,212,267876,2,0,P|300:176|320:128,1,105,0|0,3:0|0:0,0:0:0:0:
332,96,268219,1,8,0:0:0:0:
436,56,268390,1,0,3:0:0:0:
252,236,268733,1,8,0:0:0:0:
196,140,268905,5,0,0:0:0:0:
183,107,268990,1,0,0:0:0:0:
154,90,269076,1,0,0:0:0:0:
120,95,269162,1,0,0:0:0:0:
97,121,269247,1,0,0:0:0:0:
95,155,269333,1,0,0:0:0:0:
116,182,269419,1,0,0:0:0:0:
149,191,269504,1,0,0:0:0:0:
185,173,269590,6,0,L|201:121,3,35,8|0|0|0,0:0|0:0|0:0|0:0,0:0:0:0:
332,96,269933,2,0,L|364:63,3,35
280,168,270276,2,0,L|304:193,3,35
448,204,270619,2,0,L|458:237,3,35,0|0|0|0,0:0|0:0|0:0|3:0,0:0:0:0:
404,128,270963,6,0,P|388:164|360:196,1,70,8|0,0:0|0:0,0:0:0:0:
348,216,271220,1,0,0:0:0:0:
325,242,271305,1,0,0:0:0:0:
292,252,271390,1,0,0:0:0:0:
258,245,271476,1,0,0:0:0:0:
233,221,271561,1,0,0:0:0:0:
228,188,271647,6,0,P|248:132|300:120,1,105,0|0,3:0|0:0,0:0:0:0:
272,120,271990,2,0,P|218:145|173:117,1,105
172,116,272333,2,0,B|156:180|156:180|124:240,1,105,8|0,0:0|0:0,0:0:0:0:
132,228,272676,2,2,L|117:249,8,17.5
346,224,273190,1,0,0:0:0:0:
378,184,273276,1,0,3:0:0:0:
406,140,273362,2,0,L|418:68,1,70,0|0,3:0|0:0,0:0:0:0:
254,201,273705,2,0,B|230:317|230:317|200:288,1,140,8|0,0:0|0:0,0:0:0:0:
56,148,274390,6,0,P|100:104|108:68,1,70,0|0,3:0|0:0,0:0:0:0:
208,88,274733,2,0,P|164:132|156:168,1,70
254,201,275076,2,0,P|282:181|301:152,1,70,8|0,0:0|0:0,0:0:0:0:
406,140,275419,2,0,P|378:160|360:190,1,70
364,296,275762,2,0,L|220:324,1,140,0|0,3:0|0:0,0:0:0:0:
124,304,276276,2,0,L|96:300,4,17.5,0|0|0|0|8,3:0|3:0|3:0|3:0|0:0,0:0:0:0:
56,148,276619,2,2,L|44:128,11,17.5
64,160,277133,6,0,L|132:203,1,70,0|0,3:0|0:0,0:0:0:0:
254,188,277476,2,0,L|185:144,1,70,0|0,0:0|0:0,0:0:0:0:
120,76,277818,1,8,0:0:0:0:
120,76,277990,1,0,0:0:0:0:
224,52,278161,1,0,0:0:0:0:
328,64,278333,5,0,0:0:0:0:
328,64,278419,1,0,0:0:0:0:
328,64,278505,2,0,L|416:88,1,70,0|0,3:0|0:0,0:0:0:0:
460,164,278847,1,0,0:0:0:0:
392,244,279019,2,0,L|324:262,1,70,0|8,3:0|0:0,0:0:0:0:
240,324,279361,1,0,0:0:0:0:
140,284,279533,1,0,0:0:0:0:
84,196,279704,1,0,0:0:0:0:
240,324,279876,6,0,L|288:264,1,70,0|0,3:0|0:0,0:0:0:0:
181,232,280218,2,0,L|133:292,1,70,0|0,0:0|3:0,0:0:0:0:
28,280,280561,1,8,0:0:0:0:
84,196,280733,1,0,0:0:0:0:
64,92,280904,1,0,0:0:0:0:
164,64,281076,5,0,0:0:0:0:
164,64,281162,1,0,0:0:0:0:
164,64,281247,2,0,P|224:44|252:44,1,70,0|0,3:0|0:0,0:0:0:0:
336,44,281590,1,0,0:0:0:0:
452,124,281762,1,0,3:0:0:0:
360,148,281933,1,8,0:0:0:0:
460,228,282104,1,0,0:0:0:0:
400,316,282276,5,0,3:0:0:0:
371,336,282361,1,0,3:0:0:0:
338,344,282447,1,8,0:0:0:0:
303,337,282533,1,8,0:0:0:0:
272,324,282619,2,0,P|236:320|196:328,1,70,0|0,3:0|0:0,0:0:0:0:
120,232,282961,2,0,P|156:236|196:228,1,70,0|0,0:0|0:0,0:0:0:0:
264,128,283305,2,0,P|228:124|188:132,1,70,8|0,0:0|0:0,0:0:0:0:
120,232,283647,1,0,0:0:0:0:
44,160,283819,5,0,0:0:0:0:
44,160,283905,1,0,0:0:0:0:
44,160,283991,2,0,P|24:84|16:72,1,70,0|0,3:0|0:0,0:0:0:0:
120,44,284333,2,0,L|220:36,1,70,0|0,0:0|3:0,0:0:0:0:
264,128,284676,2,0,L|194:133,2,70,8|0|0,0:0|0:0|3:0,0:0:0:0:
388,108,285190,1,0,0:0:0:0:
480,196,285361,1,0,3:0:0:0:
264,128,285704,5,0,0:0:0:0:
208,324,286047,1,8,0:0:0:0:
208,324,286218,1,0,0:0:0:0:
304,240,286391,1,0,0:0:0:0:
304,240,286562,2,0,L|316:252,4,17.5,0|0|0|0|0,0:0|0:0|0:0|0:0|3:0,0:0:0:0:
184,196,286904,1,0,0:0:0:0:
151,80,287076,1,0,0:0:0:0:
266,47,287247,1,0,3:0:0:0:
266,47,287418,1,8,0:0:0:0:
184,196,287590,6,0,L|160:208,4,17.5,0|0|0|0|8,0:0|0:0|0:0|0:0|0:0,0:0:0:0:
338,179,287934,1,0,0:0:0:0:
338,179,288019,1,0,0:0:0:0:
337,178,288105,2,0,P|374:233|347:295,1,140,4|0,3:2|0:0,0:0:0:0:
183,318,288618,1,0,0:0:0:0:
279,294,288790,2,0,P|335:290|363:306,1,70,8|0,0:0|0:0,0:0:0:0:
444,332,289133,2,0,P|468:296|472:260,1,70
472,236,289390,5,0,0:0:0:0:
464,200,289476,2,0,L|444:128,1,70,0|0,3:0|0:0,0:0:0:0:
318,110,289819,2,0,L|338:182,1,70,0|0,0:0|3:0,0:0:0:0:
279,294,290162,1,8,0:0:0:0:
279,294,290333,1,0,0:0:0:0:
204,220,290505,2,0,L|148:176,1,70
96,88,290847,6,0,P|140:60|156:36,1,70,0|0,3:0|0:0,0:0:0:0:
270,58,291190,2,0,L|330:122,1,70
396,180,291533,1,8,0:0:0:0:
396,180,291705,1,0,0:0:0:0:
380,284,291876,1,0,0:0:0:0:
279,294,292047,1,0,0:0:0:0:
279,294,292133,1,0,0:0:0:0:
279,294,292219,6,0,B|248:352|180:348|180:348|200:296|160:252|136:260,1,210,0|0,3:0|3:0,0:0:0:0:
36,224,292905,1,8,0:0:0:0:
116,320,293076,1,0,0:0:0:0:
36,224,293247,1,0,0:0:0:0:
64,100,293419,2,0,L|56:84,4,17.5,8|0|8|0|0,0:0|0:0|0:0|0:0|3:0,0:0:0:0:
180,148,293761,1,0,0:0:0:0:
288,80,293933,6,0,P|356:92|372:92,1,70
464,160,294276,2,0,P|396:172|380:172,1,70,8|0,0:0|0:0,0:0:0:0:
292,244,294618,1,0,0:0:0:0:
172,284,294790,1,0,0:0:0:0:
172,284,294876,1,0,0:0:0:0:
172,284,294962,2,0,P|124:292|88:312,1,70,0|0,3:0|0:0,0:0:0:0:
20,208,295305,2,0,P|68:200|104:180,1,70,0|0,0:0|3:0,0:0:0:0:
180,148,295647,1,8,0:0:0:0:
356,91,295819,1,0,0:0:0:0:
192,43,295990,5,0,0:0:0:0:
275,192,296162,1,0,0:0:0:0:
275,192,296333,2,0,L|327:264,1,70,0|0,3:0|0:0,0:0:0:0:
300,352,296676,2,0,L|248:280,1,70
164,248,297019,1,8,0:0:0:0:
180,148,297190,1,0,0:0:0:0:
192,43,297362,1,0,0:0:0:0:
96,88,297533,5,0,0:0:0:0:
96,88,297619,1,0,0:0:0:0:
96,88,297705,1,0,3:0:0:0:
164,248,297876,1,0,3:0:0:0:
76,192,298047,1,8,0:0:0:0:
336,296,298219,1,0,3:0:0:0:
236,324,298391,1,8,0:0:0:0:
420,232,298562,5,0,3:0:0:0:
419,199,298646,1,0,3:0:0:0:
403,170,298733,1,8,0:0:0:0:
375,153,298820,1,8,0:0:0:0:
342,151,298905,1,8,0:0:0:0:
313,166,298989,1,8,0:0:0:0:
290,194,299076,1,4,3:2:0:0:
72,336,299419,6,0,L|56:256,1,70,0|0,3:0|3:0,0:0:0:0:
76,192,299762,1,8,0:0:0:0:
352,228,300276,1,0,3:0:0:0:
279,94,300790,2,0,P|215:73|161:122,2,140,0|8|0,3:0|0:0|0:0,0:0:0:0:
378,291,301819,6,0,P|353:240|353:196,1,70,0|0,3:0|0:0,0:0:0:0:
228,144,302162,2,0,P|252:194|252:238,1,70,0|0,0:0|3:0,0:0:0:0:
196,336,302505,2,0,P|171:285|171:241,1,70,8|0,0:0|0:0,0:0:0:0:
56,188,302847,2,0,L|38:190,4,17.5,0|0|0|0|0,0:0|0:0|0:0|0:0|3:0,0:0:0:0:
368,72,303533,6,0,L|370:54,6,17.5,0|0|0|0|0|0|0,0:0|0:0|0:0|0:0|3:0|0:0|0:0,0:0:0:0:
364,124,303876,2,0,B|340:196|340:196|292:244,1,140,8|0,0:0|0:0,0:0:0:0:
192,260,304390,1,0,0:0:0:0:
123,171,304562,2,0,L|31:194,1,70,0|0,3:0|3:0,0:0:0:0:
364,124,305076,6,0,L|456:101,1,70,0|8,3:0|0:0,0:0:0:0:
452,244,305590,2,0,P|447:278|428:307,1,70,0|0,0:0|3:0,0:0:0:0:
332,316,305933,1,0,0:0:0:0:
301,299,306019,1,0,0:0:0:0:
267,292,306105,1,0,3:0:0:0:
233,296,306190,1,0,0:0:0:0:
199,304,306276,1,0,3:0:0:0:
164,299,306362,1,0,0:0:0:0:
133,284,306447,1,0,0:0:0:0:
56,224,306619,6,0,P|87:165|153:168,1,140,8|0,0:0|0:0,0:0:0:0:
240,216,307133,1,0,0:0:0:0:
340,216,307305,2,0,P|352:183|357:148,2,70,0|0|0,3:0|0:0|0:0,0:0:0:0:
240,216,307819,1,0,3:0:0:0:
248,112,307990,2,0,P|234:79|214:51,1,70,8|0,0:0|0:0,0:0:0:0:
323,87,308333,2,0,P|337:120|357:148,1,70,0|0,0:0|3:0,0:0:0:0:
444,204,308676,5,0,0:0:0:0:
444,204,308762,1,0,0:0:0:0:
444,204,308847,1,0,0:0:0:0:
372,280,309019,1,0,0:0:0:0:
372,280,309190,1,0,3:0:0:0:
372,280,309362,2,0,P|300:292|280:324,1,105,8|0,0:0|0:0,0:0:0:0:
240,332,309705,2,0,P|189:341|147:312,1,105
120,272,310047,2,0,B|112:212|60:208|60:208|64:168|96:160,1,140,0|0,3:0|3:0,0:0:0:0:
152,104,310562,5,0,3:0:0:0:
248,84,310733,2,0,P|308:60|332:36,2,70,8|0|0,0:0|0:0|0:0,0:0:0:0:
152,104,311247,1,0,3:0:0:0:
496,156,311762,1,0,3:0:0:0:
412,108,312105,2,0,P|352:134|367:197,1,140,8|0,0:0|0:0,0:0:0:0:
424,276,312790,1,0,3:0:0:0:
328,284,313133,6,0,P|304:332|280:348,1,70,0|0,0:0|3:0,0:0:0:0:
188,356,313476,1,8,0:0:0:0:
56,192,313819,1,0,0:0:0:0:
120,276,313990,1,0,3:0:0:0:
188,356,314162,2,0,L|164:364,8,17.5
284,312,314676,1,0,3:0:0:0:
360,240,314847,2,0,P|392:188|392:148,1,70,8|0,0:0|0:0,0:0:0:0:
344,88,315190,2,0,P|312:140|312:180,1,70
360,240,315533,5,0,3:0:0:0:
284,312,315705,1,0,3:0:0:0:
152,144,316047,1,0,3:0:0:0:
228,72,316219,1,8,0:0:0:0:
344,88,316733,1,0,3:0:0:0:
152,144,317247,2,0,P|80:140|40:196,1,140,0|8,3:0|0:0,0:0:0:0:
64,300,317762,2,0,L|56:320,3,17.5
72,292,317933,2,0,P|103:278|123:249,1,70
248,228,318276,6,0,P|216:241|196:270,2,70,0|0|0,3:0|0:0|0:0,0:0:0:0:
320,288,318790,1,0,3:0:0:0:
400,244,318962,2,0,P|432:231|461:211,1,70,8|0,0:0|0:0,0:0:0:0:
448,108,319305,2,0,L|456:92,4,17.5,0|0|0|0|0,0:0|0:0|0:0|0:0|3:0,0:0:0:0:
344,88,319647,2,0,L|304:156,1,70
144,244,319990,2,0,L|179:183,1,70,0|0,0:0|3:0,0:0:0:0:
252,60,320333,1,0,0:0:0:0:
452,184,320676,1,0,0:0:0:0:
178,183,321019,1,4,0:0:0:0:
