osu file format v14

[General]
AudioFilename: Blue - Au5 Fractal.mp3
AudioLeadIn: 0
PreviewTime: 54686
Countdown: 0
SampleSet: Soft
StackLeniency: 0.4
Mode: 0
LetterboxInBreaks: 0
WidescreenStoryboard: 0

[Editor]
DistanceSpacing: 1.2
BeatDivisor: 4
GridSize: 4
TimelineZoom: 1.9

[Metadata]
Title:Blue
TitleUnicode:Blue
Artist:Au5 & Fractal
ArtistUnicode:Au5 & Fractal
Creator:Nozhomi
Version:#0000FF
Source:
Tags:drumstep secret weapon monstercat
BeatmapID:1477138
BeatmapSetID:697327

[Difficulty]
HPDrainRate:6.5
CircleSize:4.4
OverallDifficulty:8.3
ApproachRate:9.2
SliderMultiplier:1.8
SliderTickRate:1

[Events]
//Background and Video events
0,0,"blue.jpg",0,0
//Break Periods
2,192201,199630
//Storyboard Layer 0 (Background)
//Storyboard Layer 1 (Fail)
//Storyboard Layer 2 (Pass)
//Storyboard Layer 3 (Foreground)
//Storyboard Sound Samples

[TimingPoints]
2744,342.857142857143,4,2,1,40,1,0
10201,-100,4,2,1,5,0,0
10972,-100,4,2,1,70,0,0
16115,-83.3333333333333,4,2,1,70,0,0
16458,-100,4,2,1,70,0,0
21944,-100,4,2,1,70,0,0
27086,-83.3333333333333,4,2,1,70,0,0
27429,-100,4,2,1,70,0,0
38058,-83.3333333333333,4,2,1,70,0,0
38401,-100,4,2,1,70,0,0
43201,-83.3333333333333,4,2,1,70,0,0
43544,-71.4285714285714,4,2,1,70,0,0
43887,-166.666666666667,4,2,1,70,0,0
44144,-166.666666666667,4,2,1,50,0,0
46630,-166.666666666667,4,2,1,70,0,0
46887,-166.666666666667,4,2,1,60,0,0
48858,-166.666666666667,4,2,1,65,0,0
51772,-166.666666666667,4,2,1,70,0,0
52115,-166.666666666667,4,2,1,70,0,0
52372,-166.666666666667,4,2,1,70,0,0
54430,-80,4,2,1,70,0,0
54686,-100,4,2,1,70,0,0
87772,-166.666666666667,4,2,1,80,0,1
88972,-125,4,2,1,80,0,1
90515,-100,4,2,1,80,0,1
90772,-100,4,2,1,5,0,1
90944,-100,4,2,1,80,0,1
91072,-100,4,2,1,5,0,1
91158,-100,4,2,1,80,0,1
92358,-100,4,2,1,5,0,1
92444,-100,4,2,1,80,0,1
92573,-80,4,2,1,80,0,1
93130,-80,4,2,1,5,0,1
93215,-80,4,2,1,80,0,1
93258,-100,4,2,1,80,0,1
95315,-80,4,2,1,80,0,1
95530,-80,4,2,1,5,0,1
95658,-66.6666666666667,4,2,1,80,0,1
95915,-100,4,2,1,5,0,1
96001,-100,4,2,1,80,0,1
99301,-100,4,2,1,5,0,1
99387,-100,4,2,1,80,0,1
100972,-80,4,2,1,80,0,1
101486,-100,4,2,1,80,0,1
102344,-80,4,2,1,80,0,1
102687,-100,4,2,1,80,0,1
104230,-100,4,2,1,80,0,1
106844,-100,4,2,1,5,0,1
106930,-100,4,2,1,80,0,1
108215,-100,4,2,1,5,0,1
108301,-100,4,2,1,80,0,1
108344,-80,4,2,1,80,0,1
108858,-100,4,2,1,80,0,1
109715,-125,4,2,1,80,0,1
110273,-125,4,2,1,5,0,1
110401,-100,4,2,1,80,0,1
110787,-100,4,2,1,5,0,1
110873,-100,4,2,1,80,0,1
111301,-100,4,2,1,5,0,1
111387,-100,4,2,1,80,0,1
112330,-100,4,2,1,5,0,1
112415,-100,4,2,1,80,0,1
112673,-100,4,2,1,5,0,1
112801,-80,4,2,1,80,0,1
113015,-80,4,2,1,5,0,1
113144,-100,4,2,1,80,0,1
114515,-80,4,2,1,80,0,1
115073,-80,4,2,1,5,0,1
115201,-100,4,2,1,80,0,1
115415,-100,4,2,1,5,0,1
115501,-100,4,2,1,80,0,1
115758,-100,4,2,1,5,0,1
115844,-100,4,2,1,80,0,1
117258,-80,4,2,1,80,0,1
117515,-100,4,2,1,5,0,1
117601,-66.6666666666667,4,2,1,80,0,1
117858,-100,4,2,1,5,0,1
117944,-100,4,2,1,80,0,1
122915,-80,4,2,1,80,0,1
123429,-100,4,2,1,80,0,1
128229,-125,4,2,1,80,0,1
128787,-125,4,2,1,5,0,1
128915,-100,4,2,1,80,0,1
131658,-100,4,2,1,70,0,0
153601,-100,4,2,1,60,0,0
153772,-100,4,2,1,55,0,0
153944,-100,4,2,1,50,0,0
154115,-100,4,2,1,45,0,0
154286,-200,4,2,1,40,0,0
156086,-200,4,2,1,30,0,0
156344,-100,4,2,1,70,0,0
165944,-125,4,2,1,70,0,0
166629,-100,4,2,1,70,0,0
172458,-83.3333333333333,4,2,1,70,0,0
172801,-100,4,2,1,70,0,0
183429,-83.3333333333333,4,2,1,70,0,0
183772,-100,4,2,1,70,0,0
189258,-100,4,2,1,50,0,0
190630,-100,4,2,1,20,0,0
200230,-166.666666666667,4,2,1,50,0,0
202972,-166.666666666667,4,2,1,55,0,0
205715,-166.666666666667,4,2,1,60,0,0
208458,-125,4,2,1,65,0,0
210772,-100,4,2,1,70,0,0
231686,-83.3333333333333,4,2,1,70,0,0
232329,-83.3333333333333,4,2,1,5,0,0
232415,-83.3333333333333,4,2,1,70,0,0
233144,-149.253731343284,4,2,1,70,0,0
234172,-153.846153846154,4,2,1,40,0,0
234515,-153.846153846154,4,2,1,70,0,0
234858,-153.846153846154,4,2,1,40,0,0
235201,-153.846153846154,4,2,1,70,0,0
235458,-100,4,2,1,70,0,0
235886,-100,4,2,1,80,0,1
236444,-100,4,2,1,5,0,1
236529,-100,4,2,1,80,0,1
237729,-100,4,2,1,5,0,1
237815,-100,4,2,1,80,0,1
237944,-80,4,2,1,80,0,1
238501,-80,4,2,1,5,0,1
238586,-80,4,2,1,80,0,1
238629,-100,4,2,1,80,0,1
240686,-80,4,2,1,80,0,1
240901,-80,4,2,1,5,0,1
241029,-66.6666666666667,4,2,1,80,0,1
241286,-100,4,2,1,5,0,1
241372,-100,4,2,1,80,0,1
244672,-100,4,2,1,5,0,1
244758,-100,4,2,1,80,0,1
245358,-100,4,2,1,5,0,1
245444,-100,4,2,1,80,0,1
247715,-80,4,2,1,80,0,1
248058,-100,4,2,1,80,0,1
248915,-125,4,2,1,80,0,1
249601,-100,4,2,1,80,0,1
252215,-100,4,2,1,5,0,1
252344,-100,4,2,1,80,0,1
253586,-100,4,2,1,5,0,1
253715,-80,4,2,1,80,0,1
254229,-100,4,2,1,80,0,1
255086,-125,4,2,1,80,0,1
255644,-125,4,2,1,5,0,1
255772,-100,4,2,1,80,0,1
256158,-100,4,2,1,5,0,1
256244,-100,4,2,1,80,0,1
256672,-100,4,2,1,5,0,1
256758,-100,4,2,1,80,0,1
257701,-100,4,2,1,5,0,1
257786,-100,4,2,1,80,0,1
258044,-100,4,2,1,5,0,1
258172,-80,4,2,1,80,0,1
258386,-80,4,2,1,5,0,1
258515,-100,4,2,1,80,0,1
259758,-100,4,2,1,5,0,1
259886,-80,4,2,1,80,0,1
260444,-80,4,2,1,5,0,1
260572,-100,4,2,1,80,0,1
260786,-100,4,2,1,5,0,1
260872,-100,4,2,1,80,0,1
261129,-100,4,2,1,5,0,1
261215,-100,4,2,1,80,0,1
268286,-80,4,2,1,80,0,1
268801,-100,4,2,1,80,0,1
273601,-125,4,2,1,80,0,1
274158,-125,4,2,1,5,0,1
274286,-100,4,2,1,80,0,1
275529,-100,4,2,1,5,0,1
275615,-100,4,2,1,80,0,1
277029,-100,4,2,1,70,0,0
298972,-100,4,2,1,60,0,0
304115,-83.3333333333333,4,2,1,60,0,0
304458,-100,4,2,1,60,0,0
309944,-100,4,2,1,60,0,0
315086,-83.3333333333333,4,2,1,60,0,0
315429,-100,4,2,1,60,0,0
320229,-100,4,2,1,40,0,0
320915,-100,4,2,1,50,0,0

[Colours]
Combo1 : 10,24,211
Combo2 : 40,255,255
Combo3 : 51,104,244
Combo4 : 35,174,182

[HitObjects]
256,192,6858,12,0,10286,0:0:0:0:
356,76,10972,5,4,3:2:0:0:
256,292,11315,1,0,3:0:0:0:
180,228,11487,1,0,3:0:0:0:
104,292,11658,2,0,P|85:257|92:184,1,90,8|0,0:0|0:0,0:0:0:0:
172,112,12001,1,2,0:0:0:0:
200,116,12086,1,0,0:0:0:0:
228,120,12172,1,0,3:0:0:0:
256,124,12258,1,0,0:0:0:0:
284,128,12344,6,0,L|384:120,1,90,2|0,0:0|0:0,0:0:0:0:
332,212,12687,1,0,3:0:0:0:
248,48,13029,2,0,L|356:40,1,90,8|0,0:0|0:0,0:0:0:0:
463,114,13372,2,0,L|373:120,1,90,2|0,0:0|0:0,0:0:0:0:
292,236,13715,6,0,P|378:272|465:221,1,180,0|2,3:0|0:0,0:0:0:0:
373,120,14230,1,0,3:0:0:0:
220,236,14401,2,0,P|134:272|47:221,1,180,8|2,0:0|0:0,0:0:0:0:
139,120,14915,1,0,3:0:0:0:
220,236,15087,5,2,0:0:0:0:
256,40,15430,1,0,0:0:0:0:
281,51,15515,1,0,0:0:0:0:
308,56,15601,1,0,3:0:0:0:
334,51,15686,1,0,0:0:0:0:
359,39,15772,2,0,P|401:27|445:36,1,90,8|0,0:0|0:0,0:0:0:0:
446,167,16115,2,0,P|370:187|278:163,1,161.999995056153,2|0,0:0|0:0,0:0:0:0:
216,196,16458,5,0,3:0:0:0:
160,92,16630,1,0,3:0:0:0:
92,160,16801,2,0,L|90:223,2,45,2|0|0,0:0|0:0|3:0,0:0:0:0:
36,80,17144,1,8,0:0:0:0:
104,8,17315,1,0,0:0:0:0:
160,92,17486,2,0,P|184:136|181:186,1,90,2|0,0:0|3:0,0:0:0:0:
80,292,17830,5,2,0:0:0:0:
108,288,17915,1,2,0:0:0:0:
136,284,18001,1,2,0:0:0:0:
164,280,18087,1,2,0:0:0:0:
192,276,18172,2,0,B|216:288|216:288|248:292,2,45,0|0|0,3:0|0:0|0:0,0:0:0:0:
184,175,18515,1,8,0:0:0:0:
252,103,18686,1,2,0:0:0:0:
352,111,18858,1,2,0:0:0:0:
404,195,19029,1,2,0:0:0:0:
344,324,19201,5,0,3:0:0:0:
252,238,19372,2,0,B|252:99,1,135,2|0,0:0|0:0,0:0:0:0:
252,32,19715,1,0,3:0:0:0:
392,64,19886,1,8,0:0:0:0:
252,103,20058,2,0,B|207:110|207:110|164:103,1,90,2|0,0:0|0:0,0:0:0:0:
40,76,20401,1,0,3:0:0:0:
104,200,20572,5,2,0:0:0:0:
104,200,20658,1,0,0:0:0:0:
104,200,20744,2,0,L|92:332,1,90,2|0,0:0|0:0,0:0:0:0:
200,248,21086,1,0,3:0:0:0:
184,144,21258,1,2,0:0:0:0:
216,360,21601,1,2,0:0:0:0:
453,274,21944,6,0,P|485:192|453:110,1,180,4|0,3:2|3:0,0:0:0:0:
378,20,22458,1,0,3:0:0:0:
300,108,22630,2,0,B|255:117|255:117|187:103,1,90,8|0,0:0|0:0,0:0:0:0:
112,168,22972,1,2,0:0:0:0:
126,194,23058,1,0,0:0:0:0:
152,210,23144,1,0,3:0:0:0:
182,218,23229,1,0,0:0:0:0:
212,212,23315,6,0,P|172:256|168:308,1,90,2|0,0:0|0:0,0:0:0:0:
184,384,23658,1,0,3:0:0:0:
300,224,24001,2,0,L|296:112,1,90,8|0,0:0|0:0,0:0:0:0:
212,212,24344,1,2,0:0:0:0:
388,160,24515,1,2,0:0:0:0:
212,96,24687,6,0,B|88:84|88:84|114:132,1,180,0|2,3:0|0:0,0:0:0:0:
212,212,25201,1,0,3:0:0:0:
114,292,25372,2,0,P|106:332|117:380,2,90,8|0|2,0:0|0:0|0:0,0:0:0:0:
208,332,25887,1,0,3:0:0:0:
41,384,26058,5,2,0:0:0:0:
34,353,26144,1,2,0:0:0:0:
32,321,26230,1,2,0:0:0:0:
37,290,26315,1,2,0:0:0:0:
47,260,26401,1,2,0:0:0:0:
116,168,26572,1,0,3:0:0:0:
200,248,26744,2,0,P|272:280|360:252,1,135,8|0,0:0|0:0,0:0:0:0:
325,272,27086,2,0,P|303:196|217:143,1,161.999995056153,2|0,0:0|0:0,0:0:0:0:
172,132,27430,5,0,3:0:0:0:
260,56,27601,2,0,L|384:52,1,90,0|0,3:0|0:0,0:0:0:0:
468,64,27944,1,0,3:0:0:0:
408,172,28115,2,0,B|396:220|396:220|407:258,2,90,8|0|2,0:0|0:0|0:0,0:0:0:0:
350,53,28630,1,0,3:0:0:0:
296,172,28801,6,0,B|308:220|308:220|296:258,1,90
232,356,29144,1,0,3:0:0:0:
132,184,29486,2,0,L|236:176,1,90,8|0,0:0|0:0,0:0:0:0:
296,258,29829,2,0,L|192:250,1,90,2|0,0:0|0:0,0:0:0:0:
42,190,30172,6,0,L|230:176,1,180,0|2,3:0|0:0,0:0:0:0:
123,82,30687,1,0,3:0:0:0:
42,190,30858,2,0,P|32:232|55:302,1,90,8|0,0:0|0:0,0:0:0:0:
135,332,31201,1,0,0:0:0:0:
207,251,31373,1,0,3:0:0:0:
276,332,31544,6,0,B|308:340|308:340|376:332,1,90,2|0,0:0|0:0,0:0:0:0:
452,244,31886,1,2,0:0:0:0:
456,216,31972,1,0,0:0:0:0:
460,188,32058,1,0,3:0:0:0:
464,160,32144,1,0,3:0:0:0:
468,132,32229,2,0,B|456:40,2,90,8|0|2,0:0|0:0|0:0,0:0:0:0:
348,92,32744,1,2,0:0:0:0:
348,92,32915,6,0,P|304:81|260:88,1,90,4|0,3:2|0:0,0:0:0:0:
180,176,33258,1,0,3:0:0:0:
180,176,33430,1,0,3:0:0:0:
101,89,33601,2,0,P|56:81|13:92,1,90,8|0,0:0|0:0,0:0:0:0:
60,236,33943,1,2,0:0:0:0:
68,264,34029,1,0,0:0:0:0:
84,288,34115,1,0,3:0:0:0:
108,304,34201,1,0,0:0:0:0:
136,312,34287,6,0,L|260:308,1,90
348,284,34630,1,0,3:0:0:0:
260,68,34972,2,0,P|230:119|269:202,1,135,8|0,0:0|0:0,0:0:0:0:
251,187,35315,2,0,P|315:174|350:119,1,135,2|0,0:0|0:0,0:0:0:0:
336,40,35658,5,0,3:0:0:0:
424,160,35830,2,0,L|420:280,1,90,2|0,0:0|0:0,0:0:0:0:
512,208,36173,1,0,3:0:0:0:
351,119,36344,2,0,L|348:222,1,90,8|2,0:0|0:0,0:0:0:0:
348,280,36601,1,0,0:0:0:0:
348,280,36687,1,2,0:0:0:0:
424,160,36858,1,0,3:0:0:0:
260,68,37029,6,0,L|257:171,1,90,0|2,0:0|0:0,0:0:0:0:
257,229,37286,1,0,0:0:0:0:
257,229,37372,1,2,0:0:0:0:
424,160,37544,1,0,3:0:0:0:
260,68,37715,1,8,0:0:0:0:
48,216,38058,2,0,P|21:141|46:65,1,161.999995056153,2|0,0:0|0:0,0:0:0:0:
100,24,38401,5,0,3:0:0:0:
164,132,38572,2,0,L|156:248,1,90,0|0,3:0|0:0,0:0:0:0:
224,308,38915,1,0,3:0:0:0:
280,196,39086,1,8,0:0:0:0:
158,222,39258,2,0,B|121:233|121:233|46:222,1,90,2|0,0:0|0:0,0:0:0:0:
6,117,39601,1,0,3:0:0:0:
70,225,39772,5,2,0:0:0:0:
48,356,39944,1,2,0:0:0:0:
48,356,40030,1,2,0:0:0:0:
48,355,40115,2,0,P|88:335|133:334,1,90,0|0,3:0|0:0,0:0:0:0:
256,368,40458,1,8,0:0:0:0:
383,343,40629,1,0,0:0:0:0:
284,256,40801,2,0,P|256:188|284:128,1,135,2|0,0:0|0:0,0:0:0:0:
277,134,41144,6,0,P|212:152|172:140,1,90,0|0,3:0|0:0,0:0:0:0:
88,80,41486,1,2,0:0:0:0:
88,80,41572,1,0,0:0:0:0:
88,80,41658,1,0,3:0:0:0:
128,208,41830,1,8,0:0:0:0:
208,68,42001,5,2,0:0:0:0:
228,50,42087,1,0,0:0:0:0:
253,41,42172,1,2,0:0:0:0:
280,42,42258,1,0,0:0:0:0:
306,49,42344,1,0,3:0:0:0:
325,66,42429,1,0,0:0:0:0:
336,90,42515,1,2,0:0:0:0:
341,121,42601,1,0,0:0:0:0:
338,152,42686,1,2,0:0:0:0:
331,182,42772,1,0,0:0:0:0:
344,219,42857,1,2,0:0:0:0:
378,241,42943,1,0,0:0:0:0:
417,238,43029,1,0,3:0:0:0:
447,211,43114,1,0,3:0:0:0:
454,181,43201,6,0,P|407:122|338:152,1,161.999995056153,8|0,0:0|0:0,0:0:0:0:
338,152,43544,6,0,B|276:193|220:161|220:161|182:173|131:152,1,188.999994232178,0|0,3:0|0:0,0:0:0:0:
92,136,43887,5,0,3:0:0:0:
92,136,44058,1,0,3:0:0:0:
44,304,44229,2,0,L|39:196,1,107.999996704102,2|0,0:0|0:0,0:0:0:0:
116,261,44744,2,0,L|157:161,1,107.999996704102,2|0,0:0|0:0,0:0:0:0:
208,248,45258,2,0,L|287:175,1,107.999996704102,2|0,0:0|0:0,0:0:0:0:
312,272,45772,2,0,L|415:239,1,107.999996704102,2|0,0:0|0:0,0:0:0:0:
472,332,46286,2,0,L|420:315,1,53.9999983520508,2|2,0:0|0:0,0:0:0:0:
480,216,46630,5,0,3:0:0:0:
312,272,46801,1,0,3:0:0:0:
312,272,46972,2,0,P|260:286|209:271,1,107.999996704102,2|0,0:0|0:0,0:0:0:0:
157,183,47486,2,0,P|170:131|208:94,1,107.999996704102,2|0,0:0|0:0,0:0:0:0:
313,94,48001,2,0,P|351:131|364:182,1,107.999996704102,2|0,0:0|0:0,0:0:0:0:
312,272,48515,2,0,L|308:340,1,53.9999983520508,2|0,0:0|0:0,0:0:0:0:
192,232,48858,1,2,0:0:0:0:
192,232,48944,1,8,0:3:0:0:
192,232,49029,1,8,0:3:0:0:
148,260,49115,1,4,0:3:0:0:
116,260,49201,1,4,0:3:0:0:
84,260,49287,1,4,0:3:0:0:
52,260,49373,5,0,3:0:0:0:
149,109,49544,1,0,3:0:0:0:
149,109,49715,2,0,B|256:112,1,107.999996704102,2|0,0:0|0:0,0:0:0:0:
364,109,50229,2,0,B|256:112,1,107.999996704102,2|0,0:0|0:0,0:0:0:0:
112,188,50744,2,0,B|219:191,1,107.999996704102,2|0,0:0|0:0,0:0:0:0:
400,188,51258,2,0,B|292:191,1,107.999996704102,2|0,0:0|0:0,0:0:0:0:
228,312,51772,2,0,B|256:316|256:316|281:312,1,53.9999983520508,2|2,0:0|0:0,0:0:0:0:
384,272,52115,5,0,3:0:0:0:
219,191,52287,1,0,3:0:0:0:
219,191,52458,2,0,P|202:140|219:89,1,107.999996704102,2|0,0:0|0:0,0:0:0:0:
293,191,52972,2,0,P|309:140|292:89,1,107.999996704102,2|0,0:0|0:0,0:0:0:0:
176,32,53486,2,0,L|60:48,1,107.999996704102,2|0,0:0|0:0,0:0:0:0:
293,90,54001,2,0,L|409:106,1,107.999996704102,2|0,0:0|0:0,0:0:0:0:
349,183,54429,1,0,3:0:0:0:
349,183,54515,6,0,L|291:191,1,56.25,0|0,1:0|1:0,0:0:0:0:
156,144,54858,6,0,P|144:184|164:248,1,90,4|0,3:2|0:0,0:0:0:0:
252,308,55201,2,0,L|352:312,2,90,8|0|2,0:0|0:0|0:0,0:0:0:0:
140,368,55715,1,0,3:0:0:0:
44,248,55886,2,0,P|35:175|46:130,1,90,8|2,0:0|0:0,0:0:0:0:
61,88,56144,1,8,0:0:0:0:
61,88,56230,5,0,3:0:0:0:
164,160,56401,1,0,3:0:0:0:
300,112,56572,1,8,0:0:0:0:
320,244,56744,1,0,3:0:0:0:
316,276,56829,1,0,0:0:0:0:
312,308,56915,1,2,0:0:0:0:
308,340,57001,1,0,0:0:0:0:
304,372,57086,1,0,3:0:0:0:
184,292,57258,1,8,0:0:0:0:
320,244,57429,1,2,0:0:0:0:
228,132,57601,6,0,L|217:42,1,90,0|0,3:0|0:0,0:0:0:0:
340,76,57944,2,0,L|329:165,2,90,8|0|2,0:0|0:0|0:0,0:0:0:0:
444,152,58458,1,0,3:0:0:0:
320,244,58629,2,0,P|256:232|200:240,1,90,8|2,0:0|0:0,0:0:0:0:
119,252,58886,1,8,0:0:0:0:
119,252,58972,6,0,P|76:260|32:251,1,90,0|0,3:0|3:0,0:0:0:0:
76,112,59315,1,8,0:0:0:0:
119,252,59486,1,0,3:0:0:0:
116,280,59572,1,0,0:0:0:0:
112,308,59657,1,2,0:0:0:0:
108,336,59744,1,0,0:0:0:0:
104,364,59829,1,0,3:0:0:0:
244,324,60001,1,8,0:0:0:0:
126,259,60172,1,8,0:0:0:0:
126,259,60258,1,8,0:0:0:0:
125,258,60344,6,0,P|114:216|126:173,1,90,0|0,3:0|0:0,0:0:0:0:
88,52,60686,2,0,P|49:73|26:112,2,90,8|0|2,0:0|0:0|0:0,0:0:0:0:
196,116,61201,1,0,3:0:0:0:
347,71,61372,2,0,P|389:58|432:71,1,90,8|2,0:0|0:0,0:0:0:0:
500,124,61629,1,8,0:0:0:0:
500,124,61715,5,0,3:0:0:0:
452,240,61886,1,0,3:0:0:0:
328,240,62058,1,8,0:0:0:0:
284,124,62229,1,0,3:0:0:0:
256,112,62315,1,0,0:0:0:0:
224,116,62400,1,2,0:0:0:0:
200,136,62487,1,0,0:0:0:0:
188,164,62572,1,0,3:0:0:0:
192,288,62743,2,0,B|195:377,1,90,8|2,0:0|0:0,0:0:0:0:
105,229,63086,6,0,B|108:139,1,90,0|0,3:0|0:0,0:0:0:0:
25,257,63429,2,0,P|44:293|107:311,2,90,8|0|2,0:0|0:0|0:0,0:0:0:0:
108,139,63944,1,0,3:0:0:0:
256,192,64115,1,8,0:0:0:0:
397,146,64286,1,2,0:0:0:0:
397,146,64372,1,8,0:0:0:0:
397,146,64458,6,0,P|409:188|399:232,1,90,0|0,3:0|3:0,0:0:0:0:
280,316,64801,1,8,0:0:0:0:
256,192,64972,1,0,3:0:0:0:
400,232,65144,2,0,L|497:236,1,90,8|0,0:0|0:0,0:0:0:0:
484,324,65401,2,0,L|461:323,1,22.5
424,304,65486,1,0,3:0:0:0:
384,300,65572,1,8,0:3:0:0:
344,298,65658,1,4,0:3:0:0:
304,296,65744,1,4,0:3:0:0:
264,294,65829,6,0,P|220:308|164:304,1,90,4|0,3:2|0:0,0:0:0:0:
76,232,66172,2,0,P|56:192|60:128,2,90,8|0|2,0:0|0:0|0:0,0:0:0:0:
176,306,66686,1,0,3:0:0:0:
200,160,66858,2,0,B|196:32,1,90,8|2,0:0|0:0,0:0:0:0:
124,80,67115,1,8,0:0:0:0:
124,80,67201,5,0,3:0:0:0:
200,184,67372,1,0,3:0:0:0:
268,80,67543,1,8,0:0:0:0:
112,168,67715,1,0,3:0:0:0:
112,199,67800,1,0,0:0:0:0:
122,228,67886,1,2,0:0:0:0:
141,252,67972,1,0,0:0:0:0:
167,268,68057,1,0,3:0:0:0:
256,148,68229,1,8,0:0:0:0:
345,268,68400,1,2,0:0:0:0:
167,268,68572,6,0,L|56:264,1,90,0|0,3:0|0:0,0:0:0:0:
212,332,68915,2,0,B|303:329,2,90,8|0|2,0:0|0:0|0:0,0:0:0:0:
345,268,69429,1,0,3:0:0:0:
256,148,69600,2,0,B|252:48,1,90,8|2,0:0|0:0,0:0:0:0:
324,100,69858,1,8,0:0:0:0:
324,100,69943,6,0,P|367:109|415:97,1,90,0|0,3:0|3:0,0:0:0:0:
500,20,70286,1,8,0:0:0:0:
456,152,70458,1,0,3:0:0:0:
453,181,70544,1,0,0:0:0:0:
458,210,70629,1,2,0:0:0:0:
472,237,70715,1,0,0:0:0:0:
492,258,70801,1,0,3:0:0:0:
343,211,70972,1,8,0:0:0:0:
408,340,71143,1,8,0:0:0:0:
408,340,71229,1,8,0:0:0:0:
408,340,71314,6,0,P|360:360|316:356,1,90,0|0,3:0|0:0,0:0:0:0:
189,357,71658,2,0,P|144:358|104:340,2,90,8|0|2,0:0|0:0|0:0,0:0:0:0:
256,252,72172,1,0,3:0:0:0:
162,162,72343,2,0,L|168:252,1,90,8|2,0:0|0:0,0:0:0:0:
84,268,72601,1,8,0:0:0:0:
84,268,72686,5,0,3:0:0:0:
72,118,72858,1,0,3:0:0:0:
243,104,73029,1,8,0:0:0:0:
256,252,73201,1,0,3:0:0:0:
252,284,73287,1,0,0:0:0:0:
248,316,73372,1,2,0:0:0:0:
244,348,73459,1,0,0:0:0:0:
240,376,73544,1,0,3:0:0:0:
360,296,73715,2,0,L|349:206,1,90,8|2,0:0|0:0,0:0:0:0:
168,243,74057,6,0,P|211:256|256:252,1,90,0|0,3:0|0:0,0:0:0:0:
255,131,74401,2,0,P|211:127|168:140,2,90,8|0|2,0:0|0:0|0:0,0:0:0:0:
349,206,74915,1,0,3:0:0:0:
332,72,75086,1,8,0:0:0:0:
439,212,75257,1,2,0:0:0:0:
439,212,75343,1,8,0:0:0:0:
439,212,75429,6,0,L|315:204,1,90,0|0,3:0|3:0,0:0:0:0:
256,292,75772,1,8,0:0:0:0:
140,207,75943,1,0,3:0:0:0:
296,152,76114,1,8,0:0:0:0:
260,295,76286,1,0,3:0:0:0:
260,295,76372,1,0,3:0:0:0:
216,291,76458,1,8,0:0:0:0:
172,287,76543,1,8,0:0:0:0:
128,283,76629,1,8,0:0:0:0:
84,279,76715,1,8,0:0:0:0:
112,243,76801,5,0,3:0:0:0:
324,24,77143,1,8,0:0:0:0:
372,328,77486,1,0,3:0:0:0:
232,272,77657,1,2,0:0:0:0:
348,172,77829,2,0,L|364:272,1,90,8|0,0:0|3:0,0:0:0:0:
376,332,78086,1,8,0:0:0:0:
376,332,78172,5,0,3:0:0:0:
24,188,78515,1,8,0:0:0:0:
304,304,78857,1,0,3:0:0:0:
304,148,79029,1,2,0:0:0:0:
156,244,79201,2,0,L|244:280,1,90,8|0,0:0|0:0,0:0:0:0:
92,216,79543,5,0,3:0:0:0:
388,68,79886,2,0,P|420:141|376:240,1,180,8|0,0:0|3:0,0:0:0:0:
260,316,80400,1,2,0:0:0:0:
125,230,80572,2,0,L|35:236,1,90,8|0,0:0|3:0,0:0:0:0:
8,300,80829,1,8,0:0:0:0:
8,300,80915,5,0,3:0:0:0:
260,80,81258,1,8,0:0:0:0:
176,376,81601,1,0,3:0:0:0:
125,230,81772,1,2,0:0:0:0:
272,268,81943,1,8,0:0:0:0:
262,116,82115,1,8,0:0:0:0:
261,98,82201,1,8,0:0:0:0:
260,80,82286,6,0,L|265:186,1,90,8|0,0:0|3:0,0:0:0:0:
155,194,82629,2,0,L|160:284,1,90,8|0,0:0|3:0,0:0:0:0:
368,136,82972,2,0,L|373:242,1,90,8|0,0:0|3:0,0:0:0:0:
150,104,83315,2,0,L|155:194,1,90,8|0,0:0|3:0,0:0:0:0:
164,288,83572,1,8,0:0:0:0:
164,288,83658,5,8,0:0:0:0:
72,100,83829,2,0,P|50:94|30:84,2,45,0|0|8,3:0|3:0|0:0,0:0:0:0:
260,76,84172,1,0,3:0:0:0:
260,76,84258,1,0,3:0:0:0:
260,76,84343,1,8,0:0:0:0:
168,243,84515,2,0,P|163:265|163:288,2,45,0|0|8,3:0|3:0|0:0,0:0:0:0:
312,128,84857,1,0,3:0:0:0:
312,128,84943,1,0,3:0:0:0:
312,128,85029,6,0,L|368:136,3,45,8|0|0|0,0:0|3:0|3:0|3:0,0:0:0:0:
364,216,85372,2,0,L|420:208,3,45,8|0|0|0,0:0|3:0|3:0|3:0,0:0:0:0:
436,284,85715,1,8,0:0:0:0:
425,309,85801,1,8,0:0:0:0:
425,336,85887,1,8,0:0:0:0:
433,361,85973,1,8,0:0:0:0:
407,354,86058,1,8,0:0:0:0:
380,350,86144,1,8,0:0:0:0:
352,351,86230,1,8,0:0:0:0:
326,358,86315,1,8,0:0:0:0:
300,367,86401,6,0,P|201:297|322:289,1,315,0|0,3:0|0:0,0:0:0:0:
380,350,87086,1,8,0:0:0:0:
276,136,87429,1,2,0:0:0:0:
88,328,87772,6,0,B|64:352|64:352|80:168,1,215.999993408203,4|8,3:2|0:0,0:0:0:0:
80,60,88629,2,0,L|68:44,6,13.4999995880127,2|0|0|0|2|0|0,0:0|0:0|0:0|0:0|0:0|0:0|0:0,0:0:0:0:
176,112,88972,2,0,L|384:100,1,180,0|0,3:0|0:0,0:0:0:0:
260,180,89486,2,0,L|433:200,1,144,0|8,3:0|0:0,0:0:0:0:
276,36,90001,2,0,L|450:26,1,144,0|0,3:0|0:0,0:0:0:0:
212,84,90515,6,0,P|188:156|228:256,1,180,0|0,3:0|0:0,0:0:0:0:
279,343,90944,2,0,P|237:328|193:324,1,90,2|0,0:0|0:0,0:0:0:0:
116,340,91201,1,8,0:0:0:0:
304,264,91372,1,2,0:0:0:0:
304,264,91458,1,2,0:0:0:0:
304,264,91544,2,0,P|340:254|361:255,1,45,2|0,0:0|0:0,0:0:0:0:
365,188,91715,2,0,P|397:206|411:221,1,45,2|0,0:0|0:0,0:0:0:0:
472,84,91887,6,0,P|361:119|208:68,1,270,0|0,3:0|0:0,0:0:0:0:
168,24,92487,1,0,3:0:0:0:
218,75,92573,2,0,P|244:173|135:66,1,393.75,8|0,0:0|0:0,0:0:0:0:
169,140,93258,6,0,P|183:229|165:316,2,180,0|0|8,3:0|3:0|0:0,0:0:0:0:
96,20,94115,2,0,B|144:16,5,45,2|0|2|0|2|0,0:0|0:0|0:0|0:0|0:0|0:0,0:0:0:0:
236,68,94630,2,0,L|300:72,2,60,2|0|2,0:0|0:0|0:0,0:0:0:0:
88,160,94972,1,0,3:0:0:0:
260,312,95144,1,0,3:0:0:0:
424,159,95315,6,0,P|453:80|413:6,1,168.75,8|0,0:0|0:0,0:0:0:0:
352,88,95658,2,0,L|364:304,1,202.500007724762,2|0,0:0|0:0,0:0:0:0:
429,248,96001,6,0,L|424:159,1,90,0|0,3:0|0:0,0:0:0:0:
300,40,96344,1,2,0:0:0:0:
363,290,96515,2,0,L|358:200,1,90,0|0,3:0|0:0,0:0:0:0:
234,81,96858,1,2,0:0:0:0:
296,332,97029,2,0,L|291:242,1,90,8|0,0:0|0:0,0:0:0:0:
167,123,97372,5,0,3:0:0:0:
296,332,97544,2,0,P|372:336|452:264,1,180,0|0,3:0|3:0,0:0:0:0:
362,204,97972,1,0,3:0:0:0:
361,204,98058,2,0,P|394:122|361:41,1,180,8|2,0:0|0:0,0:0:0:0:
212,108,98572,1,2,0:0:0:0:
268,279,98744,6,0,L|447:271,1,180,0|0,3:0|3:0,0:0:0:0:
364,364,99258,1,2,0:0:0:0:
288,208,99429,2,0,L|192:204,1,90,8|0,0:0|0:0,0:0:0:0:
123,322,99771,5,2,0:0:0:0:
153,322,99858,1,0,0:0:0:0:
179,315,99944,1,0,0:0:0:0:
196,295,100029,1,0,0:0:0:0:
198,204,100115,5,2,0:0:0:0:
174,184,100200,1,0,0:0:0:0:
149,174,100287,1,0,0:0:0:0:
123,177,100373,1,0,0:0:0:0:
40,182,100458,6,0,B|34:150|34:150|44:132|44:132|38:111|38:111|47:93|47:93|40:70|40:70|52:52|52:52|46:30|46:30|50:1,1,180,0|8,3:0|0:0,0:0:0:0:
198,204,100972,6,0,B|209:177|209:177|199:157|199:157|208:141|208:141|200:120|200:120|213:104|213:104|204:89|204:89|216:71|216:71|205:50|205:50|216:26|216:26|209:4,1,225,0|0,3:0|0:0,0:0:0:0:
419,98,101486,6,0,L|479:93,1,45,0|0,3:0|0:0,0:0:0:0:
359,142,101658,2,0,L|401:178,1,45,2|0,0:0|0:0,0:0:0:0:
287,130,101829,2,0,L|291:186,1,45,2|0,0:0|0:0,0:0:0:0:
243,70,102001,2,0,L|206:112,1,45,2|0,0:0|0:0,0:0:0:0:
136,186,102172,1,8,0:0:0:0:
108,201,102258,1,0,0:0:0:0:
77,196,102344,1,0,0:0:0:0:
57,172,102429,1,0,0:0:0:0:
57,140,102515,5,0,3:0:0:0:
77,116,102601,1,0,0:0:0:0:
108,111,102686,1,0,0:0:0:0:
136,126,102772,1,0,0:0:0:0:
146,156,102858,1,2,0:0:0:0:
136,186,102943,1,0,0:0:0:0:
132,217,103029,1,0,0:0:0:0:
138,247,103115,1,0,0:0:0:0:
162,266,103200,1,2,0:0:0:0:
188,282,103286,1,0,0:0:0:0:
219,287,103372,1,0,0:0:0:0:
249,282,103457,1,0,3:0:0:0:
273,261,103544,6,0,B|288:224|281:192|281:192|351:207|415:121|335:33|266:71,1,315,8|0,0:0|0:0,0:0:0:0:
168,127,104230,6,0,P|81:126|32:55,2,180,0|0|8,3:0|0:0|0:0,0:0:0:0:
188,20,105087,1,2,0:0:0:0:
76,124,105258,6,0,B|55:154|60:187|60:187|44:207|56:236|56:236|48:264|68:280|68:280|72:304|88:312|88:312|116:292|112:228,1,270,0|0,3:0|0:0,0:0:0:0:
152,164,105858,6,0,L|153:186,1,22.5,10|0,0:0|0:0,0:0:0:0:
172,228,105944,1,0,3:0:0:0:
200,236,106030,1,2,0:0:0:0:
228,244,106116,1,2,0:0:0:0:
256,252,106202,1,2,0:0:0:0:
284,260,106287,2,0,B|275:95,1,135,8|0,0:0|0:0,0:0:0:0:
360,128,106629,2,0,B|376:192|376:192|361:269,1,135,2|0,0:0|0:0,0:0:0:0:
208,340,106972,6,0,P|129:240|193:131,1,270,0|0,3:0|0:0,0:0:0:0:
320,64,107658,1,8,0:0:0:0:
320,64,108001,2,0,L|409:67,1,90,2|0,0:0|0:0,0:0:0:0:
188,32,108344,2,0,B|32:40|32:40|96:116|96:116|60:216,1,337.5,0|0,3:0|0:0,0:0:0:0:
24,328,109029,1,8,0:0:0:0:
184,252,109201,5,0,3:0:0:0:
184,252,109287,1,0,3:0:0:0:
184,252,109373,2,0,L|228:254,1,45,8|0,0:0|0:0,0:0:0:0:
224,344,109544,2,0,L|276:336,1,45,2|0,0:0|0:0,0:0:0:0:
372,368,109715,6,0,B|362:182|362:182|412:248,1,252,4|0,3:2|0:0,0:0:0:0:
295,231,110401,6,0,P|301:128|404:118,1,225,8|0,0:0|0:0,0:0:0:0:
368,268,110915,2,0,P|270:309|216:222,1,225,0|0,3:0|0:0,0:0:0:0:
363,183,111429,2,0,P|441:226|438:317,1,180,0|8,3:0|0:0,0:0:0:0:
296,232,111944,2,0,B|295:62|295:62|256:108,1,225,0|0,3:0|0:0,0:0:0:0:
133,98,112458,6,0,P|195:121|259:104,1,135,0|0,3:0|0:0,0:0:0:0:
368,72,112801,6,0,B|399:151|399:151|367:227,1,168.75,2|0,0:0|0:0,0:0:0:0:
272,308,113144,1,8,0:0:0:0:
240,304,113230,1,2,0:0:0:0:
208,300,113315,1,2,0:0:0:0:
176,296,113401,1,2,0:0:0:0:
144,292,113487,2,0,P|176:324|180:396,1,90,2|2,0:0|0:0,0:0:0:0:
83,251,113829,6,0,P|72:132|153:221,1,315,0|0,3:0|3:0,0:0:0:0:
25,300,114515,6,0,P|203:270|191:91,1,393.75,8|0,0:0|0:0,0:0:0:0:
76,37,115201,6,0,P|125:82|191:91,1,135,0|0,3:0|0:0,0:0:0:0:
306,37,115544,2,0,P|240:46|191:91,1,135,0|0,3:0|0:0,0:0:0:0:
199,256,115887,2,0,P|200:211|195:166,1,90,8|0,0:0|0:0,0:0:0:0:
272,344,116229,2,0,P|287:301|297:258,1,90,2|0,0:0|0:0,0:0:0:0:
146,343,116572,2,0,P|116:349|87:343,2,60,2|0|2,0:0|0:0|0:0,0:0:0:0:
297,257,116915,1,0,3:0:0:0:
191,90,117087,1,0,3:0:0:0:
38,248,117258,6,0,B|117:277|117:277|199:256,1,168.75,8|0,0:0|0:0,0:0:0:0:
392,255,117601,2,0,B|313:226|313:226|199:256,1,202.500007724762,2|0,0:0|0:0,0:0:0:0:
261,167,117944,6,0,P|271:123|258:81,1,90,0|0,3:0|0:0,0:0:0:0:
92,126,118287,1,2,0:0:0:0:
276,240,118458,2,0,P|314:217|334:177,1,90,0|0,3:0|0:0,0:0:0:0:
185,91,118801,1,2,0:0:0:0:
235,303,118972,2,0,P|278:313|320:300,1,90,8|0,0:0|0:0,0:0:0:0:
441,200,119315,1,0,3:0:0:0:
335,87,119486,6,0,L|334:177,1,90,0|0,3:0|0:0,0:0:0:0:
446,21,119829,1,0,3:0:0:0:
446,21,119915,1,0,3:0:0:0:
446,21,120001,2,0,L|442:221,1,180,8|2,0:0|0:0,0:0:0:0:
380,360,120515,1,2,0:0:0:0:
324,160,120687,6,0,B|236:144|236:144|146:159,1,180,0|0,3:0|3:0,0:0:0:0:
232,268,121201,1,2,0:0:0:0:
324,92,121373,2,0,L|272:82,1,45,8|0,0:0|0:0,0:0:0:0:
148,92,121544,2,0,L|203:82,1,45,2|0,0:0|0:0,0:0:0:0:
324,160,121715,5,2,0:0:0:0:
341,191,121800,1,0,0:0:0:0:
345,227,121887,1,0,0:0:0:0:
332,260,121973,1,0,0:0:0:0:
268,329,122058,5,2,0:0:0:0:
303,329,122143,1,0,0:0:0:0:
336,344,122230,1,0,0:0:0:0:
358,372,122316,1,0,0:0:0:0:
419,289,122401,6,0,B|410:148|410:148|439:189,1,180,0|8,3:0|0:0,0:0:0:0:
303,328,122915,6,0,P|196:352|108:287,1,225,0|8,3:0|0:0,0:0:0:0:
159,27,123429,6,0,P|165:49|165:70,1,45,0|2,3:0|0:0,0:0:0:0:
240,95,123601,2,0,P|228:114|213:130,1,45,2|2,0:0|0:0,0:0:0:0:
248,200,123772,2,0,P|226:206|204:206,1,45,2|2,0:0|0:0,0:0:0:0:
175,279,123944,2,0,P|155:267|139:252,1,45,2|2,0:0|0:0,0:0:0:0:
80,151,124115,1,8,0:0:0:0:
80,120,124200,1,0,0:0:0:0:
80,88,124286,1,0,0:0:0:0:
80,56,124372,1,0,0:0:0:0:
67,27,124457,5,0,3:0:0:0:
35,27,124543,1,0,0:0:0:0:
10,46,124629,1,0,0:0:0:0:
4,77,124715,1,0,0:0:0:0:
19,104,124800,1,2,0:0:0:0:
47,116,124886,1,0,0:0:0:0:
80,120,124972,1,0,0:0:0:0:
110,110,125058,1,0,0:0:0:0:
137,95,125143,1,2,0:0:0:0:
161,74,125229,1,0,0:0:0:0:
183,95,125315,1,0,0:0:0:0:
211,107,125400,1,0,3:0:0:0:
240,117,125486,6,0,B|317:135|407:73|407:73|379:155|426:212,1,315,8|0,0:0|0:0,0:0:0:0:
497,288,126172,6,0,L|290:296,2,180,0|0|8,3:0|0:0|0:0,0:0:0:0:
407,73,127029,1,2,0:0:0:0:
318,295,127200,6,0,B|279:337|279:337|247:305|247:305|255:281|255:281|247:257|247:257|255:229|255:229|247:205|247:205|256:178|256:178|243:145,1,270,0|0,3:0|0:0,0:0:0:0:
184,72,127801,6,0,L|178:101,1,22.5,8|0,0:0|0:0,0:0:0:0:
168,132,127886,1,0,3:0:0:0:
136,128,127972,1,2,0:0:0:0:
104,124,128058,1,2,0:0:0:0:
72,120,128143,1,2,0:0:0:0:
39,116,128229,6,0,P|96:211|136:128,1,252,8|0,0:0|0:0,0:0:0:0:
100,40,128915,5,0,3:0:0:0:
24,268,129086,1,0,0:0:0:0:
236,160,129258,2,0,B|288:140|288:140|436:156,1,180,2|8,0:0|0:0,0:0:0:0:
199,261,129772,2,0,B|147:281|147:281|24:268,1,180,2|0,0:0|0:0,0:0:0:0:
251,189,130286,2,0,B|302:282|233:346|233:346|190:314|199:261,1,270,0|0,3:0|0:0,0:0:0:0:
164,128,130886,2,0,L|176:148,1,22.5,0|0,3:0|3:0,0:0:0:0:
208,176,130972,5,8,0:0:0:0:
251,189,131058,1,2,0:0:0:0:
295,182,131144,1,0,0:0:0:0:
334,161,131229,1,2,0:0:0:0:
354,115,131315,1,0,0:0:0:0:
340,67,131401,1,2,0:0:0:0:
292,42,131486,1,0,0:0:0:0:
242,63,131572,1,2,0:0:0:0:
232,120,131658,5,0,3:0:0:0:
232,120,132344,2,0,B|307:145|415:89|415:89|415:153|443:209,1,315,8|8,0:0|0:0,0:0:0:0:
496,308,133029,1,0,3:0:0:0:
496,308,133544,1,0,3:0:0:0:
416,88,133715,1,8,0:0:0:0:
272,272,134058,1,2,0:0:0:0:
40,60,134401,6,0,L|232:68,1,180,0|0,3:0|0:0,0:0:0:0:
344,76,134915,1,0,3:0:0:0:
416,216,135086,2,0,P|333:227|361:170,1,180,8|0,0:0|0:0,0:0:0:0:
463,101,135601,1,0,0:0:0:0:
463,101,135686,1,8,0:0:0:0:
463,101,135772,2,2,L|275:97,1,180,0|2,3:0|0:0,0:0:0:0:
172,20,136286,1,0,3:0:0:0:
68,168,136458,1,8,0:0:0:0:
416,216,136801,1,0,3:0:0:0:
412,248,136886,1,0,3:0:0:0:
408,280,136972,1,8,0:0:0:0:
404,312,137058,1,8,0:0:0:0:
400,343,137144,6,0,P|323:318|345:234,1,180,0|0,3:0|0:0,0:0:0:0:
504,68,137829,1,8,0:0:0:0:
284,192,138172,1,2,0:0:0:0:
416,28,138430,1,8,0:0:0:0:
416,28,138515,2,0,B|412:256|412:256|374:236,1,270,0|0,3:0|3:0,0:0:0:0:
216,156,139201,2,0,B|160:140|160:140|36:160,1,180,8|0,0:0|3:0,0:0:0:0:
296,228,139886,6,0,B|352:244|352:244|476:224,1,180,0|0,3:0|0:0,0:0:0:0:
372,104,140401,1,2,0:0:0:0:
228,208,140572,2,0,B|186:248|186:248|141:365,1,180,8|0,0:0|0:0,0:0:0:0:
280,158,141087,1,2,0:0:0:0:
280,158,141172,1,0,0:0:0:0:
280,158,141258,2,0,B|265:101|265:101|186:4,1,180,0|0,3:0|0:0,0:0:0:0:
26,33,141772,1,0,3:0:0:0:
48,196,141944,1,8,0:0:0:0:
296,228,142201,2,0,L|336:232,2,22.5,0|0|8,3:0|3:0|0:0,0:0:0:0:
230,266,142373,1,8,0:3:0:0:
255,291,142458,1,4,0:3:0:0:
288,303,142544,1,4,0:3:0:0:
323,302,142629,5,0,3:0:0:0:
404,216,142800,1,2,0:0:0:0:
390,36,142972,2,0,L|406:244,1,180,2|8,0:0|0:0,0:0:0:0:
255,291,143486,2,0,P|213:213|237:128,1,180,2|0,0:0|0:0,0:0:0:0:
316,80,143915,1,8,0:0:0:0:
316,79,144001,2,0,P|228:99|140:85,1,180,0|0,3:0|0:0,0:0:0:0:
20,20,144515,1,0,3:0:0:0:
132,172,144686,1,8,0:0:0:0:
132,172,145029,1,2,0:0:0:0:
256,32,145200,1,2,0:0:0:0:
380,172,145372,6,0,P|404:248|356:360,1,180,0|2,3:0|0:0,0:0:0:0:
80,236,146058,1,8,0:0:0:0:
204,108,146229,2,0,B|294:111,1,90,2|0,0:0|0:0,0:0:0:0:
170,239,146572,1,2,0:0:0:0:
170,239,146658,1,8,0:0:0:0:
170,239,146743,2,0,B|80:236,1,90,0|2,3:0|0:0,0:0:0:0:
72,244,147000,1,0,0:0:0:0:
64,252,147086,1,2,0:0:0:0:
36,100,147258,1,0,3:0:0:0:
124,308,147429,2,0,P|192:316|244:204,1,180,8|2,0:0|0:0,0:0:0:0:
184,44,147943,1,8,0:0:0:0:
188,76,148029,1,8,0:0:0:0:
192,108,148115,5,0,3:0:0:0:
344,368,148458,2,0,P|332:256|348:180,1,180,2|8,0:0|0:0,0:0:0:0:
345,13,148972,2,0,P|357:125|341:201,1,180,2|0,0:0|0:0,0:0:0:0:
268,224,149401,1,8,0:0:0:0:
268,224,149486,2,0,P|180:208|72:240,1,180,0|2,3:0|0:0,0:0:0:0:
184,352,150001,1,0,3:0:0:0:
176,140,150172,2,0,P|64:163|10:201,1,180,8|2,0:0|0:0,0:0:0:0:
139,289,150686,1,2,0:0:0:0:
248,156,150857,6,0,L|244:57,1,90,0|0,3:0|0:0,0:0:0:0:
372,112,151200,1,2,0:0:0:0:
188,224,151544,1,8,0:0:0:0:
316,352,151715,2,0,L|323:168,1,180,2|0,0:0|0:0,0:0:0:0:
332,160,152144,1,8,0:0:0:0:
340,148,152229,5,0,3:0:0:0:
456,256,152400,1,0,3:0:0:0:
220,312,152572,1,8,0:0:0:0:
424,188,152743,1,0,3:0:0:0:
248,376,152915,1,8,0:0:0:0:
488,224,153086,1,0,3:0:0:0:
492,216,153172,1,0,3:0:0:0:
496,208,153258,5,8,0:0:0:0:
498,176,153343,1,8,0:0:0:0:
486,146,153429,1,8,0:0:0:0:
463,123,153515,1,8,0:0:0:0:
433,112,153601,1,8,0:0:0:0:
392,116,153686,1,8,0:0:0:0:
352,120,153772,1,8,0:0:0:0:
311,115,153858,1,8,0:0:0:0:
282,86,153944,1,8,0:0:0:0:
284,45,154029,1,8,0:0:0:0:
319,25,154115,1,8,0:0:0:0:
359,32,154201,1,8,0:0:0:0:
382,64,154286,6,0,B|391:161|371:256|371:256|392:325|444:317|481:258|421:225|371:256|371:256|305:278|262:246,1,495,8|0,0:0|0:0,0:0:0:0:
188,84,156344,5,0,3:0:0:0:
40,336,156686,2,0,P|60:234|104:329,1,270,2|0,0:0|0:0,0:0:0:0:
252,288,157372,1,2,0:0:0:0:
252,288,157458,1,0,0:0:0:0:
251,288,157544,2,0,P|273:284|295:286,1,45
196,236,157715,5,2,0:0:0:0:
184,206,157801,1,2,0:0:0:0:
184,174,157886,1,2,0:0:0:0:
189,142,157972,1,2,0:0:0:0:
210,118,158058,1,2,0:0:0:0:
239,105,158144,1,2,0:0:0:0:
270,105,158229,1,2,0:0:0:0:
360,208,158401,1,2,0:0:0:0:
348,76,158572,1,0,0:0:0:0:
288,196,158744,2,0,L|295:286,1,90,2|0,0:0|0:0,0:0:0:0:
472,320,159086,6,0,B|492:232|492:232|456:144,1,180,0|0,3:0|0:0,0:0:0:0:
212,96,159772,2,0,P|152:57|221:43,1,180,0|2,0:0|0:0,0:0:0:0:
316,140,160286,1,0,0:0:0:0:
236,248,160458,1,2,0:0:0:0:
404,24,160801,5,2,0:0:0:0:
416,52,160886,1,2,0:0:0:0:
404,96,160972,1,2,0:0:0:0:
416,124,161057,1,2,0:0:0:0:
400,168,161144,1,2,0:0:0:0:
72,72,161486,1,2,0:0:0:0:
336,312,161829,6,0,L|448:308,1,90,0|0,3:0|0:0,0:0:0:0:
276,352,162172,2,0,L|226:350,1,45,2|0,0:0|0:0,0:0:0:0:
426,309,162429,1,2,0:0:0:0:
184,252,162686,1,2,0:0:0:0:
216,96,162858,2,0,P|223:140|218:184,1,90
49,332,163201,5,2,0:0:0:0:
80,315,163286,1,2,0:0:0:0:
115,309,163372,1,2,0:0:0:0:
150,315,163458,1,2,0:0:0:0:
180,334,163544,1,2,0:0:0:0:
211,349,163629,1,2,0:0:0:0:
246,353,163715,1,2,0:0:0:0:
408,284,163886,1,2,0:0:0:0:
332,372,164058,1,0,0:0:0:0:
408,208,164229,1,2,0:0:0:0:
484,296,164401,1,0,0:0:0:0:
264,252,164572,5,0,3:0:0:0:
64,47,164915,2,0,P|31:129|61:212,1,180,2|0,0:0|0:0,0:0:0:0:
148,316,165429,1,2,0:0:0:0:
184,148,165601,1,2,0:0:0:0:
80,284,165772,1,0,0:0:0:0:
288,220,165944,2,2,P|364:249|276:278,1,216,0|0,0:0|0:0,0:0:0:0:
148,228,166629,1,2,0:0:0:0:
256,8,166972,1,2,0:0:0:0:
468,176,167315,6,0,L|464:376,1,180,0|0,3:0|3:0,0:0:0:0:
376,280,167829,1,0,3:0:0:0:
280,347,168001,2,0,P|236:356|191:349,1,90,8|0,0:0|0:0,0:0:0:0:
84,268,168343,1,2,0:0:0:0:
80,240,168429,1,0,0:0:0:0:
76,212,168515,1,0,3:0:0:0:
72,184,168600,1,0,0:0:0:0:
68,156,168686,6,0,B|76:64,1,90,2|0,0:0|0:0,0:0:0:0:
176,128,169029,1,0,3:0:0:0:
384,236,169372,2,0,L|376:146,1,90,8|0,0:0|0:0,0:0:0:0:
296,60,169715,1,2,0:0:0:0:
256,168,169886,1,2,0:0:0:0:
428,94,170058,6,0,B|460:180|460:180|448:268,1,180,0|2,3:0|0:0,0:0:0:0:
368,356,170572,1,0,3:0:0:0:
320,248,170743,2,0,L|312:148,2,90,8|0|0,0:0|0:0|0:0,0:0:0:0:
460,180,171258,1,0,3:0:0:0:
316,88,171429,5,2,0:0:0:0:
289,91,171515,1,2,0:0:0:0:
265,104,171601,1,2,0:0:0:0:
248,125,171686,1,2,0:0:0:0:
238,150,171772,1,2,0:0:0:0:
320,248,171944,1,0,3:0:0:0:
164,208,172115,2,0,B|92:196|92:196|12:212,1,135,8|0,0:0|0:0,0:0:0:0:
31,208,172458,2,0,P|1:137|40:69,1,161.999995056153,2|0,0:0|0:0,0:0:0:0:
112,56,172801,5,0,3:0:0:0:
164,208,172972,2,0,L|160:316,1,90,0|0,3:0|0:0,0:0:0:0:
64,368,173315,1,0,3:0:0:0:
200,356,173486,2,0,L|289:358,2,90,8|0|0,0:0|0:0|0:0,0:0:0:0:
88,296,174001,1,0,3:0:0:0:
240,236,174172,6,0,P|244:184|212:128,1,90,2|0,0:0|0:0,0:0:0:0:
132,84,174515,1,0,3:0:0:0:
352,216,174858,2,0,L|452:212,1,90,8|0,0:0|0:0,0:0:0:0:
320,153,175201,2,0,L|220:149,1,90,2|0,0:0|0:0,0:0:0:0:
92,232,175544,6,0,L|284:223,1,180,0|2,3:0|0:0,0:0:0:0:
392,148,176058,1,0,3:0:0:0:
364,272,176229,2,0,P|360:316|375:365,1,90,8|0,0:0|0:0,0:0:0:0:
480,312,176572,1,2,0:0:0:0:
364,272,176744,1,0,3:0:0:0:
456,183,176915,6,0,P|465:140|448:99,1,90,2|0,0:0|0:0,0:0:0:0:
324,48,177258,1,2,0:0:0:0:
292,44,177343,1,0,0:0:0:0:
260,40,177429,1,0,3:0:0:0:
228,36,177515,1,0,3:0:0:0:
196,32,177601,2,0,B|125:54|77:36|77:36|100:76|100:120,1,180,8|0,0:0|0:0,0:0:0:0:
105,255,178115,1,2,0:0:0:0:
105,255,178286,6,0,P|70:161|101:87,1,180,0|0,3:0|3:0,0:0:0:0:
196,32,178801,1,0,3:0:0:0:
268,144,178972,2,0,B|264:252,1,90,8|0,0:0|0:0,0:0:0:0:
172,344,179315,1,2,0:0:0:0:
173,314,179401,1,0,0:0:0:0:
174,284,179486,1,0,3:0:0:0:
175,254,179572,1,0,0:0:0:0:
176,224,179658,6,0,L|265:233,1,90,2|0,0:0|0:0,0:0:0:0:
360,332,180001,1,0,3:0:0:0:
479,132,180344,2,0,P|489:68|434:36,1,135,8|0,0:0|0:0,0:0:0:0:
434,36,180686,2,0,P|382:74|398:135,1,135,2|0,0:0|0:0,0:0:0:0:
443,192,181029,5,0,3:0:0:0:
312,112,181201,2,0,L|208:116,1,90,2|0,0:0|0:0,0:0:0:0:
272,240,181544,1,0,3:0:0:0:
204,44,181715,2,0,P|169:63|152:130,1,90,8|2,0:0|0:0,0:0:0:0:
180,176,181972,1,0,0:0:0:0:
180,176,182058,1,2,0:0:0:0:
312,112,182229,1,0,3:0:0:0:
80,72,182401,6,0,L|88:172,1,90,2|2,0:0|0:0,0:0:0:0:
96,236,182658,1,0,0:0:0:0:
96,236,182744,1,2,0:0:0:0:
222,115,182915,1,0,3:0:0:0:
152,292,183086,1,8,0:0:0:0:
424,224,183429,2,0,B|368:212|368:212|264:224,1,161.999995056153,2|0,0:0|0:0,0:0:0:0:
228,288,183772,5,0,3:0:0:0:
152,176,183944,2,0,L|156:72,1,90,0|2,3:0|0:0,0:0:0:0:
28,132,184286,1,0,3:0:0:0:
152,176,184458,1,8,0:0:0:0:
276,120,184629,2,0,L|272:16,1,90,2|0,0:0|0:0,0:0:0:0:
155,86,184972,1,0,3:0:0:0:
248,208,185143,5,2,0:0:0:0:
280,204,185229,1,2,0:0:0:0:
312,200,185315,1,2,0:0:0:0:
344,196,185401,1,2,0:0:0:0:
376,192,185486,2,0,B|400:232|400:232|380:284,1,90,0|0,3:0|0:0,0:0:0:0:
296,376,185829,1,8,0:0:0:0:
428,352,186001,1,0,0:0:0:0:
284,276,186172,2,0,P|268:211|291:149,1,135,2|0,0:0|0:0,0:0:0:0:
291,149,186515,6,0,P|204:188|116:144,1,180,0|0,3:0|0:0,0:0:0:0:
72,36,187029,1,0,3:0:0:0:
208,56,187201,1,8,0:0:0:0:
56,120,187372,5,2,0:0:0:0:
57,148,187458,1,0,0:0:0:0:
59,176,187543,1,2,0:0:0:0:
60,204,187629,1,0,0:0:0:0:
62,232,187715,1,0,3:0:0:0:
63,261,187800,1,0,0:0:0:0:
79,297,187886,1,2,0:0:0:0:
113,318,187972,1,0,0:0:0:0:
153,319,188057,1,2,0:0:0:0:
190,303,188143,1,0,0:0:0:0:
210,267,188229,1,2,0:0:0:0:
201,227,188315,1,0,0:0:0:0:
164,212,188400,5,0,3:0:0:0:
164,212,188486,1,0,3:0:0:0:
164,212,188572,2,0,P|234:223|138:158,1,360,8|4,0:0|0:0,0:0:0:0:
256,192,189344,12,0,192001,0:0:0:0:
116,68,200230,5,2,0:0:0:0:
211,183,200572,2,0,P|261:203|312:189,1,107.999996704102,2|0,0:0|0:0,0:0:0:0:
376,148,201087,1,2,0:0:0:0:
116,68,201601,2,0,B|100:112|100:112|112:192,1,107.999996704102,2|0,0:0|0:0,0:0:0:0:
124,248,202115,1,2,0:0:0:0:
381,223,202630,1,2,0:0:0:0:
376,148,202801,1,2,0:0:0:0:
313,190,202973,5,2,0:0:0:0:
420,300,203315,2,0,P|461:253|456:192,1,107.999996704102,2|0,0:0|0:0,0:0:0:0:
452,136,203830,1,2,0:0:0:0:
308,352,204344,2,0,B|256:367|256:367|204:352,1,107.999996704102,2|0,0:0|0:0,0:0:0:0:
132,332,204858,1,2,0:0:0:0:
191,77,205372,1,2,0:0:0:0:
260,46,205544,1,2,0:0:0:0:
252,121,205715,5,2,0:0:0:0:
124,224,206058,2,0,L|132:332,1,107.999996704102,2|0,0:0|0:0,0:0:0:0:
196,372,206573,1,2,0:0:0:0:
387,159,207086,2,0,L|380:52,1,107.999996704102,2|0,0:0|0:0,0:0:0:0:
316,12,207601,1,2,0:0:0:0:
156,216,208115,1,2,0:0:0:0:
95,172,208286,1,2,0:0:0:0:
164,140,208458,5,2,0:0:0:0:
444,208,208801,2,0,P|469:281|437:350,1,144,2|0,0:0|0:0,0:0:0:0:
360,276,209315,1,2,0:0:0:0:
504,12,209830,1,2,0:0:0:0:
208,72,210344,1,2,0:0:0:0:
464,212,210772,6,0,L|441:209,1,22.5,0|0,3:0|3:0,0:0:0:0:
408,224,210858,1,8,0:0:0:0:
384,240,210944,1,8,0:3:0:0:
352,248,211030,1,4,0:3:0:0:
320,240,211115,1,4,0:3:0:0:
292,224,211201,6,0,P|252:212|188:232,1,90,4|0,3:2|0:0,0:0:0:0:
92,296,211544,2,0,L|2:292,2,90,8|0|2,0:0|0:0|0:0,0:0:0:0:
208,348,212058,1,0,3:0:0:0:
124,220,212229,2,0,P|115:161|141:111,1,90,8|2,0:0|0:0,0:0:0:0:
176,84,212487,1,8,0:0:0:0:
176,84,212573,5,0,3:0:0:0:
296,124,212744,1,0,3:0:0:0:
256,4,212915,1,8,0:0:0:0:
228,128,213087,1,0,3:0:0:0:
237,157,213172,1,0,0:0:0:0:
257,180,213258,1,2,0:0:0:0:
286,191,213344,1,0,0:0:0:0:
317,189,213429,1,0,3:0:0:0:
440,112,213601,1,8,0:0:0:0:
304,68,213772,1,2,0:0:0:0:
392,192,213944,6,0,L|388:288,1,90,0|0,3:0|0:0,0:0:0:0:
317,189,214286,2,0,L|313:99,2,90,8|0|2,0:0|0:0|0:0,0:0:0:0:
448,148,214801,1,0,3:0:0:0:
316,264,214972,2,0,B|275:270|275:270|228:264,1,90,8|2,0:0|0:0,0:0:0:0:
124,232,215229,1,8,0:0:0:0:
124,232,215315,6,0,B|83:226|83:226|34:232,1,90,0|0,3:0|3:0,0:0:0:0:
144,336,215658,1,8,0:0:0:0:
192,188,215829,1,0,3:0:0:0:
191,159,215915,1,0,0:0:0:0:
189,131,216001,1,2,0:0:0:0:
188,103,216087,1,0,0:0:0:0:
186,75,216172,1,0,3:0:0:0:
320,128,216344,1,8,0:0:0:0:
120,184,216515,1,8,0:0:0:0:
120,184,216601,1,8,0:0:0:0:
119,183,216686,6,0,B|108:136|108:136|120:84,1,90,0|0,3:0|0:0,0:0:0:0:
149,246,217029,2,0,L|144:336,2,90,8|0|2,0:0|0:0|0:0,0:0:0:0:
232,176,217544,1,0,3:0:0:0:
328,220,217715,2,0,P|368:232|413:220,1,90,8|2,0:0|0:0,0:0:0:0:
464,168,217972,1,8,0:0:0:0:
464,168,218058,5,0,3:0:0:0:
359,98,218230,1,0,3:0:0:0:
328,220,218401,1,8,0:0:0:0:
236,120,218572,1,0,3:0:0:0:
208,116,218658,1,0,0:0:0:0:
180,112,218743,1,2,0:0:0:0:
152,108,218830,1,0,0:0:0:0:
124,104,218915,1,0,3:0:0:0:
152,268,219086,2,0,P|160:304|148:356,1,90,8|2,0:0|0:0,0:0:0:0:
120,191,219429,6,0,P|112:147|124:104,1,90,0|0,3:0|0:0,0:0:0:0:
232,40,219772,2,0,L|321:36,2,90,8|0|2,0:0|0:0|0:0,0:0:0:0:
264,164,220287,1,0,3:0:0:0:
123,104,220458,1,8,0:0:0:0:
159,275,220629,1,2,0:0:0:0:
159,275,220715,1,8,0:0:0:0:
159,275,220801,6,0,L|52:272,1,90,0|0,3:0|3:0,0:0:0:0:
204,364,221144,1,8,0:0:0:0:
312,284,221315,1,0,3:0:0:0:
184,172,221486,1,8,0:0:0:0:
332,136,221658,1,0,3:0:0:0:
355,149,221744,1,0,3:0:0:0:
381,153,221830,1,8,0:0:0:0:
425,150,221915,1,8,0:0:0:0:
459,121,222001,1,8,0:0:0:0:
469,77,222087,1,8,0:0:0:0:
445,39,222172,5,4,3:2:0:0:
256,304,222515,1,8,0:0:0:0:
67,39,222858,1,0,3:0:0:0:
160,172,223029,1,2,0:0:0:0:
256,304,223201,2,0,L|372:296,1,90,8|0,0:0|0:0,0:0:0:0:
420,296,223458,1,8,0:0:0:0:
420,296,223544,5,0,3:0:0:0:
160,172,223886,1,8,0:0:0:0:
464,52,224229,1,0,3:0:0:0:
312,112,224401,1,2,0:0:0:0:
160,172,224572,2,0,L|44:164,1,90,8|0,0:0|0:0,0:0:0:0:
8,56,224915,5,0,3:0:0:0:
264,332,225258,2,0,B|352:352|352:352|456:328,1,180,8|0,0:0|3:0,0:0:0:0:
344,200,225772,1,2,0:0:0:0:
472,100,225944,2,0,P|479:63|440:8,1,90,8|0,0:0|0:0,0:0:0:0:
408,72,226201,1,8,0:0:0:0:
408,72,226287,5,0,3:0:0:0:
140,44,226630,1,8,0:0:0:0:
184,368,226973,1,0,3:0:0:0:
164,204,227144,1,2,0:0:0:0:
140,44,227315,1,8,0:0:0:0:
40,148,227487,1,8,0:0:0:0:
40,148,227573,1,8,0:0:0:0:
40,148,227658,6,0,L|129:140,1,90,8|0,0:0|3:0,0:0:0:0:
337,96,228001,2,0,L|248:104,1,90,8|0,0:0|3:0,0:0:0:0:
60,64,228344,1,8,0:0:0:0:
60,240,228515,1,0,3:0:0:0:
248,104,228686,1,8,0:0:0:0:
224,336,228858,1,0,3:0:0:0:
224,336,228944,1,8,0:0:0:0:
224,336,229030,5,8,0:0:0:0:
112,172,229201,2,0,L|104:108,2,45,0|0|8,3:0|3:0|0:0,0:0:0:0:
276,268,229544,1,0,3:0:0:0:
276,268,229630,1,0,3:0:0:0:
276,268,229715,1,8,0:0:0:0:
180,92,229886,2,0,L|172:28,2,45,0|0|8,3:0|3:0|0:0,0:0:0:0:
320,196,230229,1,0,3:0:0:0:
320,196,230315,1,0,3:0:0:0:
320,196,230401,6,0,L|324:140,3,45,8|0|0|0,0:0|3:0|3:0|3:0,0:0:0:0:
400,104,230744,2,0,L|404:48,3,45,8|0|0|0,0:0|3:0|3:0|3:0,0:0:0:0:
316,64,231086,2,0,L|271:60,1,45,8|8,0:0|0:0,0:0:0:0:
192,116,231259,1,8,0:0:0:0:
173,157,231345,1,8,0:0:0:0:
169,201,231430,1,8,0:0:0:0:
190,240,231516,1,8,0:0:0:0:
221,272,231602,1,8,0:0:0:0:
274,277,231687,1,8,0:0:0:0:
319,249,231772,6,0,P|176:264|297:340,1,377.999988464356,0|0,3:0|0:0,0:0:0:0:
371,312,232458,1,8,0:0:0:0:
268,100,233144,6,0,B|188:88|92:184|92:184|103:247|67:329|67:329|143:297|143:297|200:320|200:320|228:281|228:281|268:286|268:286|287:255|287:255|324:258|324:258|335:230|335:230|358:241|358:241|361:215|361:215|383:227|383:227|389:204|389:204|412:215|412:215|432:212,1,814.049961493609,4|0,3:2|0:0,0:0:0:0:
432,236,235544,1,8,0:3:0:0:
460,258,235630,1,8,0:3:0:0:
491,241,235715,1,4,0:3:0:0:
500,206,235801,1,4,0:3:0:0:
495,170,235886,6,0,P|407:52|267:100,1,315,0|0,3:0|0:0,0:0:0:0:
270,181,236572,2,0,P|296:201|320:209,1,45,8|0,0:0|0:0,0:0:0:0:
302,275,236744,2,0,P|335:270|357:259,5,45,2|0|2|0|2|0,0:0|0:0|0:0|0:0|0:0|0:0,0:0:0:0:
414,172,237258,6,0,B|411:365|411:365|469:314,1,270,0|0,3:0|0:0,0:0:0:0:
346,266,237858,1,0,3:0:0:0:
346,266,237944,6,0,B|238:215|150:245|126:303|126:303|187:366|275:321,1,393.75,8|0,0:0|0:0,0:0:0:0:
346,266,238629,6,0,B|366:179|366:179|343:83,2,180,0|0|8,3:0|3:0|0:0,0:0:0:0:
180,200,239486,2,0,B|176:180|176:180|180:156,5,45,2|0|2|0|2|0,0:0|0:0|0:0|0:0|0:0|0:0,0:0:0:0:
212,276,240001,2,0,B|217:306|217:306|212:336,2,60,2|0|2,0:0|0:0|0:0,0:0:0:0:
91,276,240344,1,0,3:0:0:0:
304,200,240515,1,0,3:0:0:0:
80,124,240686,6,0,P|104:72|248:68,1,168.75,8|0,0:0|0:0,0:0:0:0:
324,108,241029,2,0,P|397:77|324:46,1,202.500007724762,2|0,0:0|0:0,0:0:0:0:
260,148,241372,5,0,3:0:0:0:
287,177,241458,1,0,0:0:0:0:
323,193,241544,1,2,0:0:0:0:
363,196,241629,1,0,0:0:0:0:
402,187,241715,1,2,0:0:0:0:
437,166,241801,1,0,0:0:0:0:
460,133,241886,1,0,3:0:0:0:
468,92,241972,5,0,0:0:0:0:
428,99,242058,1,2,0:0:0:0:
405,133,242144,1,0,0:0:0:0:
398,172,242229,1,0,0:0:0:0:
413,209,242315,1,0,0:0:0:0:
427,247,242401,2,0,P|430:269|428:291,1,45,8|0,0:0|0:0,0:0:0:0:
505,335,242572,2,0,P|492:353|474:367,1,45,2|0,0:0|0:0,0:0:0:0:
348,356,242744,5,0,3:0:0:0:
300,352,242829,1,0,0:0:0:0:
252,348,242915,1,0,3:0:0:0:
204,344,243001,1,0,0:0:0:0:
156,340,243086,2,0,L|160:284,1,45,2|0,0:0|0:0,0:0:0:0:
171,155,243258,2,0,L|168:200,1,45,0|0,3:0|3:0,0:0:0:0:
84,236,243429,5,8,0:0:0:0:
42,217,243515,1,0,0:0:0:0:
31,173,243601,1,2,0:0:0:0:
49,132,243686,1,0,0:0:0:0:
86,107,243772,1,2,0:0:0:0:
135,114,243858,1,0,0:0:0:0:
171,155,243944,1,2,0:0:0:0:
227,169,244029,1,0,0:0:0:0:
293,161,244115,6,0,P|341:50|229:106,1,315,0|0,3:0|0:0,0:0:0:0:
266,228,244801,2,0,B|288:320|288:320|236:356|236:356|184:320|184:320|200:228,1,315,8|0,0:0|0:0,0:0:0:0:
229,101,245486,2,0,P|155:113|86:88,1,135,0|0,3:0|0:0,0:0:0:0:
28,132,245829,2,0,L|24:42,2,90,2|0|8,0:0|0:0|0:0,0:0:0:0:
36,260,246344,1,0,3:0:0:0:
172,348,246515,5,2,0:0:0:0:
197,357,246601,1,0,0:0:0:0:
223,359,246686,1,0,0:0:0:0:
248,348,246772,1,0,0:0:0:0:
312,285,246858,5,0,3:0:0:0:
337,276,246944,1,0,0:0:0:0:
363,274,247029,1,0,0:0:0:0:
388,285,247115,1,0,0:0:0:0:
292,304,247201,6,0,B|284:272|284:272|292:244|292:244|284:216|284:216|292:188|292:188|284:164|284:164|296:120,1,180,2|8,0:0|0:0,0:0:0:0:
160,328,247715,6,0,B|152:296|152:296|160:272|160:272|152:244|152:244|160:212|160:212|152:188|152:188|160:160|160:160|152:132|152:132|162:106,1,225,0|0,3:0|0:0,0:0:0:0:
388,28,248230,5,0,3:0:0:0:
368,48,248315,1,2,0:0:0:0:
356,76,248401,1,2,0:0:0:0:
348,104,248487,1,2,0:0:0:0:
344,132,248573,1,2,0:0:0:0:
348,160,248658,1,2,0:0:0:0:
356,188,248744,1,2,0:0:0:0:
368,216,248829,1,0,3:0:0:0:
388,232,248915,6,0,P|344:236|316:256,1,72,8|0,0:0|0:0,0:0:0:0:
128,364,249258,2,0,P|172:364|204:348,1,72,2|0,0:0|0:0,0:0:0:0:
192,136,249601,6,0,P|187:54|268:41,2,180,0|2|8,3:0|0:0|0:0,0:0:0:0:
316,156,250458,1,2,0:0:0:0:
281,286,250629,6,0,B|280:324|308:348|308:348|344:272|304:208|304:208|316:184|316:156,1,270,0|0,3:0|0:0,0:0:0:0:
296,32,251229,6,0,L|313:45,1,22.5,8|0,0:0|0:0,0:0:0:0:
348,72,251315,1,0,3:0:0:0:
384,88,251401,1,2,0:0:0:0:
424,88,251487,1,2,0:0:0:0:
454,60,251573,1,2,0:0:0:0:
471,24,251658,2,0,B|449:118|479:232|479:232|434:191|372:198,1,315,8|0,0:0|0:0,0:0:0:0:
284,252,252344,6,0,L|289:348,1,90,0|0,3:0|0:0,0:0:0:0:
383,197,252686,2,0,L|378:107,1,90,2|0,0:0|0:0,0:0:0:0:
272,20,253030,1,8,0:0:0:0:
104,84,253201,2,0,P|136:156|276:156,1,225,2|0,0:0|0:0,0:0:0:0:
378,106,253715,6,0,P|316:228|200:260,1,225,0|0,3:0|0:0,0:0:0:0:
88,232,254229,1,2,0:0:0:0:
116,36,254401,1,8,0:0:0:0:
276,169,254573,5,0,3:0:0:0:
276,169,254658,1,0,3:0:0:0:
276,169,254744,2,0,L|204:163,1,45,2|0,0:0|0:0,0:0:0:0:
88,232,254915,2,0,L|132:230,1,45,2|0,0:0|0:0,0:0:0:0:
296,328,255086,6,0,B|204:332|204:332|131:306|131:306|48:309,1,252,0|0,3:0|0:0,0:0:0:0:
216,264,255772,6,0,P|272:184|192:88,1,225,8|0,0:0|0:0,0:0:0:0:
100,52,256286,2,0,P|220:92|336:44,1,225,0|0,3:0|0:0,0:0:0:0:
480,32,256801,2,0,P|391:26|310:63,1,180,0|8,3:0|0:0,0:0:0:0:
392,256,257315,2,0,B|340:292|340:292|368:192|342:133,1,225,0|0,3:0|0:0,0:0:0:0:
440,128,257829,6,0,P|415:66|356:36,1,135,0|0,3:0|0:0,0:0:0:0:
268,132,258172,6,0,B|244:212|244:212|268:293,1,168.75,2|0,0:0|0:0,0:0:0:0:
324,368,258515,1,8,0:0:0:0:
288,364,258601,1,2,0:0:0:0:
252,360,258686,1,2,0:0:0:0:
216,356,258772,1,2,0:0:0:0:
180,352,258858,2,0,B|136:348|136:348|76:372,1,90,2|2,0:0|0:0,0:0:0:0:
168,264,259201,6,0,B|184:212|172:176|152:84|32:96|56:240|208:176|248:116,1,315,0|0,3:0|3:0,0:0:0:0:
284,48,259886,6,0,P|342:162|332:16,1,393.75,8|0,0:0|0:0,0:0:0:0:
240,64,260572,6,0,P|184:76|80:56,1,135,0|0,3:0|0:0,0:0:0:0:
12,148,260915,2,0,P|68:136|172:156,1,135,0|0,3:0|0:0,0:0:0:0:
224,220,261258,2,0,P|232:264|227:308,1,90,8|2,0:0|0:0,0:0:0:0:
236,140,261601,2,0,P|276:159|301:199,1,90,2|2,0:0|0:0,0:0:0:0:
248,60,261944,2,0,L|180:68,2,60,2|0|2,0:0|0:0|0:0,0:0:0:0:
412,36,262286,1,0,3:0:0:0:
188,67,262458,1,0,3:0:0:0:
392,180,262629,2,0,P|412:252|336:332,1,180,8|2,0:0|0:0,0:0:0:0:
73,240,263315,5,0,3:0:0:0:
110,222,263401,1,0,0:0:0:0:
150,225,263486,1,2,0:0:0:0:
183,249,263572,1,0,0:0:0:0:
200,286,263658,1,0,0:0:0:0:
196,326,263744,1,0,0:0:0:0:
108,372,263829,5,0,3:0:0:0:
72,350,263915,1,0,0:0:0:0:
51,315,264001,1,2,0:0:0:0:
52,274,264087,1,0,0:0:0:0:
73,240,264172,1,0,0:0:0:0:
110,222,264258,1,0,0:0:0:0:
200,286,264344,6,0,L|258:283,1,45,8|0,0:0|0:0,0:0:0:0:
384,272,264515,2,0,L|339:274,1,45,2|0,0:0|0:0,0:0:0:0:
263,191,264686,5,0,3:0:0:0:
242,155,264772,1,0,0:0:0:0:
247,115,264857,1,0,3:0:0:0:
279,88,264943,1,0,0:0:0:0:
318,87,265029,2,0,P|340:94|363:94,1,45,2|0,0:0|0:0,0:0:0:0:
463,15,265201,2,0,P|446:30|435:49,1,45,0|0,3:0|3:0,0:0:0:0:
452,173,265372,5,8,0:0:0:0:
467,210,265458,1,0,0:0:0:0:
464,255,265544,1,2,0:0:0:0:
448,297,265630,1,0,0:0:0:0:
402,316,265715,1,2,0:0:0:0:
348,307,265802,1,0,0:0:0:0:
309,269,265886,1,2,0:0:0:0:
309,205,265973,1,0,0:0:0:0:
350,152,266058,6,0,P|280:193|159:162,1,180,0|0,3:0|3:0,0:0:0:0:
92,84,266572,1,2,0:0:0:0:
60,232,266744,2,0,L|64:280,1,45,8|2,0:0|0:0,0:0:0:0:
136,360,266915,2,0,L|132:315,1,45,0|2,0:0|0:0,0:0:0:0:
185,180,267086,5,2,0:0:0:0:
219,200,267172,1,0,0:0:0:0:
242,233,267258,1,2,0:0:0:0:
256,271,267344,1,0,0:0:0:0:
308,352,267429,5,2,0:0:0:0:
331,319,267515,1,0,0:0:0:0:
365,299,267601,1,2,0:0:0:0:
405,296,267686,1,0,0:0:0:0:
439,316,267772,6,0,P|510:283|446:247,1,180,0|8,3:0|0:0,0:0:0:0:
256,271,268286,2,0,B|256:72|256:72|228:102,1,225,0|8,3:0|0:0,0:0:0:0:
82,245,268801,6,0,P|62:249|34:245,1,45,0|2,3:0|0:0,0:0:0:0:
162,293,268972,2,0,P|150:309|128:326,1,45,2|2,0:0|0:0,0:0:0:0:
256,271,269144,2,0,P|260:293|257:315,1,45,2|2,0:0|0:0,0:0:0:0:
302,190,269315,2,0,P|320:202|334:220,1,45,2|2,0:0|0:0,0:0:0:0:
237,129,269486,1,8,0:0:0:0:
272,119,269572,1,0,0:0:0:0:
291,89,269658,1,0,0:0:0:0:
283,53,269744,1,0,0:0:0:0:
253,35,269829,5,0,3:0:0:0:
217,42,269915,1,0,0:0:0:0:
198,73,270001,1,0,0:0:0:0:
206,108,270086,1,0,0:0:0:0:
223,139,270172,1,2,0:0:0:0:
234,173,270258,1,0,0:0:0:0:
244,207,270344,1,0,0:0:0:0:
244,243,270430,1,0,0:0:0:0:
226,274,270515,1,2,0:0:0:0:
192,286,270601,1,0,0:0:0:0:
158,275,270686,1,0,0:0:0:0:
143,241,270772,1,0,3:0:0:0:
153,206,270858,6,0,P|140:184|136:156,1,45,8|2,0:0|0:0,0:0:0:0:
32,108,271029,2,0,P|51:118|83:118,1,45,2|2,0:0|0:0,0:0:0:0:
172,56,271201,2,0,L|140:96,1,45,2|2,0:0|0:0,0:0:0:0:
44,224,271372,2,0,L|72:188,1,45,2|2,0:0|0:0,0:0:0:0:
223,139,271544,6,0,B|311:123|311:123|400:138,1,180,0|2,3:0|0:0,0:0:0:0:
132,224,272229,2,0,B|88:232|88:232|44:224,1,90,8|2,0:0|0:0,0:0:0:0:
220,336,272572,6,0,B|258:334|280:348|280:348|344:304|412:320|412:320|384:348|348:341,1,270,0|0,3:0|0:0,0:0:0:0:
311,260,273173,6,0,P|322:255|333:252,1,22.5,8|0,0:0|0:0,0:0:0:0:
376,260,273258,1,0,3:0:0:0:
380,220,273344,1,2,0:0:0:0:
384,180,273430,1,2,0:0:0:0:
388,140,273515,1,2,0:0:0:0:
392,96,273601,6,0,B|324:76|304:20|304:20|264:88|192:84,1,252,8|0,0:0|0:0,0:0:0:0:
128,64,274287,5,0,3:0:0:0:
216,220,274458,1,0,0:0:0:0:
40,192,274629,2,0,B|36:4,1,180,2|8,0:0|0:0,0:0:0:0:
194,108,275144,2,0,P|232:176|168:304,1,225,2|0,0:0|0:0,0:0:0:0:
40,282,275658,2,0,L|40:192,1,90,0|0,3:0|0:0,0:0:0:0:
80,72,276001,1,2,0:0:0:0:
140,196,276172,2,0,L|140:164,1,22.5,0|0,3:0|3:0,0:0:0:0:
160,128,276258,5,0,3:0:0:0:
194,108,276344,1,2,0:0:0:0:
233,111,276429,1,0,0:0:0:0:
275,125,276515,1,2,0:0:0:0:
302,166,276601,1,0,0:0:0:0:
305,219,276686,1,2,0:0:0:0:
280,272,276772,1,0,0:0:0:0:
224,301,276858,1,2,0:0:0:0:
158,284,276944,1,0,0:0:0:0:
123,220,277030,5,4,3:2:0:0:
275,125,277201,1,0,0:0:0:0:
110,55,277372,2,0,P|86:139|123:220,1,180,2|8,0:0|0:0,0:0:0:0:
389,220,277886,2,0,P|425:139|401:55,1,180,2|2,0:0|0:0,0:0:0:0:
275,125,278315,1,8,0:0:0:0:
275,125,278401,2,0,B|280:308,1,180,0|0,3:0|0:0,0:0:0:0:
389,220,278915,1,0,3:0:0:0:
204,232,279086,2,0,B|45:238|45:238|64:268,1,180,8|2,0:0|0:0,0:0:0:0:
128,364,279601,1,2,0:0:0:0:
204,232,279772,6,0,B|220:156|192:103|192:103|212:120|235:126,1,180,0|2,3:0|0:0,0:0:0:0:
360,120,280287,1,0,3:0:0:0:
260,12,280458,1,8,0:0:0:0:
128,80,280629,2,0,P|103:186|152:260,1,180,2|2,0:0|0:0,0:0:0:0:
264,300,281058,1,8,0:0:0:0:
264,300,281144,2,0,B|298:303|314:319|314:319|250:359|195:339,1,180,0|2,3:0|0:0,0:0:0:0:
72,312,281658,1,0,3:0:0:0:
224,216,281829,2,0,B|404:220,1,180,8|0,0:0|3:0,0:0:0:0:
476,164,282258,1,0,3:0:0:0:
478,128,282344,1,8,0:0:0:0:
478,92,282430,1,8,0:0:0:0:
478,56,282515,6,0,L|272:52,1,180,0|2,3:0|0:0,0:0:0:0:
44,48,283201,1,8,0:0:0:0:
88,164,283372,2,0,P|161:179|252:128,1,180,2|2,0:0|0:0,0:0:0:0:
302,56,283801,1,8,0:0:0:0:
302,56,283886,2,0,P|250:127|257:215,1,180,0|2,3:0|0:0,0:0:0:0:
320,324,284401,1,0,3:0:0:0:
434,184,284573,1,8,0:0:0:0:
80,248,284915,1,0,3:0:0:0:
257,215,285086,1,2,0:0:0:0:
124,80,285258,6,0,P|62:137|130:137,1,180,0|2,3:0|0:0,0:0:0:0:
420,116,285944,1,8,0:0:0:0:
288,54,286115,2,0,P|201:37|124:80,1,180,2|2,0:0|0:0,0:0:0:0:
52,176,286544,1,8,0:0:0:0:
52,176,286629,2,0,L|60:356,1,180,0|2,3:0|0:0,0:0:0:0:
212,292,287144,1,0,3:0:0:0:
52,176,287315,1,8,0:0:0:0:
324,44,287573,2,0,L|324:68,1,22.5,0|0,3:0|3:0,0:0:0:0:
308,88,287658,1,8,0:0:0:0:
282,104,287744,1,8,0:3:0:0:
252,112,287830,1,4,0:3:0:0:
223,104,287915,1,4,0:3:0:0:
197,88,288001,5,4,3:2:0:0:
84,32,288172,1,0,0:0:0:0:
136,176,288344,2,0,P|148:224|128:276,1,90,2|0,0:0|0:0,0:0:0:0:
56,112,288686,1,8,0:0:0:0:
212,176,288858,2,0,P|292:192|388:140,1,180,2|2,0:0|0:0,0:0:0:0:
452,200,289286,1,8,0:0:0:0:
452,200,289372,2,0,L|444:16,1,180,0|2,3:0|0:0,0:0:0:0:
320,96,289887,1,0,3:0:0:0:
328,276,290058,1,8,0:0:0:0:
316,8,290401,1,2,0:0:0:0:
324,184,290572,1,2,0:0:0:0:
184,68,290744,6,0,B|100:48|100:48|8:68,1,180,0|2,3:0|0:0,0:0:0:0:
260,88,291430,1,8,0:0:0:0:
164,184,291601,2,0,B|143:268|143:268|164:360,1,180,2|2,0:0|0:0,0:0:0:0:
240,360,292029,1,8,0:0:0:0:
240,360,292115,1,0,3:0:0:0:
240,184,292286,1,2,0:0:0:0:
240,152,292372,1,0,0:0:0:0:
240,120,292458,1,2,0:0:0:0:
336,24,292630,1,0,3:0:0:0:
444,156,292801,2,0,B|464:205|448:277|448:277|488:237,1,180,8|2,0:0|0:0,0:0:0:0:
296,184,293315,1,8,0:0:0:0:
268,176,293401,1,8,0:0:0:0:
240,184,293486,6,0,P|192:196|124:184,1,90,0|0,3:0|0:0,0:0:0:0:
112,312,293829,2,0,P|69:286|29:229,1,90,2|0,0:0|0:0,0:0:0:0:
60,76,294172,1,8,0:0:0:0:
152,193,294344,2,0,L|148:376,1,180,2|2,0:0|0:0,0:0:0:0:
244,364,294772,1,8,0:0:0:0:
244,364,294858,2,0,L|240:184,1,180,0|2,3:0|0:0,0:0:0:0:
152,52,295373,1,0,3:0:0:0:
328,88,295544,2,0,B|396:88|436:44|436:44|420:76|424:132,1,180,8|2,0:0|0:0,0:0:0:0:
476,236,296058,1,2,0:0:0:0:
332,364,296229,6,0,B|288:373|288:373|244:364,1,90,0|0,3:0|0:0,0:0:0:0:
288,244,296572,1,2,0:0:0:0:
508,368,296915,1,8,0:0:0:0:
418,231,297086,2,0,P|404:165|492:192,1,180,2|2,0:0|0:0,0:0:0:0:
496,256,297515,1,8,0:0:0:0:
496,256,297601,5,0,3:0:0:0:
320,220,297772,1,0,3:0:0:0:
456,40,297944,1,8,0:0:0:0:
277,56,298115,1,0,3:0:0:0:
418,231,298286,1,8,0:0:0:0:
212,136,298458,1,0,3:0:0:0:
184,124,298544,1,0,3:0:0:0:
156,112,298630,1,8,0:0:0:0:
128,100,298715,1,8,0:0:0:0:
100,112,298801,1,8,0:0:0:0:
72,124,298887,1,8,0:0:0:0:
44,136,298972,5,4,3:2:0:0:
128,372,299315,1,0,3:0:0:0:
176,256,299487,1,0,3:0:0:0:
212,136,299658,2,0,L|208:16,1,90,8|0,0:0|0:0,0:0:0:0:
228,204,300001,1,2,0:0:0:0:
253,212,300086,1,0,0:0:0:0:
279,207,300172,1,0,3:0:0:0:
303,194,300258,1,0,0:0:0:0:
320,174,300344,6,0,P|364:161|408:168,1,90,2|0,0:0|0:0,0:0:0:0:
470,277,300686,2,0,L|472:334,2,45,0|0|2,3:0|0:0|0:0,0:0:0:0:
471,131,301030,2,0,P|478:88|507:54,1,90,8|0,0:0|0:0,0:0:0:0:
388,92,301372,2,0,P|346:108|303:100,1,90,2|0,0:0|0:0,0:0:0:0:
149,37,301715,6,0,P|237:40|303:99,1,180,0|2,3:0|0:0,0:0:0:0:
348,208,302230,1,0,3:0:0:0:
208,316,302401,2,0,B|192:340|192:340|196:180,1,180,8|2,0:0|0:0,0:0:0:0:
96,84,302915,1,0,3:0:0:0:
64,196,303087,5,2,0:0:0:0:
303,100,303430,1,2,0:0:0:0:
328,89,303515,1,0,0:0:0:0:
355,84,303601,1,0,3:0:0:0:
381,89,303686,1,0,0:0:0:0:
406,100,303772,2,0,L|516:96,1,90,8|0,0:0|0:0,0:0:0:0:
364,176,304115,2,0,B|184:172,1,161.999995056153,2|0,0:0|0:0,0:0:0:0:
148,120,304458,5,0,3:0:0:0:
224,248,304630,1,0,3:0:0:0:
99,228,304801,2,0,P|95:249|100:271,2,45,2|0|0,0:0|0:0|3:0,0:0:0:0:
220,100,305144,1,8,0:0:0:0:
92,160,305315,1,0,0:0:0:0:
224,248,305487,2,0,L|220:340,1,90,2|0,0:0|3:0,0:0:0:0:
312,228,305830,5,2,0:0:0:0:
311,198,305915,1,2,0:0:0:0:
310,168,306001,1,2,0:0:0:0:
309,138,306087,1,2,0:0:0:0:
307,109,306172,2,0,B|319:53,2,45,0|0|0,3:0|0:0|0:0,0:0:0:0:
160,204,306515,1,8,0:0:0:0:
310,168,306686,1,2,0:0:0:0:
167,101,306858,1,2,0:0:0:0:
317,65,307029,1,2,0:0:0:0:
246,231,307201,5,0,3:0:0:0:
112,168,307372,2,0,P|83:99|111:35,1,135,2|0,0:0|0:0,0:0:0:0:
168,16,307715,1,0,3:0:0:0:
236,160,307886,1,8,0:0:0:0:
172,268,308058,2,0,B|165:311|165:311|172:356,1,90,2|0,0:0|0:0,0:0:0:0:
288,312,308401,1,0,3:0:0:0:
368,196,308572,5,2,0:0:0:0:
368,196,308658,1,2,0:0:0:0:
368,196,308744,2,0,B|360:96,1,90,2|0,0:0|0:0,0:0:0:0:
448,16,309086,1,0,3:0:0:0:
284,92,309258,1,8,0:0:0:0:
452,304,309601,1,2,0:0:0:0:
224,40,309944,5,0,3:0:0:0:
28,196,310287,1,0,3:0:0:0:
128,116,310459,1,0,3:0:0:0:
156,240,310630,2,0,P|155:284|135:324,1,90,8|0,0:0|0:0,0:0:0:0:
32,224,310973,1,2,0:0:0:0:
28,196,311058,1,0,0:0:0:0:
24,168,311144,1,0,3:0:0:0:
20,140,311230,1,0,0:0:0:0:
16,112,311316,6,0,L|24:12,1,90,2|0,0:0|0:0,0:0:0:0:
128,116,311658,2,0,L|124:160,2,45,0|0|2,3:0|0:0|0:0,0:0:0:0:
288,40,312002,2,0,P|332:43|380:84,1,90,8|0,0:0|0:0,0:0:0:0:
488,28,312344,2,0,P|506:69|486:131,1,90,2|0,0:0|0:0,0:0:0:0:
436,252,312687,6,0,B|412:165|412:165|436:79,1,180,0|2,3:0|0:0,0:0:0:0:
500,188,313202,1,0,3:0:0:0:
380,304,313373,2,0,P|284:332|204:300,1,180,8|2,0:0|0:0,0:0:0:0:
132,185,313887,1,0,3:0:0:0:
276,178,314059,5,2,0:0:0:0:
33,286,314401,1,2,0:0:0:0:
36,258,314486,1,0,0:0:0:0:
38,230,314572,1,0,3:0:0:0:
41,202,314657,1,0,0:0:0:0:
43,174,314743,2,0,L|137:186,1,90,8|0,0:0|0:0,0:0:0:0:
248,84,315086,2,0,B|78:106,1,161.999995056153,2|0,0:0|0:0,0:0:0:0:
43,174,315430,5,0,3:0:0:0:
118,24,315601,1,0,3:0:0:0:
205,169,315773,2,0,L|249:163,2,45,2|0|0,0:0|0:0|3:0,0:0:0:0:
328,32,316116,1,8,0:0:0:0:
428,120,316287,1,0,0:0:0:0:
328,208,316459,2,0,P|316:252|332:300,1,90,2|0,0:0|3:0,0:0:0:0:
484,364,316802,5,2,0:0:0:0:
456,360,316887,1,2,0:0:0:0:
428,356,316973,1,2,0:0:0:0:
400,352,317059,1,2,0:0:0:0:
372,348,317144,2,0,P|352:360|314:360,2,45,0|0|0,3:0|0:0|0:0,0:0:0:0:
476,200,317487,1,8,0:0:0:0:
328,208,317658,1,2,0:0:0:0:
428,120,317829,1,2,0:0:0:0:
280,128,318000,1,2,0:0:0:0:
376,288,318173,5,0,3:0:0:0:
248,196,318344,2,0,B|252:62,1,135,2|0,0:0|0:0,0:0:0:0:
308,8,318687,1,0,3:0:0:0:
176,100,318859,1,8,0:0:0:0:
320,156,319030,2,0,B|316:245,1,90,2|0,0:0|0:0,0:0:0:0:
212,344,319373,1,0,3:0:0:0:
100,248,319544,5,2,0:0:0:0:
100,248,319630,1,2,0:0:0:0:
100,248,319715,2,0,P|91:204|105:162,1,90,2|0,0:0|0:0,0:0:0:0:
224,52,320058,5,0,3:0:0:0:
320,156,320230,1,2,0:0:0:0:
105,162,320573,1,2,0:0:0:0:
352,28,320915,5,4,0:1:0:0:
