osu file format v14

[General]
AudioFilename: audio.mp3
AudioLeadIn: 0
PreviewTime: 35616
Countdown: 0
SampleSet: Normal
StackLeniency: 0.7
Mode: 1
LetterboxInBreaks: 0
WidescreenStoryboard: 1

[Editor]
DistanceSpacing: 0.2
BeatDivisor: 2
GridSize: 32
TimelineZoom: 1.6

[Metadata]
Title:Super AHA AHA Deluxe
TitleUnicode:Super AHA AHA Deluxe
Artist:Au
ArtistUnicode:Au
Creator:Karee Pan
Version:Futsuu
Source:Kirby Sky High
Tags:Mad, Otomad, Kirby, Sky High, Lucky Star, Konata Izumi, Aya Hirano, Ayyri, eiri-
BeatmapID:1698042
BeatmapSetID:809218

[Difficulty]
HPDrainRate:7
CircleSize:5
OverallDifficulty:3
ApproachRate:5
SliderMultiplier:1.4
SliderTickRate:1

[Events]
//Background and Video events
0,0,"bg.jpg",0,0
//Break Periods
//Storyboard Layer 0 (Background)
//Storyboard Layer 1 (Fail)
//Storyboard Layer 2 (Pass)
//Storyboard Layer 3 (Foreground)
//Storyboard Sound Samples

[TimingPoints]
101,341.491178144565,4,1,0,60,1,0
65667,348.837209302326,4,1,0,60,1,0

[HitObjects]
256,192,101,5,8,0:0:0:0:
256,160,442,1,0,0:0:0:0:
256,192,783,1,8,0:0:0:0:
256,192,1466,1,0,0:0:0:0:
256,192,1808,1,0,0:0:0:0:
256,192,2149,1,8,0:0:0:0:
256,192,2832,1,8,0:0:0:0:
256,192,3174,1,8,0:0:0:0:
256,192,3515,1,0,0:0:0:0:
256,192,3857,1,8,0:0:0:0:
256,192,4198,1,0,0:0:0:0:
256,192,4881,1,8,0:0:0:0:
249,185,5564,5,8,0:0:0:0:
248,178,5906,1,0,0:0:0:0:
256,192,6247,1,8,0:0:0:0:
226,198,6418,1,0,0:0:0:0:
232,188,6589,1,8,0:0:0:0:
248,178,6930,1,0,0:0:0:0:
232,188,7272,1,8,0:0:0:0:
219,197,7613,1,0,0:0:0:0:
232,188,8296,1,8,0:0:0:0:
248,178,8638,1,0,0:0:0:0:
248,178,8979,1,8,0:0:0:0:
248,178,9150,1,0,0:0:0:0:
232,188,9321,1,8,0:0:0:0:
248,178,9662,1,0,0:0:0:0:
230,185,10004,1,8,0:0:0:0:
230,185,10345,1,0,0:0:0:0:
214,174,11028,1,8,0:0:0:0:
212,168,11370,1,8,0:0:0:0:
248,178,11711,1,0,0:0:0:0:
212,168,11882,1,8,0:0:0:0:
248,178,12053,1,0,0:0:0:0:
248,178,12394,1,0,0:0:0:0:
212,168,12736,1,8,0:0:0:0:
212,168,13077,1,0,0:0:0:0:
248,178,13760,1,0,0:0:0:0:
211,163,14102,1,8,0:0:0:0:
248,178,14443,1,0,0:0:0:0:
211,163,14614,1,8,0:0:0:0:
248,178,14785,1,0,0:0:0:0:
211,163,15126,1,8,0:0:0:0:
211,163,15468,1,8,0:0:0:0:
248,178,15809,1,0,0:0:0:0:
211,163,16492,1,8,0:0:0:0:
103,184,16834,1,0,0:0:0:0:
250,182,17004,1,8,0:0:0:0:
250,182,17175,1,0,0:0:0:0:
223,166,17517,1,12,0:0:0:0:
250,182,17858,1,0,0:0:0:0:
218,175,18200,1,8,0:0:0:0:
250,182,18370,1,8,0:0:0:0:
250,182,18541,1,0,0:0:0:0:
223,166,18883,1,12,0:0:0:0:
210,157,19224,1,8,0:0:0:0:
219,166,19565,1,0,0:0:0:0:
232,143,19736,1,8,0:0:0:0:
250,182,19907,1,0,0:0:0:0:
221,167,20248,1,12,0:0:0:0:
250,182,20590,1,0,0:0:0:0:
214,188,20931,1,8,0:0:0:0:
212,154,21102,1,8,0:0:0:0:
250,182,21273,1,0,0:0:0:0:
223,166,21614,1,12,0:0:0:0:
219,186,21956,1,8,0:0:0:0:
229,124,22297,1,0,0:0:0:0:
219,186,22639,1,8,0:0:0:0:
243,133,23322,1,0,0:0:0:0:
226,133,23663,1,0,0:0:0:0:
219,186,24005,1,8,0:0:0:0:
226,133,24688,1,0,0:0:0:0:
223,184,25029,1,8,0:0:0:0:
232,126,25371,1,0,0:0:0:0:
232,124,25542,1,0,0:0:0:0:
223,184,25712,1,8,0:0:0:0:
228,168,26054,1,8,0:0:0:0:
223,184,26395,1,0,0:0:0:0:
228,168,26737,1,8,0:0:0:0:
238,126,27420,1,0,0:0:0:0:
228,168,28103,1,8,0:0:0:0:
234,142,28786,1,0,0:0:0:0:
234,142,29127,1,0,0:0:0:0:
228,168,29469,1,8,0:0:0:0:
228,144,29810,1,0,0:0:0:0:
228,168,30152,1,8,0:0:0:0:
228,168,30835,1,8,0:0:0:0:
234,142,31518,1,0,0:0:0:0:
234,142,31859,1,8,0:0:0:0:
221,140,32201,1,0,0:0:0:0:
234,142,32884,1,0,0:0:0:0:
234,142,33567,1,8,0:0:0:0:
228,168,34250,1,0,0:0:0:0:
228,168,34933,1,8,0:0:0:0:
245,149,35616,1,0,0:0:0:0:
228,168,35957,1,8,0:0:0:0:
233,147,36299,1,0,0:0:0:0:
233,147,36469,1,0,0:0:0:0:
235,160,36640,1,8,0:0:0:0:
238,151,36982,1,0,0:0:0:0:
228,168,37323,1,8,0:0:0:0:
243,144,37665,1,0,0:0:0:0:
168,108,38348,1,8,0:0:0:0:
168,108,38689,1,8,0:0:0:0:
168,108,39030,1,8,0:0:0:0:
222,164,39201,1,0,0:0:0:0:
222,164,39372,1,8,0:0:0:0:
234,160,39713,1,0,0:0:0:0:
234,158,40055,1,8,0:0:0:0:
234,160,40396,1,0,0:0:0:0:
238,151,41079,1,8,0:0:0:0:
239,155,41421,1,8,0:0:0:0:
238,151,41762,1,8,0:0:0:0:
238,151,41933,1,0,0:0:0:0:
238,151,42104,1,0,0:0:0:0:
239,155,42445,1,0,0:0:0:0:
243,153,42787,1,8,0:0:0:0:
243,153,43128,1,0,0:0:0:0:
243,153,43811,1,0,0:0:0:0:
243,153,44153,1,0,0:0:0:0:
243,153,44494,1,0,0:0:0:0:
243,153,44665,5,8,0:0:0:0:
251,173,44836,1,0,0:0:0:0:
243,153,45177,1,8,0:0:0:0:
243,153,45519,1,8,0:0:0:0:
226,171,45860,1,0,0:0:0:0:
226,171,46543,1,0,0:0:0:0:
226,171,46885,1,8,0:0:0:0:
226,171,47226,1,0,0:0:0:0:
222,154,47397,1,0,0:0:0:0:
232,166,47568,1,8,0:0:0:0:
226,171,47909,1,0,0:0:0:0:
224,163,48251,1,8,0:0:0:0:
226,171,48592,1,0,0:0:0:0:
245,228,48763,1,8,0:0:0:0:
245,228,48934,1,0,0:0:0:0:
226,171,49275,1,0,0:0:0:0:
226,171,49617,1,8,0:0:0:0:
226,171,49958,1,0,0:0:0:0:
226,171,50129,1,0,0:0:0:0:
226,171,50300,1,8,0:0:0:0:
226,171,50641,1,0,0:0:0:0:
252,206,50983,1,0,0:0:0:0:
226,171,51324,1,12,0:0:0:0:
226,163,52007,1,8,0:0:0:0:
226,163,52349,1,8,0:0:0:0:
226,163,52690,1,0,0:0:0:0:
226,163,52861,1,0,0:0:0:0:
226,163,53032,1,8,0:0:0:0:
235,200,53373,1,0,0:0:0:0:
235,200,53715,1,0,0:0:0:0:
235,200,54056,1,8,0:0:0:0:
235,200,54227,1,0,0:0:0:0:
235,200,54398,1,8,0:0:0:0:
256,192,54739,1,8,0:0:0:0:
235,200,55081,1,0,0:0:0:0:
235,200,55422,1,8,0:0:0:0:
256,192,55764,1,0,0:0:0:0:
235,200,56105,1,0,0:0:0:0:
256,192,56276,1,8,0:0:0:0:
235,200,56447,1,0,0:0:0:0:
235,200,56788,1,0,0:0:0:0:
235,200,57471,1,8,0:0:0:0:
235,200,58154,1,8,0:0:0:0:
235,200,58837,1,0,0:0:0:0:
235,200,59178,1,8,0:0:0:0:
235,200,59520,1,0,0:0:0:0:
235,200,60203,1,8,0:0:0:0:
235,200,60886,1,8,0:0:0:0:
235,200,61569,1,0,0:0:0:0:
235,200,61910,1,8,0:0:0:0:
235,200,62252,1,0,0:0:0:0:
243,206,62593,1,8,0:0:0:0:
224,224,62764,1,0,0:0:0:0:
243,206,62935,1,8,0:0:0:0:
243,206,63276,1,8,0:0:0:0:
243,206,63618,1,8,0:0:0:0:
243,206,63789,1,0,0:0:0:0:
243,206,63959,1,8,0:0:0:0:
243,206,64301,1,0,0:0:0:0:
243,206,64642,1,0,0:0:0:0:
224,224,64813,1,0,0:0:0:0:
243,206,64984,1,8,0:0:0:0:
243,206,65667,1,0,0:0:0:0:
243,206,66015,1,8,0:0:0:0:
243,206,66364,1,8,0:0:0:0:
243,206,67062,1,0,0:0:0:0:
243,206,67411,1,8,0:0:0:0:
243,206,67760,1,0,0:0:0:0:
243,206,68457,1,0,0:0:0:0:
243,206,68806,1,8,0:0:0:0:
243,206,69155,1,8,0:0:0:0:
290,166,69504,1,0,0:0:0:0:
243,206,69853,1,8,0:0:0:0:
243,206,70201,1,8,0:0:0:0:
243,206,70550,1,0,0:0:0:0:
243,206,70899,1,12,0:0:0:0:
