osu file format v14

[General]
AudioFilename: attom-cruise.mp3
AudioLeadIn: 0
PreviewTime: 96051
Countdown: 0
SampleSet: Soft
StackLeniency: 0.7
Mode: 0
LetterboxInBreaks: 0
WidescreenStoryboard: 1

[Editor]
Bookmarks: 4622,22907,41194,59479,77765,96051,114336,132622,150907,169194
DistanceSpacing: 1.4
BeatDivisor: 4
GridSize: 4
TimelineZoom: 1

[Metadata]
Title:Cruise
TitleUnicode:Cruise
Artist:Attom
ArtistUnicode:Attom
Creator:[ Argon ]
Version:Hard
Source:
Tags:chill house
BeatmapID:817443
BeatmapSetID:373204

[Difficulty]
HPDrainRate:6
CircleSize:3
OverallDifficulty:6
ApproachRate:7
SliderMultiplier:2.2
SliderTickRate:2

[Events]
//Background and Video events
0,0,"bg.jpg",0,0
//Break Periods
2,59679,74579
//Storyboard Layer 0 (Background)
//Storyboard Layer 1 (Fail)
//Storyboard Layer 2 (Pass)
//Storyboard Layer 3 (Foreground)
//Storyboard Sound Samples

[TimingPoints]
4622,571.428571428571,4,3,1,80,1,0
22907,-100,4,3,1,80,0,0
25192,-100,4,3,1,60,0,0
27478,-100,4,3,1,80,0,0
29763,-100,4,3,1,60,0,0
32049,-100,4,3,1,80,0,0
34335,-100,4,3,1,60,0,0
36620,-100,4,3,1,80,0,0
38906,-100,4,3,1,60,0,0
41192,-100,4,3,1,80,0,0
43478,-100,4,3,1,60,0,0
45763,-100,4,3,1,80,0,0
48049,-100,4,3,1,60,0,0
50335,-100,4,3,1,80,0,0
52620,-100,4,3,1,60,0,0
54906,-100,4,3,1,80,0,0
57192,-100,4,3,1,60,0,0
59479,-100,4,3,1,60,0,0
75479,-133.333333333333,4,2,1,40,0,0
77764,-200,4,2,1,50,0,0
80049,-200,4,2,1,60,0,0
82335,-200,4,2,1,50,0,0
84620,-200,4,2,1,40,0,0
86906,-200,4,2,1,50,0,0
89192,-200,4,2,1,60,0,0
91478,-200,4,2,1,50,0,0
93763,-200,4,2,1,40,0,0
96050,-100,4,3,1,80,0,0
98335,-100,4,3,1,60,0,0
100620,-100,4,3,1,80,0,0
102906,-100,4,3,1,60,0,0
105192,-100,4,3,1,80,0,0
107478,-100,4,3,1,60,0,0
109763,-100,4,3,1,80,0,0
112049,-100,4,3,1,60,0,0
114335,-100,4,3,1,80,0,0
116620,-100,4,3,1,60,0,0
118907,-100,4,3,1,80,0,0
121192,-100,4,3,1,60,0,0
123478,-100,4,3,1,80,0,0
125763,-100,4,3,1,60,0,0
128049,-100,4,3,1,80,0,0
130335,-100,4,3,1,60,0,0
132621,-111.111111111111,4,3,1,80,0,0
133192,-111.111111111111,4,3,1,60,0,0
137192,-111.111111111111,4,3,1,40,0,0
140620,-111.111111111111,4,3,1,60,0,0
141763,-111.111111111111,4,3,1,80,0,0
142335,-111.111111111111,4,3,1,60,0,0
146335,-111.111111111111,4,3,1,40,0,0
149763,-111.111111111111,4,3,1,60,0,0
150907,-133.333333333333,4,2,1,60,0,0
151478,-133.333333333333,4,2,1,40,0,0
153192,-133.333333333333,4,2,1,35,0,0
155478,-133.333333333333,4,2,1,30,0,0
157763,-133.333333333333,4,2,1,25,0,0
160049,-133.333333333333,4,2,1,20,0,0
162335,-133.333333333333,4,2,1,15,0,0
164620,-133.333333333333,4,2,1,10,0,0
166906,-133.333333333333,4,2,1,5,0,0

[Colours]
Combo1 : 255,51,51
Combo2 : 128,128,255
Combo3 : 0,64,128
Combo4 : 255,176,138
Combo5 : 255,99,23

[HitObjects]
56,244,22907,6,0,P|80:292|128:332,1,110,6|0,1:3|0:0,0:0:0:0:
184,212,23479,1,10,0:0:0:0:
292,296,23764,1,0,0:0:0:0:
292,296,24050,2,0,P|284:192|328:116,2,165,2|2|2,0:0|0:0|0:0,0:0:0:0:
428,228,25193,5,4,1:3:0:0:
392,104,25479,1,0,0:0:0:0:
380,72,25621,1,0,0:0:0:0:
368,40,25764,2,0,P|300:44|252:80,1,110,10|2,0:0|0:0,0:0:0:0:
132,76,26336,2,0,P|236:120|272:180,1,165,2|2,1:3|0:0,0:0:0:0:
276,192,26907,2,0,P|327:162|399:157,1,110,10|2,0:0|0:0,0:0:0:0:
380,336,27479,53,6,1:3:0:0:
260,364,27764,1,0,0:0:0:0:
228,352,27907,1,2,0:0:0:0:
200,332,28050,2,0,P|180:288|204:196,1,110,8|2,0:0|0:0,0:0:0:0:
240,84,28621,1,2,1:3:0:0:
296,204,28907,1,0,0:0:0:0:
308,236,29050,1,2,0:0:0:0:
310,270,29193,2,0,P|294:326|242:374,1,110,8|2,0:0|0:0,0:0:0:0:
160,252,29764,6,0,P|104:200|96:88,2,165,6|2|2,1:3|0:0|0:0,0:0:0:0:
216,136,30907,1,2,1:3:0:0:
352,100,31193,1,0,0:0:0:0:
360,132,31336,1,0,0:0:0:0:
348,164,31479,2,0,P|338:231|392:285,1,110,10|2,0:0|0:0,0:0:0:0:
184,296,32050,53,6,1:3:0:0:
100,192,32336,1,0,0:0:0:0:
254,189,32621,1,10,0:0:0:0:
168,88,32907,1,0,0:0:0:0:
324,80,33193,2,0,P|380:144|368:248,1,165,2|2,1:3|0:0,0:0:0:0:
368,252,33764,2,0,B|256:284,1,110,8|2,0:0|0:0,0:0:0:0:
240,128,34336,5,4,1:3:0:0:
108,151,34621,1,0,0:0:0:0:
116,183,34764,1,0,0:0:0:0:
131,210,34907,2,0,P|168:243|236:263,1,110,10|2,0:0|0:0,0:0:0:0:
348,315,35479,2,0,P|244:315|160:367,1,165,2|2,1:3|0:0,0:0:0:0:
160,355,36050,2,0,P|116:319|48:307,1,110,10|2,0:0|0:0,0:0:0:0:
156,152,36621,54,0,B|228:184|284:160|284:160|332:200,1,165,6|2,1:3|0:0,0:0:0:0:
337,205,37193,1,8,0:0:0:0:
372,100,37479,1,2,0:0:0:0:
196,88,37764,2,0,P|156:160|208:248,1,165,2|2,1:3|0:0,0:0:0:0:
208,252,38336,1,8,0:0:0:0:
308,288,38621,1,2,0:0:0:0:
248,164,38907,6,0,P|160:172|76:252,2,165,6|2|2,1:3|0:0|0:0,0:0:0:0:
380,176,40050,1,2,0:0:0:0:
352,68,40336,1,0,0:0:0:0:
320,60,40479,1,0,0:0:0:0:
288,68,40621,2,0,P|240:76|160:28,1,110,8|0,0:0|0:0,0:0:0:0:
60,180,41193,54,0,P|104:188|156:240,1,110,6|0,1:3|0:0,0:0:0:0:
224,340,41764,1,10,0:0:0:0:
296,256,42050,1,0,0:0:0:0:
420,216,42336,2,0,P|448:152|444:108,1,110,2|0,1:3|0:0,0:0:0:0:
338,141,42907,1,2,0:0:0:0:
312,164,43050,1,0,0:0:0:0:
280,172,43193,1,2,0:0:0:0:
172,112,43479,5,0,0:0:0:0:
148,132,43621,1,0,0:0:0:0:
132,160,43764,2,0,P|108:216|124:288,2,110,0|10|2,0:0|0:0|0:0,0:0:0:0:
232,68,44621,1,2,0:0:0:0:
340,76,44907,1,0,0:0:0:0:
372,85,45050,1,2,0:0:0:0:
394,107,45193,2,0,P|423:151|423:205,1,110,2|2,0:0|0:0,0:0:0:0:
272,300,45764,54,0,P|216:276|144:288,1,110,6|0,1:3|0:0,0:0:0:0:
136,288,46193,1,2,0:0:0:0:
108,304,46336,1,0,0:0:0:0:
12,204,46621,1,2,0:0:0:0:
148,132,46907,2,0,P|208:164|268:156,1,110,2|0,0:0|0:0,0:0:0:0:
280,156,47336,1,2,0:0:0:0:
308,144,47479,1,0,0:0:0:0:
400,52,47764,1,2,0:0:0:0:
492,176,48050,6,0,B|492:208|472:240|420:248|420:248|384:296,1,165,6|6,1:3|0:3,0:0:0:0:
368,316,48621,1,0,0:0:0:0:
236,300,48907,1,2,0:0:0:0:
220,272,49050,1,0,0:0:0:0:
216,240,49193,1,2,0:0:0:0:
192,124,49479,1,0,0:0:0:0:
162,105,49621,1,0,0:0:0:0:
128,104,49764,2,0,P|58:129|31:183,1,110,10|2,0:0|0:0,0:0:0:0:
60,332,50336,54,0,P|108:364|160:372,2,110,6|0|10,1:3|0:0|0:0,0:0:0:0:
44,200,51193,1,0,0:0:0:0:
164,144,51479,1,2,0:0:0:0:
260,236,51764,2,0,P|324:220|385:236,1,110,0|10,0:0|0:0,0:0:0:0:
396,240,52193,1,0,0:0:0:0:
428,252,52336,1,2,0:0:0:0:
460,104,52621,5,0,0:0:0:0:
428,112,52764,1,0,0:0:0:0:
396,116,52907,2,0,P|340:108|276:44,2,110,0|10|2,0:0|0:0|0:0,0:0:0:0:
380,8,53764,1,2,0:0:0:0:
297,77,54050,1,0,0:0:0:0:
268,96,54193,1,2,0:0:0:0:
236,104,54336,1,2,0:0:0:0:
128,84,54621,1,2,0:0:0:0:
112,248,54907,54,0,P|132:304|228:344,1,165,2|2,0:0|0:0,0:0:0:0:
256,340,55479,1,0,0:0:0:0:
364,268,55764,1,2,0:0:0:0:
392,140,56050,2,0,P|332:100|224:116,1,165,2|2,0:0|0:0,0:0:0:0:
216,128,56621,1,0,0:0:0:0:
296,232,56907,1,2,0:0:0:0:
140,240,57193,6,0,P|88:172|88:88,2,165,6|2|10,1:3|0:0|0:0,0:0:0:0:
252,168,58336,2,0,P|268:276|228:336,1,165,2|0,0:0|0:0,0:0:0:0:
212,332,58907,2,0,P|144:344|100:392,1,110
32,264,59479,37,0,0:0:0:0:
264,100,75479,38,0,P|304:68|360:68,1,82.5000031471254
340,160,76050,2,0,P|300:192|248:192,1,82.5000031471254
172,208,76621,2,0,P|188:252|226:287,2,82.5000031471254
272,196,77479,1,0,0:0:0:0:
316,72,77764,38,0,P|365:42|444:43,1,110,4|8,0:0|0:0,0:0:0:0:
406,166,78907,1,4,0:0:0:0:
328,272,79479,1,8,0:0:0:0:
204,228,80050,2,0,P|156:192|136:132,2,110,4|8|4,0:0|0:0|0:0,0:0:0:0:
264,112,81764,1,8,0:0:0:0:
148,48,82336,22,0,P|91:52|32:92,1,110,4|8,0:0|0:0,0:0:0:0:
120,188,83479,2,0,P|76:236|60:300,1,110,4|8,0:0|0:0,0:0:0:0:
192,300,84621,1,4,0:0:0:0:
252,184,85193,1,8,0:0:0:0:
120,188,85764,1,4,0:0:0:0:
180,72,86336,1,8,0:0:0:0:
180,72,86621,1,0,0:0:0:0:
252,184,86907,37,4,0:0:0:0:
356,104,87479,1,8,0:0:0:0:
392,232,88050,2,0,P|364:284|312:316,1,110,4|8,0:0|0:0,0:0:0:0:
196,268,89193,1,4,0:0:0:0:
120,160,89764,1,8,0:0:0:0:
116,28,90336,2,0,P|172:40|216:72,1,110,4|8,0:0|0:0,0:0:0:0:
256,192,91479,12,4,95479,0:3:0:0:
304,192,96050,22,0,P|336:264|372:284,1,110,6|0,1:3|0:0,0:0:0:0:
432,168,96621,1,10,0:0:0:0:
376,72,96907,1,0,0:0:0:0:
224,92,97193,2,0,P|144:140|112:252,2,165,2|2|2,0:0|0:0|0:0,0:0:0:0:
260,240,98336,5,4,1:3:0:0:
140,296,98621,1,0,0:0:0:0:
108,304,98764,1,0,0:0:0:0:
74,293,98907,2,0,P|34:264|6:191,1,110,10|2,0:0|0:0,0:0:0:0:
132,164,99479,2,0,P|212:153|288:183,1,165,2|2,1:3|0:0,0:0:0:0:
312,202,100050,2,0,P|356:164|436:148,1,110,10|2,0:0|0:0,0:0:0:0:
428,304,100621,53,6,1:3:0:0:
312,364,100907,1,0,0:0:0:0:
280,372,101050,1,2,0:0:0:0:
248,360,101193,2,0,B|184:325|204:242,1,110,8|2,0:0|0:0,0:0:0:0:
208,116,101764,1,2,1:3:0:0:
168,240,102050,1,0,0:0:0:0:
143,277,102193,1,2,0:0:0:0:
111,289,102336,2,0,P|51:297|-9:277,1,110,8|2,0:0|0:0,0:0:0:0:
64,148,102907,6,0,P|76:52|144:-16,2,165,6|2|2,1:3|0:0|0:0,0:0:0:0:
208,116,104050,1,2,1:3:0:0:
252,240,104336,1,0,0:0:0:0:
280,224,104479,1,0,0:0:0:0:
306,202,104621,2,0,P|332:152|336:96,1,110,10|2,0:0|0:0,0:0:0:0:
168,44,105193,53,6,1:3:0:0:
68,136,105479,1,0,0:0:0:0:
212,196,105764,1,10,0:0:0:0:
236,324,106050,1,0,0:0:0:0:
340,208,106336,2,0,P|316:120|248:68,1,165,2|2,1:3|0:0,0:0:0:0:
196,60,106907,2,0,L|300:16,1,110,8|2,0:0|0:0,0:0:0:0:
448,56,107479,5,4,1:3:0:0:
404,180,107764,1,0,0:0:0:0:
380,204,107907,1,0,0:0:0:0:
348,219,108050,2,0,P|296:236|242:227,1,110,10|2,0:0|0:0,0:0:0:0:
200,136,108621,2,0,P|320:168|338:208,1,165,2|2,1:3|0:0,0:0:0:0:
348,219,109193,2,0,P|392:275|452:292,1,110,10|2,0:0|0:0,0:0:0:0:
384,120,109764,54,0,P|412:48|500:42,1,165,6|2,1:3|0:0,0:0:0:0:
460,108,110336,1,8,0:0:0:0:
360,196,110621,1,2,0:0:0:0:
237,147,110907,2,0,P|196:224|112:216,1,165,2|2,1:3|0:0,0:0:0:0:
160,156,111479,1,8,0:0:0:0:
260,68,111764,1,2,0:0:0:0:
296,220,112050,6,0,P|384:204|456:268,2,165,6|2|2,1:3|0:0|0:0,0:0:0:0:
196,304,113193,1,2,0:0:0:0:
96,256,113479,1,0,0:0:0:0:
92,224,113621,1,0,0:0:0:0:
100,192,113764,2,0,P|131:150|132:76,1,110,10|2,0:0|0:0,0:0:0:0:
212,256,114336,54,0,P|224:312|272:340,1,110,6|0,1:3|0:0,0:0:0:0:
388,292,114907,1,10,0:0:0:0:
420,184,115193,1,0,0:0:0:0:
504,84,115479,2,0,P|428:52|388:60,1,110,2|0,1:3|0:0,0:0:0:0:
296,132,116050,1,0,0:0:0:0:
280,160,116193,1,0,0:0:0:0:
272,192,116336,1,2,0:0:0:0:
396,268,116621,5,0,0:0:0:0:
384,296,116764,1,2,0:0:0:0:
368,324,116907,2,0,P|312:356|244:352,2,110,2|10|2,0:0|0:0|0:0,0:0:0:0:
444,216,117764,1,2,0:0:0:0:
376,128,118050,1,0,0:0:0:0:
344,128,118193,1,0,0:0:0:0:
311,140,118336,2,0,P|268:173|247:222,1,110,10|2,0:0|0:0,0:0:0:0:
204,372,118907,54,0,P|152:344|116:300,1,110,6|0,1:3|0:0,0:0:0:0:
108,276,119336,1,2,0:0:0:0:
100,244,119479,1,0,0:0:0:0:
148,124,119764,1,2,1:3:0:0:
292,72,120050,2,0,P|340:97|376:138,1,110,6|0,1:3|0:0,0:0:0:0:
388,168,120479,1,2,0:0:0:0:
396,200,120622,1,0,0:0:0:0:
352,324,120907,1,2,0:0:0:0:
196,328,121193,5,6,1:3:0:0:
104,236,121479,2,0,P|72:188|76:112,2,110
256,272,122336,1,2,0:0:0:0:
376,208,122621,1,0,0:0:0:0:
396,180,122764,1,0,0:0:0:0:
404,148,122907,2,0,P|408:84|392:32,1,110,10|0,0:0|0:0,0:0:0:0:
220,40,123479,54,0,P|207:104|224:164,2,110,6|0|10,1:3|0:0|0:0,0:0:0:0:
340,100,124336,1,0,0:0:0:0:
344,232,124621,1,2,0:0:0:0:
232,300,124907,2,0,P|177:318|112:288,1,110,0|10,0:0|0:0,0:0:0:0:
104,280,125336,1,0,0:0:0:0:
94,250,125479,1,2,0:0:0:0:
200,164,125764,5,0,0:0:0:0:
196,132,125907,1,0,0:0:0:0:
180,100,126050,2,0,P|140:52|60:36,2,110,0|10|2,0:0|0:0|0:0,0:0:0:0:
204,252,126907,1,2,0:0:0:0:
256,156,127193,1,0,0:0:0:0:
280,132,127336,1,2,0:0:0:0:
312,124,127479,1,2,0:0:0:0:
420,144,127764,1,2,0:0:0:0:
484,308,128050,54,0,P|376:316|316:284,1,165,2|2,0:0|0:0,0:0:0:0:
304,268,128621,1,0,0:0:0:0:
252,124,128907,1,2,0:0:0:0:
360,47,129193,2,0,P|383:125|346:214,1,165,2|2,0:0|0:0,0:0:0:0:
336,228,129764,1,0,0:0:0:0:
228,340,130050,1,2,0:0:0:0:
108,244,130336,6,0,P|170:197|266:190,2,165,6|2|10,1:3|0:0|0:0,0:0:0:0:
76,116,131479,2,0,P|131:121|222:43,1,165,2|0,0:0|0:0,0:0:0:0:
248,48,132050,2,0,P|305:83|399:68,1,165,2|2,0:0|0:0,0:0:0:0:
424,120,132621,22,0,P|432:184|464:216,1,98.9999969787599,6|2,1:3|0:0,0:0:0:0:
476,304,133193,1,8,0:0:0:0:
360,300,133479,1,0,2:0:0:0:
336,284,133621,1,0,2:0:0:0:
312,256,133764,2,0,P|286:188|287:130,1,98.9999969787599,0|0,1:0|0:0,0:0:0:0:
353,70,134336,2,0,P|376:120|382:176,1,98.9999969787599,8|0,0:0|0:0,0:0:0:0:
360,300,134907,5,4,1:3:0:0:
276,248,135193,1,0,0:0:0:0:
276,128,135479,1,8,0:0:0:0:
159,118,135764,1,0,2:0:0:0:
144,152,135907,1,0,2:0:0:0:
128,188,136050,2,0,L|88:280,1,98.9999969787599,0|0,1:0|0:0,0:0:0:0:
172,364,136621,2,0,L|211:273,1,98.9999969787599,8|0,0:0|0:0,0:0:0:0:
128,188,137193,5,6,1:3:0:0:
228,140,137479,2,0,L|332:100,1,98.9999969787599,2|10,0:0|0:0,0:0:0:0:
388,176,138050,1,2,0:0:0:0:
312,268,138336,1,2,0:0:0:0:
291,292,138479,1,2,0:0:0:0:
272,314,138621,1,2,0:0:0:0:
164,220,138907,2,0,P|120:192|84:120,1,98.9999969787599,8|2,0:0|0:0,0:0:0:0:
88,124,139336,1,2,0:0:0:0:
92,96,139479,5,6,1:3:0:0:
192,112,139764,1,2,0:0:0:0:
284,72,140050,1,8,0:0:0:0:
368,124,140336,1,2,0:0:0:0:
292,216,140621,2,0,P|216:224|140:264,1,148.49999546814,2|0,1:3|0:0,0:0:0:0:
92,268,141193,2,0,P|172:292|236:364,1,148.49999546814,10|0,0:0|0:0,0:0:0:0:
280,336,141764,22,0,P|340:328|388:284,1,98.9999969787599,6|2,1:3|0:0,0:0:0:0:
292,216,142336,1,8,0:0:0:0:
368,128,142621,1,0,2:0:0:0:
344,112,142764,1,0,2:0:0:0:
316,100,142907,2,0,P|264:100|200:144,2,98.9999969787599,0|0|8,1:0|0:0|0:0,0:0:0:0:
380,200,143764,1,0,0:0:0:0:
440,96,144050,5,4,1:3:0:0:
476,208,144336,1,0,0:0:0:0:
404,300,144621,1,8,0:0:0:0:
288,268,144907,1,0,2:0:0:0:
264,252,145050,1,0,2:0:0:0:
240,228,145193,2,0,P|224:188|224:108,1,98.9999969787599,0|0,1:0|0:0,0:0:0:0:
120,200,145764,2,0,P|136:240|136:324,1,98.9999969787599,8|0,0:0|0:0,0:0:0:0:
252,340,146336,5,6,1:3:0:0:
368,320,146621,2,0,L|432:208,1,98.9999969787599,2|10,0:0|0:0,0:0:0:0:
468,148,147193,1,2,0:0:0:0:
364,88,147479,1,2,1:3:0:0:
336,84,147621,1,2,0:0:0:0:
308,80,147764,1,2,0:0:0:0:
208,144,148050,1,8,0:0:0:0:
300,248,148336,2,0,L|384:332,1,98.9999969787599,2|0,0:0|1:0,0:0:0:0:
444,224,148907,5,2,0:0:0:0:
396,116,149193,2,0,P|356:92|284:116,1,98.9999969787599,10|2,0:0|0:0,0:0:0:0:
200,156,149764,2,0,P|252:208|328:216,1,148.49999546814,2|2,1:3|0:0,0:0:0:0:
384,208,150336,2,0,P|308:244|272:320,1,148.49999546814,2|2,0:0|0:0,0:0:0:0:
256,344,150907,38,0,L|164:320,1,82.5000031471254,2|0,0:3|0:3,0:3:0:0:
124,240,151479,1,4,0:0:0:0:
196,172,151764,1,0,0:0:0:0:
268,240,152050,2,0,P|304:268|356:288,1,82.5000031471254,0|2,0:0|0:0,0:0:0:0:
352,184,152621,2,0,P|316:156|264:136,1,82.5000031471254,8|2,0:0|0:0,0:0:0:0:
204,76,153193,21,0,0:0:0:0:
128,140,153479,1,0,0:0:0:0:
204,200,153764,2,0,P|172:228|128:236,1,82.5000031471254,4|0,0:0|0:0,0:0:0:0:
44,192,154336,1,0,0:0:0:0:
128,140,154621,1,0,0:0:0:0:
64,68,154907,2,0,P|108:44|140:44,1,82.5000031471254,8|0,0:0|0:0,0:0:0:0:
224,112,155479,38,0,P|256:164|300:196,1,82.5000031471254
320,92,156050,2,0,P|359:103|410:103,1,82.5000031471254,4|0,0:0|0:0,0:0:0:0:
452,192,156621,2,0,P|453:233|443:273,1,82.5000031471254
359,222,157193,2,0,P|330:251|295:273,1,82.5000031471254,4|0,0:0|0:0,0:0:0:0:
200,248,157764,21,0,0:0:0:0:
271,178,158050,1,0,0:0:0:0:
172,164,158336,1,4,0:0:0:0:
212,72,158621,1,0,0:0:0:0:
112,72,158907,2,0,P|64:92|32:140,2,82.5000031471254,0|0|8,0:0|0:0|0:0,0:0:0:0:
124,168,159764,1,0,0:0:0:0:
220,188,160050,38,0,L|328:200,1,82.5000031471254
392,156,160621,1,4,0:0:0:0:
448,236,160907,1,0,0:0:0:0:
360,280,161193,2,0,L|304:368,2,82.5000031471254,0|2|8,0:0|0:0|0:0,0:0:0:0:
412,196,162050,1,2,0:0:0:0:
336,136,162336,22,0,P|296:100|240:88,2,82.5000031471254,0|0|4,0:0|0:0|0:0,0:0:0:0:
252,188,163193,1,0,0:0:0:0:
156,208,163479,1,0,0:0:0:0:
60,188,163764,1,0,0:0:0:0:
60,288,164050,2,0,P|104:324|152:332,1,82.5000031471254,8|0,0:0|0:0,0:0:0:0:
156,208,164621,37,0,0:0:0:0:
252,188,164907,1,0,0:0:0:0:
340,236,165193,2,0,P|348:288|372:324,1,82.5000031471254,4|0,0:0|0:0,0:0:0:0:
436,248,165764,1,0,0:0:0:0:
468,156,166050,1,0,0:0:0:0:
380,112,166336,2,0,L|260:100,1,82.5000031471254,8|0,0:0|0:0,0:0:0:0:
200,112,166907,21,0,0:0:0:0:
116,164,167193,2,0,P|116:220|148:268,2,82.5000031471254,0|4|0,0:0|0:0|0:0,0:0:0:0:
136,68,168050,1,0,0:0:0:0:
220,124,168336,2,0,P|268:140|332:124,2,82.5000031471254,0|8|0,0:0|0:0|0:0,0:0:0:0:
136,68,169193,5,0,0:0:0:0:
