osu file format v14

[General]
AudioFilename: audio.mp3
AudioLeadIn: 0
PreviewTime: -1
Countdown: 1
SampleSet: Normal
StackLeniency: 0.7
Mode: 0
LetterboxInBreaks: 0
WidescreenStoryboard: 0

[Editor]
DistanceSpacing: 6
BeatDivisor: 4
GridSize: 4
TimelineZoom: 2.2

[Metadata]
Title:Bad Habbits
TitleUnicode:Bad Habbits
Artist:Attila
ArtistUnicode:Attila
Creator:Tarix
Version:jupi habbits
Source:
Tags:
BeatmapID:2048361
BeatmapSetID:978815

[Difficulty]
HPDrainRate:7
CircleSize:5
OverallDifficulty:8.5
ApproachRate:9.7
SliderMultiplier:1
SliderTickRate:1

[Events]
//Background and Video events
//Break Periods
//Storyboard Layer 0 (Background)
//Storyboard Layer 1 (Fail)
//Storyboard Layer 2 (Pass)
//Storyboard Layer 3 (Foreground)
//Storyboard Sound Samples

[TimingPoints]
1995,444.444444444444,4,1,0,100,1,0

[HitObjects]
342,328,1995,5,0,0:0:0:0:
434,45,2217,1,0,0:0:0:0:
373,89,2328,1,0,0:0:0:0:
460,301,2550,1,0,0:0:0:0:
399,345,2661,1,0,0:0:0:0:
175,352,2883,2,0,B|143:354|114:307,1,75
119,169,3328,1,0,0:0:0:0:
129,94,3439,1,0,0:0:0:0:
190,136,3550,1,0,0:0:0:0:
199,61,3661,1,0,0:0:0:0:
266,93,3772,6,0,L|235:124,1,25
41,286,3995,1,0,0:0:0:0:
102,242,4106,1,0,0:0:0:0:
361,344,4328,1,0,0:0:0:0:
422,300,4439,1,0,0:0:0:0:
461,140,4661,1,0,0:0:0:0:
342,231,4883,1,0,0:0:0:0:
195,196,5106,1,0,0:0:0:0:
195,196,5161,1,0,0:0:0:0:
195,196,5217,1,0,0:0:0:0:
242,137,5328,1,0,0:0:0:0:
279,201,5439,1,0,0:0:0:0:
318,137,5550,1,0,0:0:0:0:
416,24,5772,5,0,0:0:0:0:
373,81,5883,1,0,0:0:0:0:
465,248,6106,5,0,0:0:0:0:
422,305,6217,1,0,0:0:0:0:
239,326,6439,1,0,0:0:0:0:
233,125,6661,1,0,0:0:0:0:
349,219,6883,1,0,0:0:0:0:
292,170,6994,1,0,0:0:0:0:
257,237,7106,1,0,0:0:0:0:
209,179,7217,1,0,0:0:0:0:
169,242,7328,1,0,0:0:0:0:
35,290,7661,5,0,0:0:0:0:
88,237,7772,1,0,0:0:0:0:
25,100,7994,1,0,0:0:0:0:
147,12,8217,1,0,0:0:0:0:
466,310,8550,5,0,0:0:0:0:
410,259,8661,1,0,0:0:0:0:
479,126,8883,1,0,0:0:0:0:
364,28,9106,1,0,0:0:0:0:
86,35,9328,1,0,0:0:0:0:
141,85,9439,1,0,0:0:0:0:
60,280,9661,1,0,0:0:0:0:
115,330,9772,1,0,0:0:0:0:
291,185,9994,1,0,0:0:0:0:
140,175,10217,1,0,0:0:0:0:
210,307,10439,5,0,0:0:0:0:
159,251,10550,1,0,0:0:0:0:
214,200,10661,1,0,0:0:0:0:
157,151,10772,1,0,0:0:0:0:
215,104,10883,1,0,0:0:0:0:
455,85,11106,1,0,0:0:0:0:
389,121,11217,1,0,0:0:0:0:
432,257,11439,1,0,0:0:0:0:
366,293,11550,1,0,0:0:0:0:
190,141,11772,1,0,0:0:0:0:
289,217,11994,5,0,0:0:0:0:
289,217,12050,1,0,0:0:0:0:
289,217,12106,1,0,0:0:0:0:
289,217,12161,1,0,0:0:0:0:
289,217,12217,1,0,0:0:0:0:
234,312,12550,5,0,0:0:0:0:
207,285,12606,1,0,0:0:0:0:
181,258,12661,1,0,0:0:0:0:
67,134,12772,1,0,0:0:0:0:
130,174,12883,1,0,0:0:0:0:
136,99,12994,1,0,0:0:0:0:
199,139,13106,1,0,0:0:0:0:
208,64,13217,1,0,0:0:0:0:
272,102,13328,1,0,0:0:0:0:
449,193,13550,5,0,0:0:0:0:
274,288,13772,1,0,0:0:0:0:
272,102,13994,1,0,0:0:0:0:
221,46,14106,1,0,0:0:0:0:
205,119,14217,1,0,0:0:0:0:
150,67,14328,1,0,0:0:0:0:
138,141,14439,1,0,0:0:0:0:
95,330,14661,5,0,0:0:0:0:
110,256,14772,1,0,0:0:0:0:
385,328,14994,1,0,0:0:0:0:
400,254,15105,1,0,0:0:0:0:
367,152,15328,1,0,0:0:0:0:
352,225,15439,1,0,0:0:0:0:
298,172,15550,1,0,0:0:0:0:
271,242,15661,1,0,0:0:0:0:
222,184,15772,1,0,0:0:0:0:
147,54,15994,1,0,0:0:0:0:
170,328,16217,5,0,0:0:0:0:
131,84,16439,1,0,0:0:0:0:
192,128,16550,1,0,0:0:0:0:
36,289,16772,1,0,0:0:0:0:
97,333,16883,1,0,0:0:0:0:
337,352,17106,1,0,0:0:0:0:
393,169,17550,1,0,0:0:0:0:
383,94,17661,1,0,0:0:0:0:
322,136,17772,1,0,0:0:0:0:
313,61,17883,1,0,0:0:0:0:
246,91,17994,1,0,0:0:0:0:
148,205,18217,1,0,0:0:0:0:
220,182,18328,1,0,0:0:0:0:
206,255,18439,1,0,0:0:0:0:
278,234,18550,1,0,0:0:0:0:
278,308,18661,1,0,0:0:0:0:
51,140,18883,1,0,0:0:0:0:
170,231,19105,1,0,0:0:0:0:
170,231,19161,1,0,0:0:0:0:
170,231,19217,1,0,0:0:0:0:
364,227,19328,1,0,0:0:0:0:
194,137,19772,1,0,0:0:0:0:
96,24,19994,5,0,0:0:0:0:
139,81,20105,1,0,0:0:0:0:
52,246,20328,5,0,0:0:0:0:
95,303,20439,1,0,0:0:0:0:
273,326,20661,1,0,0:0:0:0:
279,125,20883,1,0,0:0:0:0:
163,219,21105,1,0,0:0:0:0:
220,170,21216,1,0,0:0:0:0:
255,237,21328,1,0,0:0:0:0:
303,179,21439,1,0,0:0:0:0:
343,242,21550,1,0,0:0:0:0:
477,290,21883,5,0,0:0:0:0:
424,237,21994,1,0,0:0:0:0:
487,100,22216,1,0,0:0:0:0:
365,12,22439,1,0,0:0:0:0:
46,310,22772,5,0,0:0:0:0:
102,259,22883,1,0,0:0:0:0:
33,126,23105,1,0,0:0:0:0:
148,28,23328,1,0,0:0:0:0:
426,35,23550,1,0,0:0:0:0:
371,85,23661,1,0,0:0:0:0:
441,284,23883,1,0,0:0:0:0:
386,334,23994,1,0,0:0:0:0:
221,185,24216,1,0,0:0:0:0:
372,175,24439,1,0,0:0:0:0:
302,307,24661,5,0,0:0:0:0:
353,251,24772,1,0,0:0:0:0:
298,200,24883,1,0,0:0:0:0:
355,151,24994,1,0,0:0:0:0:
297,104,25105,1,0,0:0:0:0:
57,85,25328,1,0,0:0:0:0:
123,121,25439,1,0,0:0:0:0:
67,298,25661,1,0,0:0:0:0:
133,334,25772,1,0,0:0:0:0:
322,141,25994,1,0,0:0:0:0:
229,211,26272,1,0,0:0:0:0:
85,179,26439,1,0,0:0:0:0:
67,207,26883,5,0,0:0:0:0:
67,134,26994,1,0,0:0:0:0:
130,174,27105,1,0,0:0:0:0:
136,99,27216,1,0,0:0:0:0:
199,139,27328,1,0,0:0:0:0:
208,64,27439,1,0,0:0:0:0:
272,102,27550,1,0,0:0:0:0:
449,193,27772,5,0,0:0:0:0:
274,288,27994,1,0,0:0:0:0:
274,101,28216,5,0,0:0:0:0:
280,25,28328,5,0,0:0:0:0:
212,110,28439,5,0,0:0:0:0:
187,39,28550,5,0,0:0:0:0:
164,146,28661,5,0,0:0:0:0:
104,100,28772,5,0,0:0:0:0:
135,199,28883,5,0,0:0:0:0:
60,191,28994,5,0,0:0:0:0:
139,257,29106,5,0,0:0:0:0:
67,278,29217,5,0,0:0:0:0:
155,315,29328,5,0,0:0:0:0:
208,367,29439,5,0,0:0:0:0:
142,253,29550,5,0,0:0:0:0:
220,287,29661,5,0,0:0:0:0:
209,212,29772,5,0,0:0:0:0:
256,269,29883,5,0,0:0:0:0:
259,343,29994,5,0,0:0:0:0:
409,341,30217,5,0,0:0:0:0:
337,317,30328,1,0,0:0:0:0:
394,269,30439,1,0,0:0:0:0:
310,248,30550,1,0,0:0:0:0:
372,207,30661,1,0,0:0:0:0:
301,181,30772,1,0,0:0:0:0:
355,129,30883,1,0,0:0:0:0:
405,73,30994,1,0,0:0:0:0:
55,47,31328,5,0,0:0:0:0:
442,159,31550,1,0,0:0:0:0:
357,267,31661,1,0,0:0:0:0:
220,283,31772,1,0,0:0:0:0:
99,216,31883,1,0,0:0:0:0:
88,128,32217,5,0,0:0:0:0:
210,66,32328,1,0,0:0:0:0:
346,77,32439,1,0,0:0:0:0:
110,218,32661,5,0,0:0:0:0:
377,278,32883,1,0,0:0:0:0:
247,322,32994,1,0,0:0:0:0:
119,267,33106,1,0,0:0:0:0:
393,267,33328,1,0,0:0:0:0:
126,199,33550,5,0,0:0:0:0:
255,244,33661,1,0,0:0:0:0:
454,139,33994,5,0,0:0:0:0:
327,70,34106,1,0,0:0:0:0:
395,203,34217,1,0,0:0:0:0:
274,106,34328,1,0,0:0:0:0:
299,253,34439,1,0,0:0:0:0:
212,116,34550,1,0,0:0:0:0:
199,265,34661,1,0,0:0:0:0:
25,27,34883,5,0,0:0:0:0:
269,202,35106,1,0,0:0:0:0:
373,94,35217,1,0,0:0:0:0:
228,133,35328,1,0,0:0:0:0:
377,138,35439,1,0,0:0:0:0:
364,176,35772,5,0,0:0:0:0:
227,113,35883,1,0,0:0:0:0:
263,309,36106,5,0,0:0:0:0:
354,190,36217,1,0,0:0:0:0:
121,234,36439,5,0,0:0:0:0:
251,307,36550,1,0,0:0:0:0:
333,181,36661,1,0,0:0:0:0:
203,106,36772,1,0,0:0:0:0:
144,244,36883,1,0,0:0:0:0:
306,111,37106,1,0,0:0:0:0:
158,139,37217,1,0,0:0:0:0:
244,125,37550,5,0,0:0:0:0:
138,230,37661,1,0,0:0:0:0:
255,322,37772,1,0,0:0:0:0:
368,224,37883,1,0,0:0:0:0:
225,177,37994,1,0,0:0:0:0:
467,132,38439,1,0,0:0:0:0:
167,116,38661,5,0,0:0:0:0:
183,264,38772,1,0,0:0:0:0:
319,201,38883,1,0,0:0:0:0:
174,162,38994,1,0,0:0:0:0:
174,162,39328,1,0,0:0:0:0:
255,287,39439,1,0,0:0:0:0:
304,145,39550,1,0,0:0:0:0:
307,258,39772,5,0,0:0:0:0:
307,258,39994,1,0,0:0:0:0:
252,116,40106,1,0,0:0:0:0:
172,242,40217,1,0,0:0:0:0:
256,194,40439,1,0,0:0:0:0:
256,194,40661,1,0,0:0:0:0:
