osu file format v14

[General]
AudioFilename: audio.mp3
AudioLeadIn: 0
PreviewTime: 56774
Countdown: 1
SampleSet: Normal
StackLeniency: 1
Mode: 0
LetterboxInBreaks: 0
WidescreenStoryboard: 1

[Editor]
DistanceSpacing: 2
BeatDivisor: 4
GridSize: 8
TimelineZoom: 1.3

[Metadata]
Title:Interlude
TitleUnicode:Interlude
Artist:Attack Attack!
ArtistUnicode:Attack Attack!
Creator:bob80905
Version:Insane
Source:
Tags:Attack Attack Interlude Some day came suddenly
BeatmapID:1094448
BeatmapSetID:515338

[Difficulty]
HPDrainRate:6
CircleSize:3.9
OverallDifficulty:6.5
ApproachRate:8
SliderMultiplier:1.4
SliderTickRate:1

[Events]
//Background and Video events
0,0,"attack attack.jpg",0,0
//Break Periods
2,70476,80027
//Storyboard Layer 0 (Background)
//Storyboard Layer 1 (Fail)
//Storyboard Layer 2 (Pass)
//Storyboard Layer 3 (Foreground)
//Storyboard Sound Samples

[TimingPoints]
206.352048625057,428.571428571429,4,1,0,100,1,0
56777,-66.6666666666667,4,1,0,100,0,1
63634,-66.6666666666667,4,1,0,100,0,0
83777,-100,4,1,0,100,0,0
86777,-200,4,1,0,100,0,0
88492,-100,4,1,0,100,0,0
111634,-100,4,1,0,100,0,1
118492,-100,4,1,0,100,0,0

[Colours]
Combo1 : 63,63,63
Combo2 : 192,192,192
Combo3 : 150,150,150
Combo4 : 102,102,102

[HitObjects]
152,160,1920,5,0,0:0:0:0:
432,160,2348,1,0,0:0:0:0:
216,336,2777,1,0,0:0:0:0:
280,64,3206,1,0,0:0:0:0:
392,320,3634,5,0,0:0:0:0:
112,360,4063,1,0,0:0:0:0:
256,120,4491,1,0,0:0:0:0:
488,272,4920,1,0,0:0:0:0:
216,344,5349,5,0,0:0:0:0:
128,80,5777,1,0,0:0:0:0:
336,264,6206,1,0,0:0:0:0:
328,128,6420,1,0,0:0:0:0:
328,128,6527,1,0,0:0:0:0:
328,128,6634,2,0,L|328:48,1,70,8|0,0:0|0:0,0:0:0:0:
184,56,7063,6,0,P|144:56|136:80,1,70
256,152,7492,2,0,P|256:184|216:192,1,70
104,264,7920,2,0,P|112:304|152:312,1,70
136,314,8242,1,0,0:0:0:0:
136,314,8349,1,8,0:0:0:0:
224,200,8563,1,0,0:0:0:0:
312,304,8777,6,0,L|240:304,1,70
344,208,9206,2,0,L|424:208,1,70
320,104,9634,2,0,L|240:104,1,70
250,104,9956,1,0,0:0:0:0:
250,104,10063,1,8,0:0:0:0:
112,144,10277,1,0,0:0:0:0:
112,288,10492,6,0,L|160:344,1,70
176,200,10920,2,0,L|240:152,1,70
256,296,11349,2,0,L|336:296,1,70
326,296,11670,1,0,0:0:0:0:
326,296,11777,1,8,0:0:0:0:
464,264,11992,1,0,0:0:0:0:
336,208,12206,5,0,0:0:0:0:
408,88,12420,1,0,0:0:0:0:
416,224,12634,1,0,0:0:0:0:
336,112,12849,1,0,0:0:0:0:
472,152,13063,1,0,0:0:0:0:
344,216,13277,1,0,0:0:0:0:
344,216,13384,1,0,0:0:0:0:
344,216,13492,1,8,0:0:0:0:
408,88,13706,1,0,0:0:0:0:
280,40,13920,5,0,0:0:0:0:
208,160,14134,1,0,0:0:0:0:
336,96,14349,1,0,0:0:0:0:
200,80,14563,1,0,0:0:0:0:
304,176,14777,1,0,0:0:0:0:
256,296,14992,1,0,0:0:0:0:
256,296,15099,1,0,0:0:0:0:
256,296,15206,1,8,0:0:0:0:
168,184,15420,1,0,0:0:0:0:
48,256,15634,6,0,B|80:376|8:336|72:280|176:304,1,210
312,264,16491,1,0,0:0:0:0:
200,184,16706,1,0,0:0:0:0:
328,128,16920,1,0,0:0:0:0:
208,48,17134,1,0,0:0:0:0:
64,48,17349,2,0,P|24:72|16:104,1,70
136,224,17777,2,0,B|136:264|136:264|192:256,1,70
165,259,18206,1,0,0:0:0:0:
304,288,18420,2,0,L|304:320,1,35,8|0,0:0|0:0,0:0:0:0:
368,288,18634,2,0,L|368:328,1,35,8|0,0:0|0:0,0:0:0:0:
432,288,18849,2,0,L|432:336,1,35,8|0,0:0|0:0,0:0:0:0:
432,232,19063,6,0,B|424:208|448:160|488:176|456:184|368:160,1,140
304,56,19706,1,0,0:0:0:0:
216,160,19920,1,0,0:0:0:0:
392,104,20134,1,0,0:0:0:0:
288,240,20349,1,0,0:0:0:0:
472,160,20563,1,0,0:0:0:0:
336,304,20777,2,0,P|440:280|512:208,1,210
304,16,21849,1,0,0:0:0:0:
272,152,22063,1,0,0:0:0:0:
168,56,22277,1,0,0:0:0:0:
72,160,22491,6,0,B|16:152|16:152|48:160|40:168|40:232,1,140
176,256,23134,1,0,0:0:0:0:
296,328,23349,1,0,0:0:0:0:
264,168,23563,1,0,0:0:0:0:
400,264,23777,1,0,0:0:0:0:
352,72,23991,1,0,0:0:0:0:
472,216,24206,2,0,B|472:264|520:264|528:264|512:272|288:320,1,280
168,368,25277,6,0,L|168:320,1,35
104,368,25491,6,0,L|104:320,1,35
40,368,25706,6,0,L|40:328,1,35
64,264,25920,6,0,B|120:240|136:288|144:280|96:272|104:208,1,140
344,48,26777,1,0,0:0:0:0:
488,288,27206,1,0,0:0:0:0:
208,264,27634,1,0,0:0:0:0:
136,144,27849,1,0,0:0:0:0:
72,264,28063,1,0,0:0:0:0:
8,144,28277,1,0,0:0:0:0:
104,72,28491,5,0,0:0:0:0:
144,48,28599,1,0,0:0:0:0:
192,48,28706,1,0,0:0:0:0:
232,64,28813,1,0,0:0:0:0:
256,88,28920,1,8,0:0:0:0:
280,128,29027,1,0,0:0:0:0:
288,168,29134,1,8,0:0:0:0:
296,208,29241,1,4,0:0:0:0:
304,248,29349,6,0,B|424:288|360:256|328:264|368:192,1,140
464,112,29991,1,0,0:0:0:0:
344,40,30206,1,0,0:0:0:0:
264,152,30420,1,0,0:0:0:0:
360,248,30634,1,0,0:0:0:0:
392,112,30849,2,0,L|312:112,1,70
184,112,31277,2,0,L|112:152,1,70
122,145,31706,1,0,0:0:0:0:
208,288,32134,5,0,0:0:0:0:
224,312,32241,1,0,0:0:0:0:
248,336,32349,1,8,0:0:0:0:
272,352,32456,1,0,0:0:0:0:
304,368,32563,1,4,0:0:0:0:
336,368,32670,1,0,0:0:0:0:
360,360,32777,6,0,B|368:288|424:288|440:360,1,140
312,296,33420,1,0,0:0:0:0:
208,208,33634,1,0,0:0:0:0:
352,208,33849,1,0,0:0:0:0:
224,152,34063,1,0,0:0:0:0:
360,56,34277,1,0,0:0:0:0:
496,72,34491,2,0,P|496:120|472:136,1,70
344,136,34920,1,0,0:0:0:0:
280,264,35134,1,0,0:0:0:0:
72,72,35563,5,0,0:0:0:0:
72,72,35670,1,0,0:0:0:0:
72,72,35777,1,0,0:0:0:0:
144,192,35991,1,0,0:0:0:0:
256,280,36206,2,0,P|304:280|368:352,1,140
408,208,36849,2,0,P|360:216|336:176,1,70
208,232,37277,2,0,P|248:200|272:200,1,70
256,56,37706,1,0,0:0:0:0:
392,64,37920,6,0,B|488:80|488:88|400:112,1,140
272,144,38563,1,0,0:0:0:0:
488,320,38991,1,0,0:0:0:0:
488,320,39099,1,0,0:0:0:0:
488,320,39206,1,0,0:0:0:0:
352,320,39420,1,0,0:0:0:0:
216,312,39634,6,0,B|160:248|160:280|152:264|144:312|224:240,1,140
240,112,40277,1,0,0:0:0:0:
360,40,40491,1,0,0:0:0:0:
328,176,40706,1,0,0:0:0:0:
432,88,40920,1,0,0:0:0:0:
464,224,41134,5,0,0:0:0:0:
464,224,41241,1,0,0:0:0:0:
464,224,41349,2,0,P|464:280|392:288,1,140
272,216,41991,1,0,0:0:0:0:
0,288,42420,1,0,0:0:0:0:
24,312,42527,1,0,0:0:0:0:
48,328,42634,1,0,0:0:0:0:
80,336,42741,1,0,0:0:0:0:
112,336,42849,1,0,0:0:0:0:
136,320,42956,1,0,0:0:0:0:
168,296,43063,1,0,0:0:0:0:
256,32,43491,5,0,0:0:0:0:
392,48,43706,2,0,P|424:72|416:112,1,70
288,120,44134,2,0,P|264:136|288:176,1,70
416,192,44563,1,0,0:0:0:0:
416,192,44670,1,0,0:0:0:0:
416,192,44777,2,0,P|416:240|392:256,1,70
264,288,45206,2,0,B|208:320|200:312|248:304,1,70
464,144,45849,5,0,0:0:0:0:
448,112,45956,1,0,0:0:0:0:
424,80,46063,1,0,0:0:0:0:
400,48,46170,1,0,0:0:0:0:
368,24,46277,1,0,0:0:0:0:
328,8,46384,1,0,0:0:0:0:
288,0,46491,1,0,0:0:0:0:
88,192,46920,6,0,L|64:160,4,35
320,40,47777,2,0,L|320:-8,4,35
480,272,48634,2,0,L|512:248,8,35,0|0|0|0|0|0|0|0|8,0:0|0:0|0:0|0:0|0:0|0:0|0:0|0:0|0:0,0:0:0:0:
312,48,49920,6,0,P|296:104|200:120,1,140
360,168,50563,2,0,B|360:216|328:232|328:232,1,70
272,352,50991,2,0,P|224:352|192:336,1,70
240,208,51420,1,0,0:0:0:0:
104,208,51634,2,0,P|56:184|72:104,1,140
66,108,52277,1,0,0:0:0:0:
232,336,52706,2,0,L|280:336,5,35
272,264,53348,6,0,P|349:272|397:328,1,140
440,184,53992,1,0,0:0:0:0:
328,264,54206,1,0,0:0:0:0:
224,168,54420,1,0,0:0:0:0:
360,168,54634,1,0,0:0:0:0:
256,264,54848,1,0,0:0:0:0:
112,256,55063,1,0,0:0:0:0:
376,352,55491,1,0,0:0:0:0:
104,288,55920,1,8,0:0:0:0:
104,288,56134,1,8,0:0:0:0:
152,232,56241,1,8,0:0:0:0:
224,112,56456,2,4,P|256:128|264:144,1,35
456,72,56777,5,0,0:0:0:0:
448,112,56884,1,0,0:0:0:0:
432,152,56991,1,0,0:0:0:0:
408,192,57098,1,0,0:0:0:0:
376,224,57206,1,0,0:0:0:0:
344,248,57313,1,0,0:0:0:0:
312,272,57420,1,0,0:0:0:0:
280,288,57527,1,0,0:0:0:0:
248,256,57634,5,8,0:0:0:0:
224,216,57741,1,0,0:0:0:0:
200,176,57848,1,0,0:0:0:0:
168,144,57956,1,0,0:0:0:0:
136,112,58063,1,2,0:0:0:0:
96,88,58170,1,0,0:0:0:0:
56,72,58277,1,0,0:0:0:0:
16,56,58384,1,0,0:0:0:0:
72,16,58492,6,0,L|128:16,7,52.5000020027161,0|0|0|0|8|0|0|0,0:0|0:0|0:0|0:0|0:0|0:0|0:0|0:0,0:0:0:0:
192,24,59349,2,0,L|192:80,7,52.5000020027161,8|0|0|0|0|0|0|0,0:0|0:0|0:0|0:0|0:0|0:0|0:0|0:0,0:0:0:0:
272,32,60206,5,2,0:0:0:0:
312,48,60313,1,0,0:0:0:0:
344,80,60420,1,0,0:0:0:0:
376,112,60527,1,0,0:0:0:0:
400,144,60634,1,0,0:0:0:0:
416,184,60741,1,0,0:0:0:0:
424,224,60848,1,0,0:0:0:0:
416,264,60956,1,0,0:0:0:0:
376,256,61063,5,8,0:0:0:0:
344,224,61170,1,0,0:0:0:0:
312,192,61277,1,0,0:0:0:0:
272,168,61384,1,0,0:0:0:0:
232,144,61491,1,10,0:0:0:0:
192,128,61598,1,8,0:0:0:0:
152,136,61706,1,8,0:0:0:0:
120,152,61813,1,0,0:0:0:0:
72,200,61920,6,0,L|96:248,7,52.5000020027161
64,296,62777,2,0,L|-8:296,7,52.5000020027161
56,352,63634,5,0,0:0:0:0:
80,312,63741,1,0,0:0:0:0:
120,280,63848,1,0,0:0:0:0:
152,256,63956,1,0,0:0:0:0:
192,240,64063,1,0,0:0:0:0:
240,240,64170,1,0,0:0:0:0:
288,256,64277,1,0,0:0:0:0:
328,280,64384,1,0,0:0:0:0:
368,296,64491,5,8,0:0:0:0:
408,280,64598,1,0,0:0:0:0:
440,248,64706,1,0,0:0:0:0:
464,208,64813,1,0,0:0:0:0:
480,168,64920,1,2,0:0:0:0:
480,128,65027,1,0,0:0:0:0:
480,88,65134,1,0,0:0:0:0:
464,48,65241,1,0,0:0:0:0:
408,48,65348,6,0,L|344:72,7,52.5000020027161
296,72,66206,2,0,L|240:56,7,52.5000020027161
168,48,67063,5,0,0:0:0:0:
120,56,67170,1,0,0:0:0:0:
80,80,67277,1,0,0:0:0:0:
48,112,67384,1,0,0:0:0:0:
24,152,67491,1,0,0:0:0:0:
8,192,67598,1,0,0:0:0:0:
0,232,67706,1,0,0:0:0:0:
8,280,67813,1,0,0:0:0:0:
56,280,67920,5,8,0:0:0:0:
88,248,68027,1,0,0:0:0:0:
120,216,68134,1,0,0:0:0:0:
160,192,68241,1,0,0:0:0:0:
208,176,68348,1,10,0:0:0:0:
256,176,68456,1,8,0:0:0:0:
304,192,68563,1,8,0:0:0:0:
344,216,68670,1,0,0:0:0:0:
376,288,68777,6,0,L|344:336,7,52.5000020027161
288,336,69634,2,0,L|176:336,3,105.000004005432,8|0|0|0,0:0|0:0|0:0|0:0,0:0:0:0:
256,192,80777,12,0,83349,0:0:0:0:
72,160,84205,6,0,L|160:112,1,70
264,80,84634,5,0,0:0:0:0:
144,296,84849,1,0,0:0:0:0:
144,296,85491,1,0,0:0:0:0:
280,280,85705,1,0,0:0:0:0:
424,280,85920,2,0,L|464:272,2,35
448,144,86349,2,0,L|384:152,2,35
440,48,86777,1,0,0:0:0:0:
304,40,87205,2,0,P|304:120|304:184,1,140
128,264,88277,1,0,0:0:0:0:
128,264,88920,5,0,0:0:0:0:
288,312,89134,1,0,0:0:0:0:
328,176,89348,1,0,0:0:0:0:
328,176,89455,1,0,0:0:0:0:
328,176,89563,1,0,0:0:0:0:
440,88,89777,1,0,0:0:0:0:
440,88,89884,1,0,0:0:0:0:
440,88,89991,1,0,0:0:0:0:
312,40,90205,2,0,B|240:120|344:120|240:40,1,140
80,272,91063,5,0,0:0:0:0:
80,272,91170,1,0,0:0:0:0:
80,272,91277,2,0,P|112:272|144:304,1,70
312,256,91705,1,0,0:0:0:0:
312,256,92348,1,0,0:0:0:0:
288,216,92455,1,0,0:0:0:0:
336,216,92563,1,0,0:0:0:0:
400,88,92777,2,0,L|424:120,2,35
464,208,93205,2,0,L|448:248,2,35
368,312,93634,2,0,P|336:344|240:360,1,140
96,128,94491,5,0,0:0:0:0:
232,128,94705,2,0,B|288:224|288:144|160:192|256:200,1,140
416,264,95348,1,8,0:0:0:0:
416,264,95777,1,0,0:0:0:0:
256,272,95991,1,0,0:0:0:0:
104,280,96205,2,0,L|72:312,2,35
80,144,96634,2,0,L|40:144,2,35,8|8|8,0:0|0:0|0:0,0:0:0:0:
192,64,97063,5,0,0:0:0:0:
232,48,97170,1,0,0:0:0:0:
272,56,97277,1,0,0:0:0:0:
312,80,97384,1,0,0:0:0:0:
344,112,97491,1,8,0:0:0:0:
368,152,97598,1,8,0:0:0:0:
384,192,97705,1,8,0:0:0:0:
392,232,97813,1,8,0:0:0:0:
392,272,97920,6,0,B|344:320|448:352|312:264,1,140,4|0,0:0|0:0,0:0:0:0:
200,192,98563,1,0,0:0:0:0:
336,152,98777,1,0,0:0:0:0:
336,152,98991,1,0,0:0:0:0:
272,272,99205,1,0,0:0:0:0:
272,272,99313,1,0,0:0:0:0:
272,272,99420,1,0,0:0:0:0:
400,320,99634,6,0,P|448:320|472:304,1,70
472,168,100063,2,0,P|488:136|472:104,1,70
200,56,100705,1,0,0:0:0:0:
200,56,100813,1,0,0:0:0:0:
200,56,100920,1,0,0:0:0:0:
288,168,101134,1,0,0:0:0:0:
392,264,101348,6,0,P|392:312|336:336,1,105
346,337,101777,1,0,0:0:0:0:
208,320,101991,2,0,P|152:320|136:304,1,70
143,313,102313,1,0,0:0:0:0:
143,313,102420,1,0,0:0:0:0:
192,184,102634,2,0,L|232:208,2,35
304,264,103063,2,0,B|272:280|240:296|224:296|208:296|200:280|208:264|224:256|232:264|256:280|272:304|304:320,1,210
24,344,104134,5,0,0:0:0:0:
24,344,104241,1,0,0:0:0:0:
24,344,104348,1,0,0:0:0:0:
160,312,104563,1,0,0:0:0:0:
248,208,104777,5,0,0:0:0:0:
24,40,105205,1,0,0:0:0:0:
168,48,105420,1,0,0:0:0:0:
272,144,105634,1,0,0:0:0:0:
264,280,105848,1,0,0:0:0:0:
152,368,106063,1,0,0:0:0:0:
152,368,106170,1,0,0:0:0:0:
152,368,106277,1,0,0:0:0:0:
224,248,106491,6,0,L|288:216,1,70
384,312,106920,2,0,B|424:328|424:336|416:328|416:328|416:288,1,70
168,168,107563,1,8,0:0:0:0:
168,168,107670,1,0,0:0:0:0:
168,168,107777,1,8,0:0:0:0:
304,176,107991,1,8,0:0:0:0:
352,40,108205,6,0,P|296:40|248:104,1,140,0|8,0:0|0:0,0:0:0:0:
320,224,108848,1,0,0:0:0:0:
184,256,109063,1,0,0:0:0:0:
184,256,109170,1,0,0:0:0:0:
184,256,109277,1,0,0:0:0:0:
88,152,109491,1,0,0:0:0:0:
88,152,109598,1,0,0:0:0:0:
88,152,109705,1,0,0:0:0:0:
200,72,109920,2,0,P|248:72|288:152,1,140
272,288,110563,2,0,B|416:376|504:184|504:184,1,280
472,56,111634,5,0,0:0:0:0:
424,56,111741,1,0,0:0:0:0:
376,56,111848,1,0,0:0:0:0:
240,96,112063,1,0,0:0:0:0:
240,136,112170,1,0,0:0:0:0:
240,176,112277,1,0,0:0:0:0:
344,160,112491,1,0,0:0:0:0:
336,200,112598,1,0,0:0:0:0:
320,240,112705,1,0,0:0:0:0:
280,264,112813,1,0,0:0:0:0:
232,264,112920,1,0,0:0:0:0:
184,240,113027,1,0,0:0:0:0:
160,208,113134,1,0,0:0:0:0:
152,160,113241,1,0,0:0:0:0:
176,120,113348,5,0,0:0:0:0:
208,88,113455,1,0,0:0:0:0:
248,72,113562,1,0,0:0:0:0:
272,208,113777,2,0,L|304:224,2,35
343,331,114206,2,0,L|383:347,7,35
304,328,115062,5,0,0:0:0:0:
264,304,115170,1,0,0:0:0:0:
240,264,115277,1,0,0:0:0:0:
104,272,115491,1,0,0:0:0:0:
80,312,115598,1,0,0:0:0:0:
40,336,115705,1,0,0:0:0:0:
128,232,115920,1,0,0:0:0:0:
152,192,116027,1,0,0:0:0:0:
184,160,116134,1,0,0:0:0:0:
224,152,116241,1,0,0:0:0:0:
272,160,116348,1,0,0:0:0:0:
304,192,116455,1,0,0:0:0:0:
328,232,116562,1,0,0:0:0:0:
344,272,116670,1,0,0:0:0:0:
352,312,116777,6,0,P|416:304|448:280,2,105
216,336,117634,2,0,B|184:328|168:312|160:288|184:280|192:304|176:336|152:344,2,105
256,360,118491,5,0,0:0:0:0:
312,352,118598,1,0,0:0:0:0:
360,328,118705,1,0,0:0:0:0:
400,288,118812,1,0,0:0:0:0:
424,240,118920,1,8,0:0:0:0:
432,184,119027,1,0,0:0:0:0:
408,136,119134,1,0,0:0:0:0:
376,88,119241,1,0,0:0:0:0:
328,64,119348,5,0,0:0:0:0:
272,56,119455,1,0,0:0:0:0:
216,72,119562,1,0,0:0:0:0:
176,104,119670,1,0,0:0:0:0:
160,152,119777,1,8,0:0:0:0:
168,200,119884,1,0,0:0:0:0:
192,248,119991,1,0,0:0:0:0:
232,280,120098,1,0,0:0:0:0:
280,288,120205,5,0,0:0:0:0:
328,272,120312,1,0,0:0:0:0:
352,224,120420,1,0,0:0:0:0:
336,176,120527,1,0,0:0:0:0:
296,136,120634,1,8,0:0:0:0:
248,152,120741,1,0,0:0:0:0:
248,200,120848,1,0,0:0:0:0:
288,216,120955,1,0,0:0:0:0:
424,88,121277,6,8,L|480:40,1,70
496,208,121705,2,0,L|464:232,1,35,8|0,0:0|0:0,0:0:0:0:
352,320,121920,5,0,0:0:0:0:
304,344,122027,1,0,0:0:0:0:
256,352,122134,1,0,0:0:0:0:
208,344,122241,1,0,0:0:0:0:
160,320,122348,1,8,0:0:0:0:
128,280,122455,1,0,0:0:0:0:
112,232,122562,1,0,0:0:0:0:
120,184,122670,1,0,0:0:0:0:
152,136,122777,5,0,0:0:0:0:
192,112,122884,1,0,0:0:0:0:
240,104,122991,1,0,0:0:0:0:
288,120,123098,1,0,0:0:0:0:
328,152,123205,1,8,0:0:0:0:
344,200,123312,1,0,0:0:0:0:
336,256,123420,1,0,0:0:0:0:
296,288,123527,1,0,0:0:0:0:
240,296,123634,6,0,B|136:264|152:112|216:96|288:80|352:136|400:208|320:288|240:288|232:232|208:184|280:184,1,490
255,187,125241,1,4,0:0:0:0:
256,192,125455,12,0,127920,0:0:0:0:
