osu file format v14

[General]
AudioFilename: audio.mp3
AudioLeadIn: 0
PreviewTime: 56774
Countdown: 1
SampleSet: Normal
StackLeniency: 1
Mode: 0
LetterboxInBreaks: 0
WidescreenStoryboard: 1

[Editor]
DistanceSpacing: 1.7
BeatDivisor: 4
GridSize: 8
TimelineZoom: 1.3

[Metadata]
Title:Interlude
TitleUnicode:Interlude
Artist:Attack Attack!
ArtistUnicode:Attack Attack!
Creator:bob80905
Version:Hard
Source:
Tags:Attack Attack Interlude Some day came suddenly
BeatmapID:1109584
BeatmapSetID:515338

[Difficulty]
HPDrainRate:5
CircleSize:4
OverallDifficulty:5.5
ApproachRate:7
SliderMultiplier:1.4
SliderTickRate:1

[Events]
//Background and Video events
0,0,"attack attack.jpg",0,0
//Break Periods
//Storyboard Layer 0 (Background)
//Storyboard Layer 1 (Fail)
//Storyboard Layer 2 (Pass)
//Storyboard Layer 3 (Foreground)
//Storyboard Sound Samples

[TimingPoints]
206.352048625057,428.571428571429,4,1,0,100,1,0
15634,-200,4,1,0,100,0,0
29349,-100,4,1,0,100,0,0
53349,-66.6666666666667,4,1,0,100,0,0
56777,-117.647058823529,4,1,0,100,0,1
58706,-60.6060606060606,4,1,0,100,0,1
59349,-117.647058823529,4,1,0,100,0,1
61277,-80,4,1,0,100,0,1
63634,-66.6666666666667,4,1,0,100,0,0
65349,-153.846153846153,4,1,0,100,0,0
68134,-100,4,1,0,100,0,0
76492,-76.9230769230769,4,1,0,100,0,0
83777,-100,4,1,0,100,0,0
88492,-100,4,1,0,100,0,0
94920,-166.666666666667,4,1,0,100,0,0
95777,-100,4,1,0,100,0,0
114206,-133.333333333333,4,1,0,100,0,0
124492,-83.3333333333333,4,1,0,100,0,0

[Colours]
Combo1 : 63,63,63
Combo2 : 192,192,192
Combo3 : 150,150,150
Combo4 : 102,102,102

[HitObjects]
128,88,1920,5,0,0:0:0:0:
216,312,2349,1,0,0:0:0:0:
400,168,2777,1,0,0:0:0:0:
168,208,3206,1,0,0:0:0:0:
328,32,3634,1,0,0:0:0:0:
496,200,4063,1,0,0:0:0:0:
304,344,4492,1,0,0:0:0:0:
72,280,4920,1,0,0:0:0:0:
248,120,5349,6,0,B|296:128|336:232|336:232,1,140
112,320,6206,2,0,P|56:256|96:232,1,140
200,32,7063,1,0,0:0:0:0:
424,112,7492,1,0,0:0:0:0:
208,208,7920,1,0,0:0:0:0:
376,376,8349,1,0,0:0:0:0:
144,344,8777,6,0,P|112:328|128:232,1,140
232,216,9420,1,0,0:0:0:0:
344,208,9634,2,0,P|400:168|400:88,1,140
304,40,10277,1,0,0:0:0:0:
184,40,10492,2,0,L|40:40,1,140
184,152,11134,1,0,0:0:0:0:
256,248,11349,2,0,L|400:248,1,140
352,360,11992,1,0,0:0:0:0:
240,328,12206,6,0,L|168:328,1,70
232,232,12634,2,0,P|144:232|144:232,1,70
216,128,13063,1,0,0:0:0:0:
184,16,13277,2,0,L|256:16,2,70
280,88,13920,2,0,P|360:48|360:48,1,70
344,176,14349,2,0,L|416:136,1,70
272,264,14777,1,0,0:0:0:0:
360,352,14992,2,0,L|424:320,2,70
272,264,15634,6,0,P|240:208|232:160,1,105
312,144,16492,1,0,0:0:0:0:
368,80,16706,1,0,0:0:0:0:
424,136,16920,1,0,0:0:0:0:
368,200,17134,1,0,0:0:0:0:
400,272,17349,2,0,P|400:328|392:344,1,70
296,320,17992,1,0,0:0:0:0:
176,240,18420,2,0,L|144:216,2,35
280,176,19063,6,0,B|272:120|312:176|336:136,1,70
440,104,19706,2,0,L|448:152,1,35
344,224,20134,2,0,L|352:272,1,35
232,296,20563,1,0,0:0:0:0:
112,296,20777,2,0,B|96:256|80:240|120:184,1,105
400,168,21849,2,0,P|424:168|440:152,2,35
280,176,22492,6,0,B|232:192|248:128,1,70
352,104,23134,1,0,0:0:0:0:
456,160,23349,1,0,0:0:0:0:
336,176,23563,1,0,0:0:0:0:
424,96,23777,1,0,0:0:0:0:
400,216,23992,1,0,0:0:0:0:
400,336,24206,2,0,P|368:336|336:296,1,70
176,264,24849,1,0,0:0:0:0:
64,80,25277,2,0,P|72:64|96:64,2,35
176,160,25920,6,0,P|216:120|248:144,1,105
376,168,26777,1,0,0:0:0:0:
288,232,26992,1,0,0:0:0:0:
384,272,27206,1,0,0:0:0:0:
288,336,27420,1,0,0:0:0:0:
184,320,27634,2,0,P|144:320|152:288,1,70
200,184,28277,1,0,0:0:0:0:
296,120,28492,2,0,L|320:112,2,17.5
304,224,28920,2,0,L|336:216,2,17.5
432,288,29349,6,0,B|432:224|368:216|400:248|488:224|456:160,1,140
408,96,29992,1,0,0:0:0:0:
304,56,30206,1,0,0:0:0:0:
192,56,30420,1,0,0:0:0:0:
104,112,30634,1,0,0:0:0:0:
56,208,30849,1,0,0:0:0:0:
96,312,31063,2,0,P|160:320|176:256,2,140
112,200,32134,2,0,L|152:200,4,35
168,96,32777,6,0,B|208:48|256:40|160:48|256:112,1,140
320,208,33420,1,0,0:0:0:0:
440,184,33634,1,0,0:0:0:0:
360,272,33849,1,0,0:0:0:0:
376,152,34063,1,0,0:0:0:0:
432,256,34277,1,0,0:0:0:0:
368,360,34492,2,0,B|344:328|288:288|224:320|224:320,1,140
168,216,35134,1,0,0:0:0:0:
232,80,35563,2,0,L|296:80,2,35
352,80,35992,1,0,0:0:0:0:
472,96,36206,6,0,L|360:184,1,140
256,128,36849,1,0,0:0:0:0:
256,248,37063,1,0,0:0:0:0:
152,304,37277,1,0,0:0:0:0:
176,184,37492,1,0,0:0:0:0:
232,328,37706,1,0,0:0:0:0:
352,304,37920,2,0,B|400:296|440:272|440:208|440:208,1,140
440,80,38563,1,0,0:0:0:0:
200,80,38992,2,0,L|128:80,2,70
200,184,39634,6,0,B|328:288|160:96|328:192|328:192,1,140
416,120,40277,1,0,0:0:0:0:
488,48,40492,1,0,0:0:0:0:
368,48,40706,1,0,0:0:0:0:
408,192,40920,1,0,0:0:0:0:
328,168,41134,1,0,0:0:0:0:
480,176,41349,2,0,B|480:248|416:272|416:272,1,140
280,280,41992,1,0,0:0:0:0:
40,280,42420,2,0,L|40:320,2,35
88,168,42849,1,0,0:0:0:0:
192,104,43063,6,0,B|232:80|264:160|224:16|200:16|304:136|296:32,1,140
408,88,43706,1,0,0:0:0:0:
296,120,43920,1,0,0:0:0:0:
360,224,44134,1,0,0:0:0:0:
240,240,44349,1,0,0:0:0:0:
176,144,44563,1,0,0:0:0:0:
72,88,44777,2,0,B|80:24|128:8|128:8,1,70
216,48,45206,2,0,P|248:80|264:128,1,70
408,288,45849,2,0,B|440:328|480:288|480:288,2,70
328,200,46492,6,0,P|312:160|224:128,1,140
112,144,47134,1,0,0:0:0:0:
32,64,47349,1,0,0:0:0:0:
152,64,47563,1,0,0:0:0:0:
32,144,47777,1,0,0:0:0:0:
104,240,47992,1,0,0:0:0:0:
200,168,48206,2,0,B|280:184|296:232|192:112|304:160,1,140
408,152,48849,1,0,0:0:0:0:
200,32,49277,2,0,L|240:32,2,35
200,152,49706,1,0,0:0:0:0:
80,168,49920,6,0,P|88:240|136:304,1,140
360,296,50777,2,0,P|400:256|424:160,1,140
256,8,51634,2,0,B|384:32|80:56|328:80|240:112,1,140
256,216,52277,1,0,0:0:0:0:
232,336,52706,2,0,P|256:360|280:336,2,70
344,296,53349,6,0,P|400:272|456:120,1,210.000008010865
160,24,54206,2,0,P|80:80|96:200,1,210.000008010865
136,344,55063,1,0,0:0:0:0:
376,304,55492,1,0,0:0:0:0:
336,72,55920,1,0,0:0:0:0:
200,88,56134,2,0,P|160:96|120:104,1,52.5000020027161
152,232,56456,2,0,L|208:224,1,52.5000020027161
304,216,56777,6,0,B|352:216|360:144|368:288|416:96|424:336|480:112,1,238.00000453949
288,184,58063,1,0,0:0:0:0:
112,288,58492,1,0,0:0:0:0:
104,136,58706,2,0,L|208:136,1,57.7500005507469
272,48,59027,2,0,L|312:120,1,57.7500005507469
368,224,59349,1,0,0:0:0:0:
240,72,59777,1,0,0:0:0:0:
40,40,60206,6,0,B|200:56|-8:208|232:104|208:208,1,238.00000453949
384,272,61492,2,0,L|432:272,4,43.75
160,296,62242,1,0,0:0:0:0:
72,96,62563,1,0,0:0:0:0:
224,96,62777,2,0,B|264:8|304:16|264:160,1,175,0|8,0:0|0:0,0:0:0:0:
64,304,63634,6,0,B|112:304|112:272|64:272|48:280,7,52.5000020027161
152,240,64492,2,0,B|160:192|184:192|184:264,7,52.5000020027161
248,200,65349,2,0,L|304:200,1,45.4999979171754
320,128,65670,2,0,P|368:128|368:128,1,45.4999979171754
416,72,65992,1,0,0:0:0:0:
488,32,66206,2,0,B|512:64|448:96|496:160,1,136.499993751526
440,208,67063,6,0,B|384:128|328:128|328:240,1,181.999991668702
96,136,68349,1,0,0:0:0:0:
96,136,68456,1,0,0:0:0:0:
96,136,68563,1,0,0:0:0:0:
120,264,68777,2,0,L|192:264,1,70
248,264,69099,2,0,L|248:192,1,70
296,152,69420,1,0,0:0:0:0:
392,80,69634,2,0,P|488:64|408:144,1,280
412,147,70706,5,0,0:0:0:0:
480,248,70920,1,0,0:0:0:0:
400,336,71134,6,0,B|328:336|352:320|344:296,1,70
176,144,71777,1,0,0:0:0:0:
296,128,71992,1,0,0:0:0:0:
320,240,72206,1,0,0:0:0:0:
408,16,72634,1,0,0:0:0:0:
256,200,73063,1,0,0:0:0:0:
88,32,73492,1,0,0:0:0:0:
256,200,73920,6,0,L|256:272,1,70
344,152,74349,1,0,0:0:0:0:
160,320,74563,1,0,0:0:0:0:
440,40,75206,1,0,0:0:0:0:
440,160,75420,1,0,0:0:0:0:
440,280,75634,2,0,L|440:328,2,35
320,280,76063,2,0,L|320:320,2,35
200,280,76492,2,0,B|88:280|120:144|216:224,1,181.999991668702
400,88,77349,5,0,0:0:0:0:
352,232,77563,1,0,0:0:0:0:
296,32,77777,1,0,0:0:0:0:
432,256,77992,1,0,0:0:0:0:
48,24,78634,1,0,0:0:0:0:
104,160,78849,1,0,0:0:0:0:
168,304,79063,1,0,0:0:0:0:
280,32,79492,1,0,0:0:0:0:
384,304,79920,1,0,0:0:0:0:
488,32,80349,1,0,0:0:0:0:
200,136,80777,6,0,L|104:136,1,90.9999958343508
104,288,81206,2,0,L|208:288,1,90.9999958343508
195,288,81634,1,0,0:0:0:0:
384,56,82063,1,0,0:0:0:0:
472,184,82277,1,0,0:0:0:0:
392,304,82492,2,0,L|328:304,2,45.4999979171754
288,184,82920,1,0,0:0:0:0:
40,352,83349,1,0,0:0:0:0:
40,128,83777,1,0,0:0:0:0:
256,32,84206,5,0,0:0:0:0:
256,152,84420,1,0,0:0:0:0:
368,112,84634,2,0,B|384:56|416:56|416:112,1,70
144,320,85492,2,0,P|112:344|80:336,1,70
88,224,85920,2,0,L|88:160,2,35
208,224,86349,2,0,L|248:224,2,35
240,336,86777,2,0,B|272:384|304:376|328:288,1,140
416,72,87634,5,0,0:0:0:0:
384,184,87849,1,0,0:0:0:0:
288,88,88063,1,0,0:0:0:0:
480,160,88277,1,0,0:0:0:0:
120,168,88920,6,0,B|96:200|96:200|48:168,1,70
192,168,89349,2,0,L|240:168,2,35
264,264,89777,2,0,L|312:264,2,35
368,328,90206,2,0,B|392:360|392:360|464:272,1,140
256,152,91063,6,0,L|176:152,1,70
184,272,91492,2,0,L|256:272,1,70
496,8,92349,1,0,0:0:0:0:
440,112,92563,1,0,0:0:0:0:
376,208,92777,2,0,B|352:216|352:216|328:192,2,35
240,208,93206,2,0,P|272:160|216:168,1,140
32,16,94063,1,0,0:0:0:0:
272,16,94492,5,0,0:0:0:0:
352,104,94706,1,0,0:0:0:0:
440,200,94920,2,0,B|480:200|504:232|464:264,1,83.9999974365235
248,312,95777,1,0,0:0:0:0:
168,224,95992,1,0,0:0:0:0:
96,128,96206,2,0,L|136:96,2,35
216,152,96634,2,0,L|272:184,2,35
248,264,97063,2,0,L|272:328,8,35
440,120,98349,5,0,0:0:0:0:
200,120,98777,1,0,0:0:0:0:
344,304,99206,1,0,0:0:0:0:
336,64,99634,1,0,0:0:0:0:
160,216,100063,1,0,0:0:0:0:
24,16,100492,1,0,0:0:0:0:
104,104,100706,1,0,0:0:0:0:
224,104,100920,1,0,0:0:0:0:
144,192,101134,1,0,0:0:0:0:
224,104,101349,6,0,B|280:64|280:64|328:128,1,140
384,224,101992,1,0,0:0:0:0:
440,328,102206,2,0,B|472:360|472:360|512:264,1,140
504,152,102849,1,0,0:0:0:0:
504,152,103063,2,0,B|464:56|464:56|416:56|416:56|400:136,1,210
176,48,104134,2,0,L|128:24,2,35
224,160,104563,1,0,0:0:0:0:
112,208,104777,2,0,B|112:152|112:152|136:168|136:168|168:96,1,140
256,48,105420,1,0,0:0:0:0:
336,136,105634,2,0,L|392:192,1,70
312,280,106063,6,0,P|240:296|240:296,1,70
216,176,106492,2,0,B|208:104|208:104|272:128|272:128|264:64|264:64|344:48,1,280
408,144,107563,1,0,0:0:0:0:
304,200,107777,1,0,0:0:0:0:
416,240,107992,1,0,0:0:0:0:
384,352,108206,6,0,B|288:304|288:304|240:344|240:344|240:344,1,140
192,208,108849,1,0,0:0:0:0:
208,96,109063,1,0,0:0:0:0:
272,208,109277,1,0,0:0:0:0:
144,112,109492,1,0,0:0:0:0:
288,144,109706,1,0,0:0:0:0:
128,176,109920,2,0,B|56:176|56:176|56:256|56:256|112:288,1,210
344,304,110992,2,0,L|344:360,2,35
464,304,111420,1,0,0:0:0:0:
464,184,111634,6,0,L|464:136,7,35
392,144,112492,2,0,L|392:104,7,35
320,104,113349,1,0,0:0:0:0:
256,200,113563,2,0,L|216:200,1,35
168,96,113884,6,0,L|120:96,1,35
56,224,114206,2,0,B|56:296|104:320|176:312,1,157.500006008148
312,320,115063,6,0,B|312:232|360:216|368:280|272:272|280:136,1,210.000008010865
104,152,116349,2,0,L|64:120,2,26.2500010013581
256,184,116777,1,0,0:0:0:0:
328,136,116992,2,0,L|376:136,1,26.2500010013581
424,192,117313,2,0,L|456:232,1,26.2500010013581
376,304,117634,2,0,B|336:224|296:216|280:312,1,157.500006008148
160,312,118492,6,0,B|128:280|136:192|232:208,1,157.500006008148
264,152,119349,1,0,0:0:0:0:
296,280,119563,1,0,0:0:0:0:
400,232,119777,2,0,L|416:272,2,26.2500010013581
408,96,120206,2,0,B|408:16|344:16|296:88,1,157.500006008148
88,72,121277,1,0,0:0:0:0:
152,208,121492,1,0,0:0:0:0:
288,112,121706,1,0,0:0:0:0:
328,128,121813,1,0,0:0:0:0:
368,144,121920,6,0,B|416:216|416:216|400:304,1,157.500006008148
328,240,122777,1,0,0:0:0:0:
256,192,122992,1,0,0:0:0:0:
184,144,123206,1,0,0:0:0:0:
184,144,123313,1,0,0:0:0:0:
184,144,123420,1,0,0:0:0:0:
160,216,123634,1,0,0:0:0:0:
256,120,123848,1,0,0:0:0:0:
336,208,124062,1,0,0:0:0:0:
256,296,124276,1,0,0:0:0:0:
128,280,124492,2,0,L|80:280,2,41.9999987182618
224,240,124813,2,0,L|184:288,4,41.9999987182618
256,192,125349,12,0,127063,0:0:0:0:
