osu file format v14

[General]
AudioFilename: audio.mp3
AudioLeadIn: 0
PreviewTime: 56774
Countdown: 1
SampleSet: Normal
StackLeniency: 1
Mode: 0
LetterboxInBreaks: 0
WidescreenStoryboard: 1

[Editor]
DistanceSpacing: 1.1
BeatDivisor: 4
GridSize: 8
TimelineZoom: 1.3

[Metadata]
Title:Interlude
TitleUnicode:Interlude
Artist:Attack Attack!
ArtistUnicode:Attack Attack!
Creator:bob80905
Version:Easy
Source:
Tags:Attack Attack Interlude Some day came suddenly
BeatmapID:1152701
BeatmapSetID:515338

[Difficulty]
HPDrainRate:2.5
CircleSize:2.5
OverallDifficulty:2.5
ApproachRate:3.5
SliderMultiplier:0.800000005960464
SliderTickRate:1

[Events]
//Background and Video events
0,0,"attack attack.jpg",0,0
//Break Periods
//Storyboard Layer 0 (Background)
//Storyboard Layer 1 (Fail)
//Storyboard Layer 2 (Pass)
//Storyboard Layer 3 (Foreground)
//Storyboard Sound Samples

[TimingPoints]
206.352048625057,428.571428571429,4,1,0,100,1,0
15634,-133.333333333333,4,1,0,100,0,0
29349,-86.9565217391303,4,1,0,100,0,0
56777,-105.263157894737,4,1,0,100,0,1
63634,-95.2380952380952,4,1,0,100,0,0
83777,-100,4,1,0,100,0,0
86777,-200,4,1,0,100,0,0
88492,-100,4,1,0,100,0,0
111634,-100,4,1,0,100,0,1
118492,-133.333333333333,4,1,0,100,0,0
120206,-100,4,1,0,100,0,0

[Colours]
Combo1 : 63,63,63
Combo2 : 192,192,192
Combo3 : 150,150,150
Combo4 : 102,102,102

[HitObjects]
48,88,1920,6,0,P|96:32|168:64,1,160.000001192093
384,280,3634,2,0,P|480:240|472:216,1,160.000001192093
256,224,5349,2,0,B|184:176|248:160|288:192|256:80,1,160.000001192093
48,312,7063,2,0,B|88:240|88:240|120:280|168:232,1,160.000001192093
40,80,8777,5,0,0:0:0:0:
256,80,9634,1,0,0:0:0:0:
152,248,10492,2,0,L|232:288,2,80.0000005960464
328,144,12206,6,0,L|480:88,1,160.000001192093
80,144,13920,1,0,0:0:0:0:
168,144,14349,1,0,0:0:0:0:
256,144,14777,1,0,0:0:0:0:
448,72,15634,6,0,L|448:200,1,120.000005471707
320,144,17349,2,0,L|216:224,1,120.000005471707
128,232,19063,2,0,P|24:168|80:120,1,240.000010943413
256,192,21634,1,0,0:0:0:0:
464,80,22492,6,0,L|464:152,1,60.0000027358533
352,144,23777,1,0,0:0:0:0:
224,144,24206,2,0,L|160:144,1,60.0000027358533
88,240,25277,2,0,L|88:280,3,30.0000013679266
312,224,26777,1,0,0:0:0:0:
440,104,27634,2,0,B|360:48|360:48|320:120|248:32,1,240.000010943413
120,144,30206,5,0,0:0:0:0:
336,160,31063,1,0,0:0:0:0:
136,304,31920,2,0,L|312:232,1,184.000004880428
432,304,33634,1,0,0:0:0:0:
336,136,34492,2,0,P|280:64|224:112,1,184.000004880428
72,96,36206,5,0,0:0:0:0:
88,264,37063,1,0,0:0:0:0:
176,160,37920,2,0,P|240:168|248:72,1,184.000004880428
376,88,39634,6,0,L|376:192,1,92.0000024402141
304,248,40920,1,0,0:0:0:0:
184,296,41349,2,0,L|24:176,1,184.000004880428
200,56,43063,1,0,0:0:0:0:
456,56,43920,1,0,0:0:0:0:
336,168,44777,5,0,0:0:0:0:
336,328,45634,1,0,0:0:0:0:
176,312,46492,2,0,L|160:208,1,92.0000024402141
192,104,47349,1,0,0:0:0:0:
304,160,47777,1,0,0:0:0:0:
416,96,48206,2,0,B|448:136|448:136|400:160|400:160|456:216,1,184.000004880428
232,64,49920,6,0,P|136:56|104:128,1,184.000004880428
328,112,51634,2,0,P|440:120|472:176,1,184.000004880428
128,288,53349,1,0,0:0:0:0:
400,272,54206,1,0,0:0:0:0:
256,304,55063,2,0,B|240:288|240:288|272:280|272:280|240:264|240:264|272:256|272:256|248:240|248:240|272:232|272:232,1,184.000004880428
40,144,56777,6,0,P|112:64|192:192,1,303.999994147301
448,320,59349,1,0,0:0:0:0:
408,240,60206,2,0,B|312:184|312:184|296:128,1,151.99999707365
200,112,61920,2,0,B|128:128|128:128|192:184,1,151.99999707365
344,224,63634,6,0,B|424:256|424:256|456:344,1,167.999996124744
240,312,65349,1,0,0:0:0:0:
72,224,66206,1,0,0:0:0:0:
80,96,67063,2,0,P|144:64|168:144,1,167.999996124744
272,184,68777,2,0,B|344:176|344:176|320:272,1,167.999996124744
80,288,70492,6,0,L|136:296,3,41.9999990311861
96,200,72206,2,0,L|96:32,1,167.999996124744
376,64,73920,2,0,L|416:96,3,41.9999990311861
464,232,75634,2,0,P|416:288|368:232,1,167.999996124744
264,144,77349,2,0,L|224:104,3,41.9999990311861
88,304,79063,2,0,L|256:304,1,167.999996124744
448,152,80777,2,0,L|448:96,3,41.9999990311861
256,120,82492,2,0,B|176:144|176:144|160:64|160:64|104:56|104:56|56:48,1,251.999994187117
56,184,84206,6,0,L|192:280,1,160.000001192093
304,288,85920,2,0,L|456:216,1,160.000001192093
200,104,87634,2,0,L|120:104,1,80.0000005960464
400,96,89349,2,0,L|400:256,1,160.000001192093
248,304,91063,6,0,B|160:248|160:248|128:192,1,160.000001192093
96,88,92777,1,0,0:0:0:0:
328,96,93634,1,0,0:0:0:0:
464,224,94492,2,0,L|312:296,1,160.000001192093
184,240,96206,2,0,L|128:184,3,80.0000005960464
240,128,97920,6,0,L|336:104,1,80.0000005960464
472,280,99206,1,0,0:0:0:0:
344,280,99634,2,0,L|168:272,1,160.000001192093
80,200,101349,6,0,L|88:112,1,80.0000005960464
352,144,102634,1,0,0:0:0:0:
480,176,103063,2,0,P|448:248|368:256,1,160.000001192093
40,320,104777,6,0,L|136:320,1,80.0000005960464
312,160,106063,1,0,0:0:0:0:
456,136,106492,2,0,L|416:224,1,80.0000005960464
144,240,107777,1,0,0:0:0:0:
80,104,108206,6,0,L|168:104,1,80.0000005960464
160,272,109492,1,0,0:0:0:0:
328,304,109920,2,0,P|408:296|440:224,1,160.000001192093
440,144,111634,6,0,P|376:88|296:96,1,160.000001192093
144,112,113349,2,0,L|64:128,2,80.0000005960464
320,208,115063,2,0,P|400:232|416:304,1,160.000001192093
184,320,116777,2,0,P|128:304|128:280,2,80.0000005960464
192,104,118492,5,0,0:0:0:0:
408,104,119349,1,0,0:0:0:0:
272,224,120206,1,0,0:0:0:0:
72,328,121063,1,0,0:0:0:0:
336,320,121920,6,0,P|448:320|504:304,1,160.000001192093
224,88,123634,2,0,L|176:112,3,40.0000002980232
120,160,124492,2,0,P|88:192|136:288,1,160.000001192093
256,192,125349,12,0,128349,0:0:0:0:
