osu file format v14

[General]
AudioFilename: audio.mp3
AudioLeadIn: 0
PreviewTime: 50688
Countdown: 0
SampleSet: Soft
StackLeniency: 0.2
Mode: 0
LetterboxInBreaks: 0
WidescreenStoryboard: 1

[Editor]
Bookmarks: 1532,7726,23210,35597,51081,63462,78946,82042,97526,109913,125397,128518
DistanceSpacing: 1.1
BeatDivisor: 4
GridSize: 32
TimelineZoom: 2.550002

[Metadata]
Title:Kessen
TitleUnicode:決戦
Artist:Atsushi
ArtistUnicode:篤志
Creator:Yusomi
Version:Ultra
Source:Cytus II
Tags:Muya Cubby Lv9 Firika Shota on osu Cubbby sakura blossom instrumental video game
BeatmapID:2319009
BeatmapSetID:1094459

[Difficulty]
HPDrainRate:5
CircleSize:5
OverallDifficulty:8.8
ApproachRate:9.6
SliderMultiplier:2
SliderTickRate:1

[Events]
//Background and Video events
0,0,"Konachan.com - 301609.jpg",0,0
//Break Periods
//Storyboard Layer 0 (Background)
//Storyboard Layer 1 (Fail)
//Storyboard Layer 2 (Pass)
//Storyboard Layer 3 (Foreground)
//Storyboard Layer 4 (Overlay)
//Storyboard Sound Samples

[TimingPoints]
749,387.096774193548,4,2,1,30,1,0
1426,-100,4,2,1,5,0,0
1524,387.096774193548,4,2,1,60,1,0
1524,-33.3333333333333,4,2,1,80,0,0
1620,-33.3333333333333,4,2,1,5,0,0
1911,-33.3333333333333,4,2,1,60,0,0
2878,-33.3333333333333,4,2,1,80,0,0
2975,-33.3333333333333,4,2,1,5,0,0
3072,-33.3333333333333,4,2,1,80,0,0
3169,-33.3333333333333,4,2,1,5,0,0
3459,-33.3333333333333,4,2,2,60,0,0
4427,-33.3333333333333,4,2,1,80,0,0
4523,-33.3333333333333,4,2,1,5,0,0
4620,-33.3333333333333,4,2,1,80,0,0
4717,-33.3333333333333,4,2,1,5,0,0
5007,-100,4,2,1,60,0,0
5104,-100,4,2,1,5,0,0
5201,-33.3333333333333,4,2,1,80,0,0
5298,-33.3333333333333,4,2,1,5,0,0
5394,-33.3333333333333,4,2,1,80,0,0
5491,-33.3333333333333,4,2,1,5,0,0
5588,-33.3333333333333,4,2,1,60,0,0
5975,-33.3333333333333,4,2,1,80,0,0
6072,-33.3333333333333,4,2,1,5,0,0
6169,-33.3333333333333,4,2,2,60,0,0
6362,-100,4,2,2,60,0,0
6556,-100,4,2,1,60,0,0
6653,-100,4,2,1,5,0,0
6749,-100,4,2,1,60,0,0
6846,-100,4,2,1,5,0,0
6943,-100,4,2,1,60,0,0
7717,-35.7142857142857,4,2,1,60,0,0
8104,-66.6666666666667,4,2,1,60,0,0
8491,-100,4,2,1,60,0,0
8782,-100,4,2,1,5,0,0
8878,-66.6666666666667,4,2,1,60,0,0
8975,-100,4,2,1,5,0,0
9072,-43.4782608695652,4,2,1,60,0,0
9265,-133.333333333333,4,2,1,60,0,0
9556,-100,4,2,1,5,0,0
9653,-133.333333333333,4,2,1,60,0,0
9846,-133.333333333333,4,2,2,60,0,0
10814,-35.7142857142857,4,2,1,60,0,0
11201,-66.6666666666667,4,2,1,60,0,0
11588,-100,4,2,1,60,0,0
11878,-100,4,2,1,5,0,0
11975,-66.6666666666667,4,2,1,60,0,0
12072,-100,4,2,1,5,0,0
12169,-43.4782608695652,4,2,1,60,0,0
12362,-43.4782608695652,4,2,2,60,0,0
13330,-100,4,2,2,60,0,0
13427,-100,4,2,1,5,0,0
13523,-43.4782608695652,4,2,1,60,0,0
13669,-43.4782608695652,4,2,1,5,0,0
13717,-60.6796116504854,4,2,1,60,0,0
13911,-35.7142857142857,4,2,1,60,0,0
14298,-66.6666666666667,4,2,1,60,0,0
14685,-100,4,2,1,60,0,0
14975,-100,4,2,1,5,0,0
15072,-66.6666666666667,4,2,1,60,0,0
15169,-100,4,2,1,5,0,0
15265,-43.4782608695652,4,2,1,60,0,0
15459,-133.333333333333,4,2,1,60,0,0
15749,-133.333333333333,4,2,1,5,0,0
15846,-133.333333333333,4,2,1,60,0,0
16040,-133.333333333333,4,2,2,60,0,0
17007,-35.7142857142857,4,2,1,60,0,0
17394,-66.6666666666667,4,2,1,60,0,0
17782,-100,4,2,1,60,0,0
18072,-100,4,2,1,5,0,0
18169,-66.6666666666667,4,2,1,60,0,0
18265,-100,4,2,1,5,0,0
18362,-43.4782608695652,4,2,1,60,0,0
18556,-66.6666666666667,4,2,2,60,0,0
19330,-66.6666666666667,4,2,1,60,0,0
19427,-66.6666666666667,4,2,1,5,0,0
19523,-66.6666666666667,4,2,1,65,0,0
19620,-66.6666666666667,4,2,1,5,0,0
19717,-66.6666666666667,4,2,1,70,0,0
19814,-66.6666666666667,4,2,1,5,0,0
19911,-66.6666666666667,4,2,1,75,0,0
20007,-66.6666666666667,4,2,1,5,0,0
20104,-43.4782608695652,4,2,1,80,0,1
20201,-43.4782608695652,4,2,1,5,0,1
20298,-43.4782608695652,4,2,1,80,0,1
20394,-43.4782608695652,4,2,1,5,0,1
20491,-43.4782608695652,4,2,1,80,0,1
20588,-43.4782608695652,4,2,1,5,0,1
20685,-100,4,2,1,80,0,1
20782,-43.4782608695652,4,2,1,5,0,1
20878,-43.4782608695652,4,2,1,80,0,1
20975,-43.4782608695652,4,2,1,5,0,1
21072,-100,4,2,1,80,0,1
21169,-43.4782608695652,4,2,1,5,0,1
21265,-43.4782608695652,4,2,1,80,0,1
21362,-43.4782608695652,4,2,1,5,0,1
21459,-43.4782608695652,4,2,1,80,0,1
21653,-43.4782608695652,4,2,1,75,0,0
21749,-66.6666666666667,4,2,1,5,0,0
22233,-100,4,2,1,60,0,0
22330,-66.6666666666667,4,2,1,5,0,0
22427,-43.4782608695652,4,2,1,60,0,0
22523,-66.6666666666667,4,2,1,5,0,0
22814,-43.4782608695652,4,2,2,60,0,0
23201,-25,4,2,1,60,0,0
23588,-133.333333333333,4,2,2,60,0,0
23927,-66.6666666666667,4,2,2,5,0,0
23975,-133.333333333333,4,2,2,60,0,0
24120,-66.6666666666667,4,2,2,5,0,0
24169,-133.333333333333,4,2,2,60,0,0
24701,-66.6666666666667,4,2,2,5,0,0
24749,-133.333333333333,4,2,2,60,0,0
24894,-66.6666666666667,4,2,2,5,0,0
24943,-133.333333333333,4,2,2,60,0,0
25475,-66.6666666666667,4,2,2,5,0,0
25523,-133.333333333333,4,2,2,60,0,0
25669,-66.6666666666667,4,2,2,5,0,0
25717,-133.333333333333,4,2,2,60,0,0
25765,-133.333333333333,4,2,2,30,0,0
25911,-100,4,2,2,60,0,0
26056,-66.6666666666667,4,2,1,5,0,0
26104,-66.6666666666667,4,2,2,60,0,0
26249,-66.6666666666667,4,2,1,5,0,0
26298,-60.6060606060606,4,2,2,60,0,0
26443,-66.6666666666667,4,2,1,5,0,0
26491,-80,4,2,2,60,0,0
26685,-133.333333333333,4,2,2,60,0,0
27023,-66.6666666666667,4,2,1,5,0,0
27072,-133.333333333333,4,2,2,60,0,0
27217,-66.6666666666667,4,2,1,5,0,0
27265,-133.333333333333,4,2,2,60,0,0
27798,-66.6666666666667,4,2,1,5,0,0
27846,-133.333333333333,4,2,2,60,0,0
27991,-66.6666666666667,4,2,1,5,0,0
28040,-133.333333333333,4,2,2,60,0,0
28088,-133.333333333333,4,2,2,30,0,0
28233,-133.333333333333,4,2,2,60,0,0
28959,-66.6666666666667,4,2,1,5,0,0
29007,-133.333333333333,4,2,2,60,0,0
29394,-58.8235294117647,4,2,2,60,0,0
29540,-66.6666666666667,4,2,1,5,0,0
29588,-58.8235294117647,4,2,2,60,0,0
29782,-83.3333333333333,4,2,2,60,0,0
30943,-100,4,2,2,60,0,0
31233,-66.6666666666667,4,2,2,5,0,0
31330,-100,4,2,2,60,0,0
31959,-100,4,2,2,30,0,0
32104,-74.0740740740741,4,2,2,60,0,0
32249,-66.6666666666667,4,2,2,5,0,0
32298,-60.6060606060606,4,2,2,60,0,0
32878,-83.3333333333333,4,2,2,60,0,0
34330,-66.6666666666667,4,2,1,5,0,0
34427,-83.3333333333333,4,2,2,60,0,0
34523,-66.6666666666667,4,2,1,5,0,0
34620,-83.3333333333333,4,2,2,60,0,0
34814,-66.6666666666667,4,2,2,60,0,0
34911,-66.6666666666667,4,2,1,5,0,0
35007,-50,4,2,2,60,0,0
35104,-66.6666666666667,4,2,1,5,0,0
35201,-40,4,2,2,60,0,0
35588,-133.333333333333,4,2,1,60,0,0
36265,-66.6666666666667,4,2,1,5,0,0
36362,-57.1428571428571,4,2,1,60,0,0
36491,-57.1428571428571,4,2,2,60,0,0
36943,-57.1428571428571,4,2,1,60,0,0
37136,-166.666666666667,4,2,1,60,0,0
37814,-66.6666666666667,4,2,1,5,0,0
37911,-57.1428571428571,4,2,2,60,0,0
38104,-200,4,2,1,60,0,0
38685,-200,4,2,2,60,0,0
39362,-200,4,2,1,60,0,0
41975,-200,4,2,2,60,0,0
42169,-200,4,2,2,60,0,0
42265,-66.6666666666667,4,2,2,5,0,0
42362,-200,4,2,2,60,0,0
42749,-200,4,2,2,60,0,0
42846,-66.6666666666667,4,2,2,5,0,0
42943,-125,4,2,2,60,0,0
43040,-66.6666666666667,4,2,2,5,0,0
43136,-83.3333333333333,4,2,2,60,0,0
43233,-66.6666666666667,4,2,2,5,0,0
43330,-66.6666666666667,4,2,2,60,0,0
45169,-66.6666666666667,4,2,1,5,0,0
45265,-133.333333333333,4,2,2,60,0,0
45362,-66.6666666666667,4,2,1,5,0,0
45459,-50,4,2,2,60,0,0
45943,-66.6666666666667,4,2,1,5,0,0
46040,-50,4,2,2,60,0,0
46427,-62.5,4,2,2,60,0,0
46717,-133.333333333333,4,2,2,60,0,0
46911,-66.6666666666667,4,2,1,5,0,0
47007,-133.333333333333,4,2,2,60,0,0
47104,-66.6666666666667,4,2,1,5,0,0
47201,-62.5,4,2,2,60,0,0
49136,-200,4,2,2,60,0,0
49427,-66.6666666666667,4,2,1,5,0,0
49523,-66.6666666666667,4,2,2,60,0,0
50298,-200,4,2,2,60,0,0
51072,-66.6666666666667,4,2,1,75,0,1
51362,-66.6666666666667,4,2,1,5,0,1
51459,-66.6666666666667,4,2,1,75,0,1
51653,-100,4,2,1,75,0,1
51846,-66.6666666666667,4,2,1,75,0,1
52523,-66.6666666666667,4,2,1,5,0,1
52620,-66.6666666666667,4,2,1,75,0,1
53007,-100,4,2,1,75,0,1
53104,-100,4,2,1,5,0,1
53201,-100,4,2,1,75,0,1
53394,-66.6666666666667,4,2,1,75,0,1
53878,-100,4,2,1,5,0,1
53975,-66.6666666666667,4,2,1,75,0,1
54072,-100,4,2,1,5,0,1
54169,-100,4,2,1,75,0,1
55330,-66.6666666666667,4,2,1,75,0,1
55717,-50,4,2,1,75,0,1
56588,-100,4,2,1,75,0,0
56878,-100,4,2,2,75,0,0
57265,-66.6666666666667,4,2,1,75,0,1
57556,-100,4,2,1,5,0,1
57653,-66.6666666666667,4,2,1,75,0,1
57846,-133.333333333333,4,2,1,75,0,1
58040,-66.6666666666667,4,2,1,75,0,1
58717,-100,4,2,1,5,0,1
58814,-66.6666666666667,4,2,1,75,0,1
59201,-100,4,2,1,75,0,1
59298,-100,4,2,1,5,0,1
59394,-100,4,2,1,75,0,1
59588,-66.6666666666667,4,2,1,75,0,1
59975,-66.6666666666667,4,2,2,75,0,1
60362,-66.6666666666667,4,2,1,75,0,1
62298,-66.6666666666667,4,2,1,75,0,1
62394,-100,4,2,1,5,0,1
62491,-66.6666666666667,4,2,1,75,0,1
62975,-100,4,2,1,5,0,0
63072,-66.6666666666667,4,2,1,60,0,0
63459,-100,4,2,1,60,0,0
63556,-100,4,2,1,5,0,0
63653,-66.6666666666667,4,2,1,60,0,0
63749,-100,4,2,1,5,0,0
63846,-50,4,2,1,60,0,0
63943,-100,4,2,1,5,0,0
64040,-50,4,2,1,60,0,0
64233,-66.6666666666667,4,2,1,60,0,0
64427,-100,4,2,1,60,0,0
64523,-100,4,2,1,5,0,0
64620,-133.333333333333,4,2,1,60,0,0
64717,-100,4,2,1,5,0,0
64814,-200,4,2,1,60,0,0
64911,-100,4,2,1,5,0,0
65007,-100,4,2,1,60,0,0
66653,-100,4,2,1,5,0,0
66749,-66.6666666666667,4,2,1,60,0,0
66846,-100,4,2,1,5,0,0
66943,-50,4,2,1,60,0,0
67040,-100,4,2,1,5,0,0
67136,-50,4,2,1,60,0,0
67330,-66.6666666666667,4,2,1,60,0,0
67523,-100,4,2,1,60,0,0
67620,-100,4,2,1,5,0,0
67717,-133.333333333333,4,2,1,60,0,0
67814,-100,4,2,1,5,0,0
67911,-200,4,2,1,60,0,0
68007,-100,4,2,1,5,0,0
68104,-100,4,2,2,60,0,0
69653,-50,4,2,1,60,0,0
70233,-100,4,2,1,60,0,0
70427,-66.6666666666667,4,2,1,60,0,0
71104,-100,4,2,1,5,0,0
71201,-66.6666666666667,4,2,1,60,0,0
71298,-100,4,2,1,5,0,0
71394,-66.6666666666667,4,2,1,60,0,0
71588,-100,4,2,1,60,0,0
71685,-100,4,2,1,5,0,0
71782,-100,4,2,1,60,0,0
71975,-66.6666666666667,4,2,1,60,0,0
72459,-100,4,2,1,5,0,0
72556,-66.6666666666667,4,2,1,60,0,0
72653,-100,4,2,1,5,0,0
72749,-100,4,2,1,60,0,0
73911,-66.6666666666667,4,2,1,60,0,0
74007,-100,4,2,1,5,0,0
74104,-66.6666666666667,4,2,1,60,0,0
74298,-50,4,2,1,60,0,0
75459,-50,4,2,2,60,0,0
75846,-50,4,2,1,60,0,0
76620,-40,4,2,1,60,0,0
76911,-100,4,2,1,5,0,0
77007,-40,4,2,1,60,0,0
77104,-100,4,2,1,5,0,0
77201,-40,4,2,1,60,0,0
77394,-40,4,2,1,60,0,0
77491,-100,4,2,1,5,0,0
77588,-40,4,2,1,60,0,0
77685,-100,4,2,1,5,0,0
77782,-40,4,2,1,60,0,0
77878,-100,4,2,1,5,0,0
77975,-40,4,2,1,60,0,0
78169,-33.3333333333333,4,2,1,60,0,0
78265,-100,4,2,1,5,0,0
78362,-303.030303030303,4,2,1,60,0,0
78459,-100,4,2,1,5,0,0
78556,-33.3333333333333,4,2,1,60,0,0
78653,-100,4,2,1,5,0,0
78749,-303.030303030303,4,2,1,60,0,0
78846,-100,4,2,1,5,0,0
78943,-58.5823081429408,4,2,1,60,0,1
81653,-58.8235294117647,4,2,1,60,0,0
81846,-50,4,2,1,60,0,0
81943,-100,4,2,1,5,0,0
82040,-31.25,4,2,1,60,0,0
82427,-66.6666666666667,4,2,1,60,0,0
82669,-100,4,2,1,5,0,0
82717,-66.6666666666667,4,2,1,60,0,0
82814,-100,4,2,1,60,0,0
83104,-100,4,2,1,5,0,0
83201,-66.6666666666667,4,2,1,60,0,0
83298,-100,4,2,1,5,0,0
83394,-43.4782608695652,4,2,1,60,0,0
83588,-111.111111111111,4,2,1,60,0,0
83878,-100,4,2,1,5,0,0
83975,-40,4,2,1,60,0,0
84169,-40,4,2,2,60,0,0
85136,-33.3333333333333,4,2,1,60,0,0
85523,-66.6666666666667,4,2,1,60,0,0
85765,-100,4,2,1,5,0,0
85814,-66.6666666666667,4,2,1,60,0,0
85911,-100,4,2,1,60,0,0
86201,-100,4,2,1,5,0,0
86298,-66.6666666666667,4,2,1,60,0,0
86394,-100,4,2,1,5,0,0
86491,-43.4782608695652,4,2,1,60,0,0
86685,-43.4782608695652,4,2,2,60,0,0
87653,-100,4,2,1,60,0,0
88233,-29.4117647058824,4,2,1,60,0,0
88620,-66.6666666666667,4,2,1,60,0,0
88862,-100,4,2,1,5,0,0
88911,-66.6666666666667,4,2,1,60,0,0
89007,-100,4,2,1,60,0,0
89298,-100,4,2,1,5,0,0
89394,-66.6666666666667,4,2,1,60,0,0
89491,-100,4,2,1,5,0,0
89588,-43.4782608695652,4,2,1,60,0,0
89782,-133.333333333333,4,2,1,60,0,0
90072,-100,4,2,1,5,0,0
90169,-40,4,2,1,60,0,0
91330,-28.5714285714286,4,2,1,60,0,0
91475,-100,4,2,1,5,0,0
91523,-66.6666666666667,4,2,1,60,0,0
91620,-100,4,2,1,5,0,0
91717,-37.7358490566038,4,2,1,60,0,0
91862,-100,4,2,1,5,0,0
91911,-66.6666666666667,4,2,1,60,0,0
92685,-43.4782608695652,4,2,1,60,0,0
92830,-43.4782608695652,4,2,1,5,0,0
92878,-66.6666666666667,4,2,2,60,0,0
93265,-100,4,2,2,60,0,0
93653,-66.6666666666667,4,2,2,60,0,0
93701,-66.6666666666667,4,2,2,30,0,0
93846,-66.6666666666667,4,2,2,65,0,0
93894,-66.6666666666667,4,2,2,30,0,0
94040,-66.6666666666667,4,2,2,70,0,0
94088,-66.6666666666667,4,2,2,30,0,0
94233,-66.6666666666667,4,2,2,75,0,0
94282,-66.6666666666667,4,2,2,30,0,0
94427,-43.4782608695652,4,2,1,80,0,1
94523,-43.4782608695652,4,2,1,5,0,1
94620,-43.4782608695652,4,2,1,80,0,1
94717,-43.4782608695652,4,2,1,5,0,1
94814,-43.4782608695652,4,2,1,80,0,1
94911,-43.4782608695652,4,2,1,5,0,1
95007,-100,4,2,1,80,0,1
95104,-43.4782608695652,4,2,1,5,0,1
95201,-43.4782608695652,4,2,1,80,0,1
95298,-43.4782608695652,4,2,1,5,0,1
95394,-100,4,2,1,80,0,1
95491,-43.4782608695652,4,2,1,5,0,1
95588,-43.4782608695652,4,2,1,80,0,1
95685,-43.4782608695652,4,2,1,5,0,1
95782,-43.4782608695652,4,2,1,80,0,1
95975,-38.4615384615385,4,2,1,80,0,1
96072,-43.4782608695652,4,2,1,5,0,0
96556,-100,4,2,1,60,0,0
96653,-100,4,2,1,5,0,0
96749,-33.3333333333333,4,2,1,60,0,0
96846,-100,4,2,1,5,0,0
97136,-33.3333333333333,4,2,2,60,0,0
97523,-66.6666666666667,4,2,1,75,0,1
97814,-100,4,2,1,5,0,1
97911,-66.6666666666667,4,2,1,75,0,1
98104,-100,4,2,1,75,0,1
98298,-66.6666666666667,4,2,1,75,0,1
98975,-100,4,2,1,5,0,1
99072,-66.6666666666667,4,2,1,75,0,1
99169,-100,4,2,1,5,0,1
99265,-66.6666666666667,4,2,1,75,0,1
99459,-100,4,2,1,75,0,1
99846,-66.6666666666667,4,2,1,75,0,1
100330,-66.6666666666667,4,2,1,5,0,1
100427,-66.6666666666667,4,2,1,75,0,1
100523,-66.6666666666667,4,2,1,5,0,1
100620,-100,4,2,1,75,0,1
101782,-40,4,2,1,75,0,1
101878,-66.6666666666667,4,2,1,5,0,1
101975,-40,4,2,1,75,0,1
102169,-50,4,2,1,75,0,1
103040,-100,4,2,1,75,0,0
103330,-100,4,2,2,75,0,0
103717,-66.6666666666667,4,2,1,75,0,1
104007,-66.6666666666667,4,2,1,5,0,1
104104,-66.6666666666667,4,2,1,75,0,1
104491,-66.6666666666667,4,2,1,75,0,1
104878,-55.5555555555556,4,2,1,75,0,1
105169,-66.6666666666667,4,2,1,5,0,1
105265,-66.6666666666667,4,2,1,75,0,1
105362,-66.6666666666667,4,2,1,5,0,1
105459,-66.6666666666667,4,2,1,75,0,1
105653,-100,4,2,1,75,0,1
105749,-66.6666666666667,4,2,1,5,0,1
105846,-100,4,2,1,75,0,1
106040,-66.6666666666667,4,2,1,75,0,1
106427,-66.6666666666667,4,2,2,75,0,1
106814,-66.6666666666667,4,2,1,75,0,1
108846,-66.6666666666667,4,2,1,5,0,1
108943,-66.6666666666667,4,2,1,75,0,1
109427,-66.6666666666667,4,2,1,5,0,0
109523,-66.6666666666667,4,2,1,60,0,0
109911,-100,4,2,1,60,0,0
110104,-66.6666666666667,4,2,1,60,0,0
110298,-50,4,2,1,60,0,0
110685,-66.6666666666667,4,2,1,60,0,0
110878,-100,4,2,1,60,0,0
111072,-133.333333333333,4,2,1,60,0,0
111265,-200,4,2,1,60,0,0
113007,-100,4,2,1,60,0,0
113201,-66.6666666666667,4,2,1,60,0,0
113394,-50,4,2,1,60,0,0
113782,-66.6666666666667,4,2,1,60,0,0
113975,-100,4,2,1,60,0,0
114169,-133.333333333333,4,2,1,60,0,0
114362,-200,4,2,1,60,0,0
114556,-200,4,2,2,60,0,0
116104,-50,4,2,1,60,0,0
116685,-100,4,2,1,60,0,0
116878,-66.6666666666667,4,2,1,60,0,0
117556,-66.6666666666667,4,2,1,5,0,0
117653,-66.6666666666667,4,2,1,60,0,0
117749,-66.6666666666667,4,2,1,5,0,0
117846,-66.6666666666667,4,2,1,60,0,0
118040,-100,4,2,1,60,0,0
118136,-66.6666666666667,4,2,1,5,0,0
118233,-100,4,2,1,60,0,0
118427,-66.6666666666667,4,2,1,60,0,0
118911,-66.6666666666667,4,2,1,5,0,0
119007,-66.6666666666667,4,2,1,60,0,0
119104,-66.6666666666667,4,2,1,5,0,0
119201,-100,4,2,1,60,0,0
120362,-50,4,2,1,60,0,0
120459,-66.6666666666667,4,2,1,5,0,0
120556,-50,4,2,1,60,0,0
121911,-50,4,2,2,60,0,0
122298,-50,4,2,1,60,0,0
123072,-40,4,2,1,60,0,0
123362,-66.6666666666667,4,2,1,5,0,0
123459,-40,4,2,1,60,0,0
123556,-66.6666666666667,4,2,1,5,0,0
123653,-40,4,2,1,60,0,0
125007,-40,4,2,1,75,0,1
125394,-33.3333333333333,4,2,1,75,0,1
125491,-66.6666666666667,4,2,1,5,0,1
125588,-50,4,2,1,75,0,1
125685,-66.6666666666667,4,2,1,5,0,1
125782,-50,4,2,1,75,0,1
125878,-66.6666666666667,4,2,1,5,0,1
125975,-100,4,2,1,75,0,1
126072,-66.6666666666667,4,2,1,5,0,1
126169,-40,4,2,1,75,0,1
126265,-66.6666666666667,4,2,1,5,0,1
126362,-100,4,2,1,75,0,1
126459,-66.6666666666667,4,2,1,5,0,1
126556,-40,4,2,1,75,0,1
126653,-66.6666666666667,4,2,1,5,0,1
126749,-40,4,2,1,75,0,1
127040,-66.6666666666667,4,2,1,5,0,1
127523,-100,4,2,1,75,0,1
127620,-66.6666666666667,4,2,1,5,0,1
127717,-33.3333333333333,4,2,1,75,0,1
127911,-66.6666666666667,4,2,1,5,0,0

[Colours]
Combo1 : 245,226,222
Combo2 : 198,59,98

[HitObjects]
91,263,749,6,0,B|91:291|118:306|118:306|76:62|76:62|100:81|96:113,1,350
51,162,1524,6,0,P|118:195|181:238,1,150.000005722046,4|0,3:2|0:0,0:0:0:0:
180,237,1911,5,2,0:0:0:0:
255,292,2201,1,0,0:0:0:0:
256,384,2491,1,2,0:0:0:0:
256,379,2685,5,2,0:0:0:0:
331,238,2878,6,0,P|393:196|460:163,1,150.000005722046,0|0,3:0|0:0,0:0:0:0:
365,314,3072,2,0,P|437:293|512:282,1,150.000005722046,0|0,3:0|0:0,0:0:0:0:
392,161,3459,5,0,0:0:0:0:
394,168,3556,1,0,0:0:0:0:
463,167,3653,5,0,0:0:0:0:
463,218,3749,1,0,0:0:0:0:
421,233,3846,1,0,0:0:0:0:
403,278,3943,1,0,0:0:0:0:
342,252,4040,1,0,0:0:0:0:
313,279,4136,1,0,0:0:0:0:
274,246,4233,1,0,0:0:0:0:
238,270,4330,1,0,0:0:0:0:
180,238,4427,6,0,P|118:196|51:163,1,150.000005722046,0|0,3:0|0:0,0:0:0:0:
146,314,4621,2,0,P|74:293|0:282,1,150.000005722046,0|0,3:0|0:0,0:0:0:0:
256,160,5007,6,0,L|256:96,1,50,2|0,0:0|0:0,0:0:0:0:
460,163,5201,6,0,P|393:196|331:238,1,150.000005722046,0|0,3:0|0:0,0:0:0:0:
512,282,5395,2,0,P|437:293|365:314,1,150.000005722046,0|0,3:0|0:0,0:0:0:0:
256,384,5588,1,2,0:0:0:0:
256,379,5782,5,2,0:0:0:0:
258,290,5975,6,0,B|275:248|253:201|217:195|217:195|208:213|215:228,1,150.000005722046,4|0,3:2|0:0,0:0:0:0:
187,288,6169,5,2,0:0:0:0:
117,278,6265,1,2,0:0:0:0:
191,291,6362,2,0,P|167:298|142:299,1,50,2|0,3:2|0:0,0:0:0:0:
14,221,6556,2,0,P|37:228|62:229,1,50,2|0,3:2|0:0,0:0:0:0:
224,117,6749,2,0,P|200:124|175:125,1,50,2|0,3:2|0:0,0:0:0:0:
74,37,6943,5,2,3:2:0:0:
65,38,7040,1,0,3:0:0:0:
56,40,7136,1,0,3:0:0:0:
47,42,7233,1,0,3:0:0:0:
349,43,7330,5,6,3:2:0:0:
350,48,7717,6,2,B|350:83|380:102|412:101|412:101|331:109|332:193|382:222|424:204,1,279.999991455078,4|0,3:0|0:0,0:1:0:0:
420,206,8104,6,0,P|357:167|287:187,1,150.000005722046,8|0,0:0|0:0,0:0:0:0:
187,152,8394,1,2,0:0:0:0:
240,194,8491,6,0,P|264:195|287:186,1,50,2|0,3:2|0:0,0:0:0:0:
420,206,8685,2,0,P|410:182|412:158,1,50,2|0,0:0|0:0,0:0:0:0:
279,286,8878,6,0,P|315:276|346:255,1,75.0000028610231,8|0,0:0|0:0,0:0:0:0:
210,20,9072,6,0,P|243:65|254:121,1,115.000002193451,0|0,3:0|0:0,0:0:0:0:
219,333,9265,6,0,B|187:321|167:342|167:342|147:361|114:349,1,112.500004291535,4|0,3:0|0:0,0:0:0:0:
109,345,9653,5,10,0:2:0:0:
133,162,9846,1,2,0:0:0:0:
57,134,9943,1,2,0:0:0:0:
116,86,10040,5,0,3:0:0:0:
129,88,10137,1,2,0:0:0:0:
208,66,10233,1,2,0:0:0:0:
224,89,10330,1,0,0:0:0:0:
299,128,10426,1,8,0:0:0:0:
292,164,10523,1,0,0:0:0:0:
328,248,10620,1,2,0:0:0:0:
288,280,10717,1,2,0:0:0:0:
406,257,10814,6,2,B|396:214|425:181|425:181|426:103|367:73|367:73|362:113|394:132,1,279.999991455078,4|0,3:0|0:0,0:1:0:0:
453,91,11201,6,0,P|410:151|342:180,1,150.000005722046,8|0,0:0|0:0,0:0:0:0:
332,255,11491,1,2,0:0:0:0:
342,180,11588,6,0,P|323:162|307:136,1,50,2|0,3:2|0:0,0:0:0:0:
188,17,11782,2,0,P|173:37|155:54,1,50,2|0,0:0|0:0,0:0:0:0:
215,214,11975,6,0,P|213:172|208:139,1,75.0000028610231,8|0,0:0|0:0,0:0:0:0:
17,0,12169,6,0,P|42:51|55:107,1,115.000002193451,0|0,3:0|0:0,0:0:0:0:
86,375,12362,5,4,3:0:0:0:
107,308,12459,1,0,0:0:0:0:
44,280,12555,1,2,0:0:0:0:
65,288,12652,1,0,0:0:0:0:
80,309,12749,1,8,0:0:0:0:
16,194,12942,5,2,0:0:0:0:
88,224,13040,1,2,0:0:0:0:
19,198,13136,1,0,3:0:0:0:
29,177,13233,1,2,0:0:0:0:
47,162,13330,2,0,P|69:152|94:151,1,50,2|0,0:0|0:0,0:0:0:0:
256,292,13523,6,0,B|270:167|270:167|247:220,1,172.500003290176,10|0,0:2|0:0,0:0:0:0:
251,210,13717,6,0,L|256:299,1,82.4000006035156,2|0,0:0|0:0,0:0:0:0:
133,347,13911,6,2,B|168:370|192:354|184:347|232:339|256:382|256:382|279:339|327:347|319:354|343:370|382:354,1,279.999991455078,4|0,3:0|0:0,0:1:0:0:
384,353,14298,6,0,B|364:278|364:278|429:247,1,150.000005722046,8|0,0:0|0:0,0:0:0:0:
494,237,14588,1,2,0:0:0:0:
429,247,14685,6,0,L|416:168,1,50,2|0,3:2|0:0,0:0:0:0:
464,365,14878,2,0,L|472:315,1,50,2|0,0:0|0:0,0:0:0:0:
491,46,15072,6,0,B|500:69|500:69|483:116,1,75.0000028610231,8|0,0:0|0:0,0:0:0:0:
251,258,15265,6,0,P|297:234|320:178,1,115.000002193451,0|0,3:0|0:0,0:0:0:0:
405,95,15459,6,0,B|414:85|418:72|418:72|378:111|341:104,1,112.500004291535,4|0,3:0|0:0,0:0:0:0:
337,103,15846,5,8,0:0:0:0:
59,91,16040,1,2,0:0:0:0:
76,8,16136,1,2,0:0:0:0:
125,61,16233,5,0,3:0:0:0:
131,73,16330,1,2,0:0:0:0:
203,121,16427,1,2,0:0:0:0:
200,149,16524,1,0,0:0:0:0:
244,217,16620,1,8,0:0:0:0:
216,254,16717,1,0,0:0:0:0:
224,336,16814,1,2,0:0:0:0:
175,361,16911,1,2,0:0:0:0:
284,289,17007,6,2,B|332:234|421:281|398:357|398:357|372:389|331:363|335:333,1,279.999991455078,4|0,3:0|0:0,0:1:0:0:
335,333,17394,6,0,B|359:291|340:256|340:256|320:225|337:190,1,150.000005722046,8|0,0:0|0:0,0:0:0:0:
393,143,17685,1,2,0:0:0:0:
319,144,17782,6,0,P|324:168|336:189,1,50,2|0,3:2|0:0,0:0:0:0:
456,109,17975,2,0,P|441:89|421:76,1,50,2|0,0:0|0:0,0:0:0:0:
209,278,18169,6,0,L|283:288,1,75.0000028610231,8|0,0:0|0:0,0:0:0:0:
479,8,18362,6,0,P|446:53|456:108,1,115.000002193451,0|0,3:0|0:0,0:0:0:0:
426,375,18556,5,4,3:0:0:0:
405,308,18653,1,0,0:0:0:0:
468,280,18749,1,2,0:0:0:0:
447,288,18846,1,0,0:0:0:0:
432,309,18943,1,8,0:0:0:0:
348,247,19136,2,0,P|378:225|415:219,1,75.0000028610231,2|2,0:0|0:0,0:0:0:0:
465,162,19330,6,0,P|431:145|394:145,1,75.0000028610231,0|0,3:0|0:0,0:0:0:0:
320,62,19523,2,0,B|331:27|331:27|365:9,1,75.0000028610231,0|0,3:2|0:0,0:0:0:0:
256,192,19717,2,0,L|256:288,1,75.0000028610231,0|0,3:0|0:0,0:0:0:0:
192,62,19911,2,0,B|180:27|180:27|146:9,1,75.0000028610231,0|0,3:0|0:0,0:0:0:0:
46,162,20104,6,0,P|100:142|154:156,1,115.000002193451,4|0,3:2|0:0,0:0:0:0:
275,332,20298,2,0,B|284:364|255:380|255:380|226:364|236:332,1,115.000002193451,8|0,0:0|0:0,0:0:0:0:
358,155,20491,2,0,P|412:142|466:162,1,115.000002193451,0|0,3:0|0:0,0:0:0:0:
365,276,20685,6,0,L|327:242,1,50,0|0,3:2|0:0,0:0:0:0:
192,62,20878,6,2,B|145:69|145:69|139:66|139:66|78:73,1,115.000002193451,8|0,3:2|0:0,0:1:0:0:
147,276,21072,6,0,L|185:242,1,50,0|0,3:2|0:0,0:0:0:0:
320,62,21265,6,2,B|367:69|367:69|373:66|373:66|433:73,1,115.000002193451,8|0,3:2|0:0,0:1:0:0:
224,160,21459,5,8,0:0:0:0:
288,160,21556,1,8,0:0:0:0:
256,240,21653,6,2,B|256:292|256:292|252:296|252:296|260:296|260:296|256:300|256:300|256:356,1,115.000002193451,4|0,3:2|0:0,0:1:0:0:
260,346,22233,6,0,L|256:296,1,50,0|0,3:0|0:0,0:0:0:0:
312,85,22427,6,2,B|274:103|236:66|198:85,1,115.000002193451,0|0,3:0|0:0,0:1:0:0:
511,16,22814,5,2,0:2:0:0:
38,44,23201,6,0,B|82:32|110:63|110:63|35:294|35:294|62:325|107:313,1,400,4|0,3:0|0:0,0:0:0:0:
109,318,23588,5,0,3:0:0:0:
155,253,23782,2,0,P|175:272|186:297,1,56.2500021457673,2|0,0:0|0:0,0:0:0:0:
189,302,23975,2,0,P|208:281|233:270,1,56.2500021457673,2|0,3:2|0:0,0:0:0:0:
203,203,24169,1,0,0:0:0:0:
206,207,24362,1,0,3:0:0:0:
302,237,24556,2,0,P|309:263|306:290,1,56.2500021457673,2|0,0:0|0:0,0:0:0:0:
309,295,24749,2,0,P|335:286|363:289,1,56.2500021457673,2|0,3:2|0:0,0:0:0:0:
369,222,24943,1,0,0:0:0:0:
372,226,25136,1,0,3:0:0:0:
439,295,25330,2,0,P|432:321|416:343,1,56.2500021457673,2|0,0:0|0:0,0:0:0:0:
418,348,25523,2,0,P|445:353|467:370,1,56.2500021457673,2|0,3:2|0:0,0:0:0:0:
470,374,25717,2,0,P|471:364|474:355,2,18.7500007152558,2|0|0,0:0|0:0|0:0,0:0:0:0:
511,295,25911,6,0,P|502:259|475:234,1,75,2|0,3:2|0:0,0:0:0:0:
478,238,26104,2,0,P|458:187|488:142,1,112.500004291535,2|0,0:0|0:0,0:0:0:0:
490,146,26298,6,0,L|495:20,1,123.750001180172,4|0,3:2|0:0,0:0:0:0:
487,20,26491,6,0,L|488:52,1,31.25
416,93,26685,5,0,3:0:0:0:
356,44,26878,2,0,B|337:66|337:66|339:93,1,56.2500021457673,2|0,0:0|0:0,0:0:0:0:
343,95,27072,2,0,B|320:76|320:76|293:78,1,56.2500021457673,2|0,3:2|0:0,0:0:0:0:
294,7,27265,1,0,0:0:0:0:
297,11,27459,1,0,3:0:0:0:
301,150,27653,2,0,B|295:178|295:178|311:200,1,56.2500021457673,2|0,0:0|0:0,0:0:0:0:
314,204,27847,2,0,B|285:198|285:198|263:214,1,56.2500021457673,2|0,3:2|0:0,0:0:0:0:
266,217,28040,2,0,B|267:207|267:207|262:200,2,18.7500007152558
227,135,28233,1,2,3:2:0:0:
173,241,28427,5,2,0:0:0:0:
155,281,28523,1,2,0:0:0:0:
110,288,28620,1,2,3:2:0:0:
88,190,28814,2,0,L|81:120,1,56.2500021457673,2|0,0:0|0:0,0:0:0:0:
85,138,29007,2,0,L|64:136,1,12.5000004768372,2|0,3:2|0:0,0:0:0:0:
10,261,29201,1,2,0:0:0:0:
237,296,29394,6,0,B|308:283|288:333|357:317,1,127.50000243187,4|0,3:2|0:0,0:0:0:0:
371,310,29588,5,0,0:0:0:0:
386,249,29636,5,0,0:0:0:0:
461,97,29782,6,0,B|455:110|455:110|465:120|465:120|445:156|472:187|472:187|506:221|500:288|456:313,2,239.999992675781,10|2|10,0:2|3:2|0:0,0:0:0:0:
465,21,30749,1,0,0:0:0:0:
468,24,30943,6,0,B|431:19|405:43|405:43|393:41|393:41|365:64|327:58,1,150,2|0,3:2|0:0,0:0:0:0:
330,62,31330,1,8,0:0:0:0:
90,51,31523,2,0,P|136:35|179:57,1,100,0|0,0:0|3:0,0:0:0:0:
306,135,31911,2,0,L|335:140,2,25
202,127,32104,6,0,P|232:111|250:81,1,67.5000002574921,10|0,0:0|0:0,0:0:0:0:
286,209,32298,6,2,B|273:187|240:187|240:187|208:209|160:197|143:163,1,165.000001573563,2|4,0:0|3:2,0:1:0:0:
33,324,32878,6,0,B|41:320|41:320|50:325|50:325|66:315|66:315|106:294|159:317|136:329|192:375|255:329,2,239.999992675781,10|2|10,0:0|3:2|0:0,0:0:0:0:
204,266,33846,1,0,0:0:0:0:
377,336,34040,5,2,3:2:0:0:
434,384,34088,6,0,P|411:312|405:238,1,149.999995422363,2|0,0:0|0:0,0:0:0:0:
450,184,34427,2,0,P|468:207|474:236,1,59.9999981689454,8|0,0:0|0:0,0:0:0:0:
500,315,34620,1,0,0:0:0:0:
506,317,34717,1,0,0:0:0:0:
512,318,34814,6,0,L|438:301,1,75.0000028610231,2|0,3:2|0:0,0:0:0:0:
302,242,35007,6,0,L|324:144,1,100,2|0,3:2|0:0,0:0:0:0:
283,0,35201,1,10,0:0:0:0:
236,44,35298,1,2,3:2:0:0:
187,84,35394,6,0,L|60:55,1,125,8|8,0:0|0:0,0:0:0:0:
38,381,35588,6,0,P|83:269|198:303,1,262.500010013581,6|0,3:0|0:0,0:0:0:0:
176,313,36362,6,0,P|232:324|290:309,2,116.666667779287,10|0|0,0:0|0:0|0:0,0:0:0:0:
57,249,36749,1,0,0:0:0:0:
282,216,36943,1,2,3:0:0:0:
348,237,37040,1,2,0:3:0:0:
373,303,37136,6,0,P|459:346|515:267,1,209.999993591309,2|0,3:0|0:0,0:0:0:0:
498,282,37911,6,0,P|504:230|525:197,1,87.500000834465,8|0,0:0|0:0,0:0:0:0:
465,159,38104,6,0,P|481:141|503:129,1,50,2|2,3:0|0:3,0:0:0:0:
417,227,38491,1,0,3:0:0:0:
417,227,38588,1,8,0:0:0:0:
330,217,38685,2,0,P|305:211|281:215,3,50,2|0|0|0,3:0|0:0|0:0|0:0,0:0:0:0:
233,268,39362,1,0,3:0:0:0:
160,275,39459,5,10,0:0:0:0:
160,275,39556,1,2,0:0:0:0:
86,243,39653,1,0,3:0:0:0:
109,176,39749,1,10,0:0:0:0:
135,109,39846,5,2,0:0:0:0:
61,77,40040,5,2,0:0:0:0:
194,51,40233,6,0,P|231:50|263:68,1,75,2|0,3:0|3:0,0:0:0:0:
296,127,40620,5,2,0:0:0:0:
250,180,40717,1,0,3:0:0:0:
250,180,40814,1,8,0:0:0:0:
250,180,40911,1,8,0:0:0:0:
297,234,41007,6,0,L|350:241,1,50,2|2,3:2|3:2,0:0:0:0:
367,230,41298,1,8,0:0:0:0:
452,276,41394,5,2,3:2:0:0:
399,293,41491,1,8,0:0:0:0:
371,327,41588,1,10,0:0:0:0:
342,348,41685,1,8,0:0:0:0:
271,315,41782,5,6,3:0:0:0:
47,365,41975,6,0,L|52:340,1,25,2|0,0:2|0:0,0:0:0:0:
185,273,42169,6,0,L|190:297,1,25,8|0,0:0|0:0,0:0:0:0:
52,233,42362,6,0,L|57:208,1,25,2|2,0:0|0:0,0:0:0:0:
190,141,42556,6,0,L|195:165,1,25,0|2,3:0|0:0,0:0:0:0:
57,101,42749,6,0,L|62:76,1,25,2|0,0:0|0:0,0:0:0:0:
195,9,42943,6,0,L|203:48,1,40,10|0,0:0|0:0,0:0:0:0:
333,101,43136,6,0,L|345:42,1,59.9999981689454,2|0,0:0|0:0,0:0:0:0:
471,9,43330,6,0,P|492:80|498:155,1,150.000005722046,2|0,3:2|0:0,0:0:0:0:
501,159,43717,2,0,L|196:131,2,300.000011444092,10|2|10,0:0|3:2|0:0,0:0:0:0:
132,200,44878,6,0,B|60:270|60:270|68:351|156:322,1,225.000008583069,2|0,3:2|0:0,0:0:0:0:
151,328,45265,6,0,L|204:333,1,37.5000014305115,8|0,0:0|0:0,0:0:0:0:
315,71,45459,6,0,B|442:147|409:366|287:363|287:363|248:295|300:253,1,500,2|0,0:0|0:0,0:0:0:0:
302,155,46040,2,0,B|262:95|182:120|182:120|183:161|222:164,1,200,8|0,0:0|0:0,0:0:0:0:
216,236,46427,6,0,B|168:225|149:266|149:266|130:307|83:296,1,160,2|0,3:2|0:0,0:0:0:0:
296,357,46717,6,0,L|314:324,2,37.5000014305115,2|8|0,0:0|0:0|0:0,0:0:0:0:
216,357,47007,2,0,L|197:324,1,37.5000014305115,2|0,0:0|0:0,0:0:0:0:
296,236,47201,6,0,B|344:225|363:266|363:266|382:307|429:296,1,160,0|0,3:0|0:0,0:0:0:0:
428,296,47588,6,0,B|483:227|483:227|507:90|439:7,1,320,10|4,0:0|3:1,0:0:0:0:
439,6,49136,6,0,P|410:30|397:65,1,75,2|0,0:0|0:0,0:0:0:0:
362,124,49523,6,0,B|329:114|325:74|325:74|274:40|203:78|220:135,2,225.000008583069,4|4|4,3:2|3:1|3:2,0:0:0:0:
365,128,50298,5,4,3:2:0:0:
369,310,50685,5,0,0:0:0:0:
327,348,50782,1,0,0:0:0:0:
262,289,50879,5,0,0:0:0:0:
209,349,50976,1,0,0:0:0:0:
119,290,51072,6,2,P|31:291|96:356,1,225.000008583069,4|0,3:0|0:0,0:1:0:0:
96,361,51459,1,8,0:0:0:0:
98,161,51653,2,0,P|73:158|48:158,1,50,2|0,0:0|0:0,0:0:0:0:
187,31,51846,2,0,B|195:79|195:79|165:119|165:119|174:169,1,150.000005722046,2|0,3:2|0:0,0:0:0:0:
65,85,52233,6,0,P|176:96|283:131,1,225.000008583069,10|0,0:0|0:0,0:0:0:0:
314,195,52620,2,0,P|278:204|243:190,1,75.0000028610231,2|0,3:2|0:0,0:0:0:0:
499,14,52814,5,2,0:0:0:0:
475,32,52878,5,2,0:0:0:0:
461,58,52943,5,2,0:0:0:0:
455,86,53007,6,0,P|470:104|493:114,1,50,10|0,0:2|0:0,0:0:0:0:
364,146,53201,2,0,P|380:127|386:103,1,50,2|0,0:0|0:0,0:0:0:0:
482,227,53394,2,0,L|463:381,1,150.000005722046,2|0,3:2|0:0,0:0:0:0:
463,376,53782,2,0,P|453:341|430:311,1,75.0000028610231,10|0,0:0|0:0,0:0:0:0:
314,195,53975,2,0,P|303:230|280:260,1,75.0000028610231,2|0,0:0|0:0,0:0:0:0:
83,344,54169,6,0,L|282:358,2,200,2|10|2,3:2|0:0|3:2,0:0:0:0:
91,357,55040,2,0,L|96:294,1,50,0|0,1:0|1:0,0:0:0:0:
0,25,55330,2,0,P|36:28|66:50,1,75.0000028610231,10|0,0:0|0:0,0:0:0:0:
142,181,55523,1,2,0:0:0:0:
2,182,55620,1,2,0:0:0:0:
86,229,55717,6,0,P|281:187|480:200,2,400,6|10|6,3:2|0:0|3:2,0:0:0:0:
97,238,56588,2,0,L|102:175,1,50,0|0,1:0|1:0,0:0:0:0:
187,61,56878,5,10,0:0:0:0:
276,31,56975,1,0,0:0:0:0:
159,36,57072,5,2,1:2:0:0:
210,152,57169,1,10,1:2:0:0:
296,120,57265,6,2,B|314:147|301:185|301:185|301:249|384:267|413:221,1,225.000008583069,4|0,3:0|0:0,0:1:0:0:
413,220,57653,1,8,0:0:0:0:
453,118,57846,2,0,P|465:103|481:93,1,37.5000014305115,2|0,0:0|0:0,0:0:0:0:
385,9,58040,2,0,B|415:43|388:81|388:81|365:115|385:147,1,150.000005722046,2|0,3:2|0:0,0:0:0:0:
489,383,58427,6,0,P|398:322|288:330,1,225.000008583069,10|0,0:0|0:0,0:0:0:0:
240,383,58814,2,0,P|217:355|215:318,1,75.0000028610231,0|0,3:0|0:0,0:0:0:0:
74,153,59007,5,2,0:0:0:0:
102,181,59072,5,2,0:0:0:0:
114,218,59136,5,2,0:0:0:0:
106,256,59201,6,0,P|82:265|58:268,1,50,10|0,0:2|0:0,0:0:0:0:
145,384,59394,2,0,P|135:360|132:336,1,50,2|0,0:0|0:0,0:0:0:0:
135,91,59588,6,0,P|77:42|8:15,1,150.000005722046,0|0,3:0|0:0,0:0:0:0:
8,15,59975,5,8,0:0:0:0:
56,63,60072,1,0,0:0:0:0:
139,95,60169,1,2,0:0:0:0:
245,68,60265,1,2,0:0:0:0:
322,0,60362,6,2,P|223:78|231:246,1,300.000011444092,2|8,3:2|0:0,0:1:0:0:
350,323,60943,1,2,0:0:0:0:
353,327,61040,1,2,0:0:0:0:
316,262,61136,6,0,P|181:200|34:219,1,300.000011444092,2|8,3:2|0:0,0:0:0:0:
199,362,61717,1,2,0:0:0:0:
202,366,61814,1,2,0:0:0:0:
247,311,61911,6,0,P|228:201|152:121,1,225.000008583069,2|0,3:2|0:0,0:0:0:0:
152,121,62298,2,0,P|137:154|130:191,1,75.0000028610231,10|0,0:0|0:0,0:0:0:0:
110,373,62491,2,0,P|103:336|87:302,1,75.0000028610231,2|0,0:0|0:0,0:0:0:0:
6,30,62685,6,0,L|230:49,1,225.000008583069,2|0,3:2|0:0,0:0:0:0:
283,107,63072,1,8,1:2:0:0:
335,100,63169,1,0,1:0:0:0:
386,92,63265,1,2,1:2:0:0:
437,82,63362,1,0,1:0:0:0:
372,22,63459,6,0,L|322:28,1,50,4|0,3:0|0:0,0:0:0:0:
229,176,63653,2,0,L|318:188,1,75.0000028610231,2|0,0:0|0:0,0:0:0:0:
478,162,63846,2,0,L|457:263,1,100,8|0,0:0|0:0,0:0:0:0:
413,370,64040,1,2,0:0:0:0:
414,377,64136,1,2,0:0:0:0:
416,384,64233,2,0,L|399:306,1,75.0000028610231,0|2,3:0|0:0,0:0:0:0:
379,174,64427,2,0,L|369:223,1,50,2|0,0:0|0:0,0:0:0:0:
316,365,64620,2,0,L|308:328,1,37.5000014305115,8|0,0:0|0:0,0:0:0:0:
248,250,64814,2,0,L|243:274,1,25
189,356,65007,5,2,3:2:0:0:
189,356,65201,1,2,0:0:0:0:
189,356,65394,1,10,0:0:0:0:
189,356,65588,1,2,0:0:0:0:
152,272,65782,1,2,3:2:0:0:
28,0,66169,5,8,0:0:0:0:
99,14,66362,1,2,1:0:0:0:
140,362,66556,6,0,L|190:356,1,50,2|0,3:2|0:0,0:0:0:0:
283,208,66750,2,0,L|194:196,1,75.0000028610231,2|0,0:0|0:0,0:0:0:0:
34,222,66943,2,0,L|55:121,1,100,8|0,0:0|0:0,0:0:0:0:
99,14,67137,1,2,0:0:0:0:
98,7,67233,1,2,0:0:0:0:
96,0,67330,2,0,L|113:78,1,75.0000028610231,0|2,3:0|0:0,0:0:0:0:
133,210,67524,2,0,L|142:160,1,50,2|0,0:0|0:0,0:0:0:0:
196,19,67717,2,0,L|203:55,1,37.5000014305115,8|0,0:0|0:0,0:0:0:0:
264,134,67911,2,0,L|268:109,1,25
414,16,68104,5,2,3:2:0:0:
342,57,68201,1,2,0:0:0:0:
406,111,68298,1,2,0:0:0:0:
346,140,68394,1,2,0:0:0:0:
384,201,68491,5,8,1:2:0:0:
387,205,68588,1,0,1:0:0:0:
366,274,68685,5,2,0:0:0:0:
319,225,68782,1,2,0:0:0:0:
286,299,68879,1,2,3:2:0:0:
228,237,68975,1,2,0:0:0:0:
192,305,69072,5,0,1:0:0:0:
195,309,69169,1,0,1:0:0:0:
126,345,69265,5,10,0:0:0:0:
70,304,69362,1,2,0:0:0:0:
34,232,69459,1,2,0:0:0:0:
47,126,69556,1,2,0:0:0:0:
121,51,69653,6,2,B|152:4|269:-22|357:34|357:34|316:94|229:83,1,400,4|8,3:0|0:0,0:1:0:0:
230,84,70233,2,0,P|255:92|274:107,1,50,2|0,0:0|0:0,0:0:0:0:
379,126,70427,2,0,B|339:129|322:168|322:168|289:193|250:177,1,150,2|0,3:2|0:0,0:0:0:0:
13,369,70814,2,0,P|82:287|189:300,1,225.000008583069,10|0,0:0|0:0,0:0:0:0:
207,369,71201,2,0,P|170:369|138:349,1,75.0000028610231,2|0,3:2|0:0,0:0:0:0:
123,160,71394,5,2,0:0:0:0:
118,109,71459,5,2,0:0:0:0:
93,66,71523,5,2,0:0:0:0:
50,38,71588,6,0,P|27:47|2:51,1,50,10|0,0:2|0:0,0:0:0:0:
19,204,71782,2,0,P|21:179|30:155,1,50,2|0,0:0|0:0,0:0:0:0:
322,38,71975,2,0,P|401:57|471:57,1,150.000005722046,2|0,3:2|0:0,0:0:0:0:
469,57,72362,2,0,P|433:64|401:83,1,75.0000028610231,10|0,0:0|0:0,0:0:0:0:
270,140,72556,2,0,P|306:147|338:166,1,75.0000028610231,2|0,0:0|0:0,0:0:0:0:
445,345,72749,6,0,B|452:250|452:250|456:243|456:243|462:146,2,200,2|10|2,3:2|0:0|3:2,0:0:0:0:
448,349,73717,1,0,1:0:0:0:
370,247,73911,2,0,P|335:235|298:241,1,75.0000028610231,8|0,0:0|0:0,0:0:0:0:
74,277,74104,1,2,0:0:0:0:
215,342,74201,1,2,0:0:0:0:
143,374,74298,6,0,P|117:177|6:13,2,400,6|10|6,3:2|0:0|3:2,0:0:0:0:
443,296,75459,5,10,0:0:0:0:
354,326,75556,1,0,0:0:0:0:
471,321,75653,5,2,1:2:0:0:
420,205,75750,1,2,1:2:0:0:
300,273,75846,6,2,B|250:333|128:318|94:250|94:250|129:198|205:203|238:233,1,400,4|8,3:0|0:0,0:1:0:0:
354,326,76427,1,2,0:0:0:0:
357,330,76523,1,2,0:0:0:0:
298,200,76620,6,2,B|256:155|291:76|313:122|358:75|368:18|368:18|410:68|396:132|351:154,1,375,2|0,3:2|0:0,0:1:0:0:
374,249,77007,6,0,B|395:270|421:258|421:258|409:214|366:226,1,125,8|0,0:0|0:0,0:0:0:0:
115,256,77201,1,2,0:0:0:0:
115,256,77298,1,2,0:0:0:0:
26,270,77394,6,0,B|11:297|26:330|26:330|52:354|83:349,1,125,2|0,3:2|0:0,0:0:0:0:
148,181,77588,2,0,B|131:154|95:151|95:151|61:161|50:191,1,125,0|0,3:0|0:0,0:0:0:0:
165,332,77782,2,0,B|196:330|217:301|217:301|224:266|204:242,1,125,10|0,0:0|0:0,0:0:0:0:
34,46,77975,1,0,3:0:0:0:
27,45,78072,1,0,1:0:0:0:
20,44,78169,6,0,P|100:48|168:69,1,150.000005722046,8|0,0:0|0:0,0:0:0:0:
173,84,78362,6,0,P|181:84|189:83,1,16.499999949646,0|0,3:0|0:0,0:0:0:0:
437,250,78556,6,0,P|358:246|289:224,1,150.000005722046,10|0,0:0|0:0,0:0:0:0:
285,210,78749,6,0,P|276:209|268:210,1,16.499999949646,0|0,3:0|0:0,0:0:0:0:
50,293,78943,6,0,B|4:296|-2:344|-2:344|40:399|124:360|125:292|125:292|174:163|305:145|430:237|311:306|415:364|415:364|340:410|286:364|330:349|277:318|213:331|182:373|182:373|184:282|240:222|301:254|282:287|346:323|459:269|476:106|399:37|399:37|405:71|382:103|370:87|351:116|353:149|353:149|365:30|222:-40|134:-23|134:-23|178:80|270:91|270:91|147:68|108:125|108:125|168:155|220:116,1,2389.79993554731,4|0,3:0|0:0,0:0:0:0:
111,196,81846,6,0,B|84:192|64:211|64:211|69:185|51:164,1,100,0|0,3:0|2:0,2:0:0:0:
0,203,82040,6,2,B|4:200|4:200|5:191|5:191|15:184|15:184|39:113|131:115|124:153|215:165|242:92|206:48,1,320,4|0,3:0|0:0,0:1:0:0:
206,48,82427,6,0,B|240:89|289:72|289:72|329:42|377:64,1,187.500007152558,8|0,0:0|0:0,0:0:0:0:
485,53,82717,1,2,0:0:0:0:
423,84,82814,6,0,P|398:77|377:64,1,50,2|0,3:2|0:0,0:0:0:0:
206,48,83007,2,0,P|181:54|160:67,1,50,2|0,0:0|0:0,0:0:0:0:
383,192,83201,6,0,P|367:156|339:132,1,75.0000028610231,8|0,0:0|0:0,0:0:0:0:
42,2,83394,6,0,P|72:44|81:123,1,115.000002193451,0|0,3:0|0:0,0:0:0:0:
30,336,83588,6,0,B|13:347|11:364|11:364|71:324|113:338,1,134.999995880127,4|0,3:0|0:0,0:0:0:0:
108,339,83975,5,8,0:0:0:0:
296,195,84169,5,2,0:0:0:0:
299,199,84265,1,2,0:0:0:0:
276,128,84362,5,0,3:0:0:0:
182,238,84459,1,2,0:0:0:0:
202,112,84556,1,2,0:0:0:0:
256,257,84653,1,2,0:0:0:0:
157,169,84749,5,8,0:0:0:0:
310,196,84846,1,2,0:0:0:0:
206,305,84943,1,2,0:0:0:0:
231,184,85040,1,2,0:0:0:0:
339,292,85136,6,0,B|373:28|373:28|360:61,1,300.000011444092,4|0,3:0|0:0,0:0:0:0:
477,189,85523,6,0,B|497:343|497:343|485:312,1,187.500007152558,8|0,0:0|0:0,0:0:0:0:
413,282,85814,1,2,0:0:0:0:
477,189,85911,6,0,L|483:139,1,50,2|0,3:2|0:0,0:0:0:0:
479,362,86104,2,0,L|485:312,1,50,2|0,0:0|0:0,0:0:0:0:
339,293,86298,6,0,L|413:282,1,75.0000028610231,8|0,0:0|0:0,0:0:0:0:
170,374,86491,6,0,P|210:333|219:278,1,115.000002193451,0|0,3:0|0:0,0:0:0:0:
86,9,86685,5,4,3:0:0:0:
24,39,86782,1,0,0:0:0:0:
44,104,86878,1,2,0:0:0:0:
65,93,86975,1,0,0:0:0:0:
80,75,87072,1,8,0:0:0:0:
16,182,87265,5,2,1:2:0:0:
88,160,87362,1,2,1:2:0:0:
19,186,87459,1,0,3:0:0:0:
29,207,87556,1,2,1:2:0:0:
47,222,87653,2,0,P|69:232|94:233,1,50,2|0,1:2|0:0,0:0:0:0:
332,196,87846,6,2,L|307:199,1,25,10|0,3:2|0:0,0:1:0:0:
232,207,87943,1,0,3:0:0:0:
298,266,88040,5,2,3:2:0:0:
242,138,88137,1,0,3:0:0:0:
219,278,88233,6,2,B|250:259|306:297|288:368|288:368|274:338|268:272|328:256|360:277|345:284|374:311|405:294,1,340.000006484985,4|0,3:0|0:0,0:1:0:0:
405,294,88620,6,0,B|391:332|391:332|411:178,1,187.500007152558,8|0,0:0|0:0,0:0:0:0:
483,93,88911,1,2,0:0:0:0:
448,156,89007,6,0,P|426:167|410:186,1,50,2|0,3:2|0:0,0:0:0:0:
405,294,89201,2,0,P|426:305|442:324,1,50,2|0,0:0|0:0,0:0:0:0:
357,119,89394,6,0,P|336:141|325:195,1,75.0000028610231,8|0,0:0|0:0,0:0:0:0:
443,325,89588,6,0,P|480:281|495:225,1,115.000002193451,0|0,3:0|0:0,0:0:0:0:
440,23,89782,6,0,B|412:38|411:67|411:67|398:41|366:38,1,112.500004291535,0|0,3:0|0:0,0:0:0:0:
360,39,90169,5,8,0:0:0:0:
61,73,90362,5,2,0:0:0:0:
64,77,90459,1,2,0:0:0:0:
121,35,90556,5,0,3:0:0:0:
229,103,90653,1,2,0:0:0:0:
129,102,90749,1,2,0:0:0:0:
243,38,90846,1,2,0:0:0:0:
273,193,90943,5,8,0:0:0:0:
186,167,91040,1,2,0:0:0:0:
246,119,91136,1,2,3:2:0:0:
211,238,91233,1,2,0:0:0:0:
115,166,91330,6,0,B|151:182|181:227|185:297|127:336|127:336|129:297|100:279,1,262.500002503395,4|0,3:0|0:0,0:0:0:0:
107,284,91523,6,0,L|21:289,1,75.0000028610231,0|0,3:0|0:0,0:0:0:0:
384,204,91717,6,0,B|355:202|320:229|314:283|357:312|357:312|363:286|391:272,1,198.750008339882,8|0,0:0|0:0,0:0:0:0:
387,274,91911,5,2,3:2:0:0:
387,274,92007,2,0,L|472:279,1,75.0000028610231,2|0,3:2|3:0,0:0:0:0:
258,345,92298,6,0,L|253:259,1,75.0000028610231,10|0,0:0|0:0,0:0:0:0:
257,114,92491,2,0,L|252:39,1,75.0000028610231,8|0,0:0|0:0,0:0:0:0:
254,270,92685,6,0,B|289:231|256:190|256:190|225:151|259:111,1,172.500003290176,0|0,3:0|0:0,0:0:0:0:
426,9,92878,5,4,3:0:0:0:
488,39,92975,1,0,0:0:0:0:
468,104,93071,1,2,0:0:0:0:
447,93,93168,1,0,0:0:0:0:
431,75,93265,2,0,P|406:73|385:61,1,50,8|0,0:0|0:0,0:0:0:0:
493,186,93459,1,2,0:0:0:0:
483,207,93556,1,2,0:0:0:0:
464,222,93653,6,0,P|448:230|429:233,2,37.5000014305115,4|0|2,3:0|0:0|0:0,0:0:0:0:
339,166,93846,2,0,B|347:151|347:151|349:130,2,37.5000014305115,2|0|0,3:2|0:0|0:0,0:0:0:0:
256,288,94040,2,0,L|256:352,2,37.5000014305115,2|0|0,3:2|0:0|0:0,0:0:0:0:
173,166,94233,2,0,B|165:151|165:151|162:130,2,37.5000014305115,2|0|0,3:2|0:0|0:0,0:0:0:0:
47,221,94427,6,0,P|91:255|145:241,1,115.000002193451,0|0,3:0|0:0,0:0:0:0:
259,134,94620,2,0,P|255:95|252:134,1,115.000002193451,8|0,0:0|0:0,0:0:0:0:
464,221,94814,2,0,P|420:255|366:241,1,115.000002193451,0|0,3:0|0:0,0:0:0:0:
278,203,95007,6,0,P|254:207|229:203,1,50,0|0,3:0|0:0,0:0:0:0:
143,63,95201,6,2,B|90:57|90:57|80:51|80:51|30:46,1,115.000002193451,8|0,0:0|0:0,0:1:0:0:
230,272,95394,6,0,P|255:277|280:272,1,50,0|0,3:0|0:0,0:0:0:0:
369,63,95588,6,2,B|422:57|422:57|432:51|432:51|481:46,1,115.000002193451,8|0,0:0|0:0,0:1:0:0:
165,173,95782,5,8,0:0:0:0:
347,173,95878,1,8,0:0:0:0:
256,136,95975,6,2,B|256:84|256:84|260:80|260:80|252:80|252:80|256:76|256:76|256:17,1,129.999994049073,4|0,3:0|0:0,0:1:0:0:
252,17,96556,6,2,L|260:66,1,50,0|0,3:0|0:0,0:1:0:0:
326,187,96749,6,2,B|293:175|293:175|217:184|217:184|184:165,1,150.000005722046,6|0,3:2|0:0,0:1:0:0:
93,307,97136,5,8,0:0:0:0:
153,362,97233,1,8,0:0:0:0:
247,277,97330,5,8,0:0:0:0:
324,364,97427,1,8,0:0:0:0:
421,273,97523,6,2,P|509:274|444:339,1,225.000008583069,4|0,3:0|0:0,0:1:0:0:
447,340,97911,1,8,0:0:0:0:
385,197,98104,2,0,P|403:180|426:171,1,50,2|0,0:0|0:0,0:0:0:0:
285,79,98298,2,0,B|326:99|330:143|330:143|303:169|310:206,1,150.000005722046,2|0,3:2|0:0,0:0:0:0:
173,133,98685,6,0,P|283:148|385:196,1,225.000008583069,10|0,0:0|0:0,0:0:0:0:
432,247,99072,2,0,P|402:267|366:264,1,75.0000028610231,2|0,3:2|0:0,0:0:0:0:
395,103,99265,5,2,0:0:0:0:
403,63,99330,5,2,0:0:0:0:
425,30,99394,5,2,0:0:0:0:
457,7,99459,6,0,P|444:28|442:53,1,50,10|0,0:0|0:0,0:0:0:0:
495,177,99653,2,0,P|492:152|480:130,1,50,2|0,0:0|0:0,0:0:0:0:
332,25,99846,2,0,L|181:38,1,150.000005722046,0|0,3:0|0:0,0:0:0:0:
183,38,100233,6,0,P|217:52|254:54,1,75.0000028610231,8|0,0:0|0:0,0:0:0:0:
83,60,100427,2,0,P|48:45|11:43,1,75.0000028610231,2|0,0:0|0:0,0:0:0:0:
51,309,100620,6,0,B|86:329|86:329|244:307,2,200,2|10|2,3:2|0:0|3:2,0:0:0:0:
39,320,101491,2,0,L|45:270,1,50,0|0,1:0|1:0,0:0:0:0:
182,37,101782,2,0,P|176:99|191:160,1,125,8|0,0:0|0:0,0:0:0:0:
314,322,101975,1,2,0:0:0:0:
359,183,102072,1,2,0:0:0:0:
341,384,102169,6,0,B|325:30|325:30|294:-10,2,400,6|10|6,3:2|0:0|3:2,0:0:0:0:
353,377,103040,2,0,L|402:374,1,50,0|0,1:0|1:0,0:0:0:0:
496,39,103330,5,10,0:0:0:0:
392,104,103427,1,0,0:0:0:0:
484,106,103523,5,0,1:0:0:0:
366,41,103620,1,8,1:2:0:0:
428,182,103717,6,2,B|418:211|441:239|441:239|440:303|360:323|326:265,1,225.000008583069,4|0,3:0|0:0,0:1:0:0:
325,264,104104,1,8,0:0:0:0:
200,96,104298,2,0,P|236:99|265:123,1,75.0000028610231,2|0,0:0|0:0,0:0:0:0:
245,304,104491,2,0,B|257:265|227:235|227:235|197:206|210:165,1,150.000005722046,2|0,3:2|0:0,0:0:0:0:
131,114,104878,6,0,B|158:156|131:206|119:188|80:241|112:302|112:302|179:285,1,269.999991760254,8|0,0:0|0:0,0:0:0:0:
245,304,105265,2,0,P|248:272|228:236,1,75.0000028610231,2|0,3:2|0:0,0:0:0:0:
65,150,105459,5,2,0:0:0:0:
53,101,105523,5,2,0:0:0:0:
78,57,105588,5,2,0:0:0:0:
124,40,105653,6,0,P|149:46|174:44,1,50,10|0,0:0|0:0,0:0:0:0:
261,25,105846,2,0,P|263:50|258:75,1,50,2|0,0:0|0:0,0:0:0:0:
432,152,106040,6,0,P|418:78|437:6,1,150.000005722046,2|0,3:2|0:0,0:0:0:0:
437,6,106427,5,8,0:0:0:0:
450,70,106524,1,0,0:0:0:0:
434,158,106621,1,2,0:0:0:0:
355,233,106717,1,2,0:0:0:0:
249,248,106814,6,2,P|363:216|500:320,1,300.000011444092,0|8,3:0|0:0,0:1:0:0:
335,363,107394,1,2,0:0:0:0:
335,363,107491,1,2,0:0:0:0:
303,298,107588,6,0,P|315:153|435:71,1,300.000011444092,2|8,3:2|0:0,0:0:0:0:
485,208,108169,1,2,0:0:0:0:
485,208,108265,1,2,0:0:0:0:
413,214,108362,6,0,P|318:168|261:44,1,225.000008583069,2|0,3:2|0:0,0:0:0:0:
263,66,108749,2,0,P|260:103|241:134,1,75.0000028610231,10|0,0:0|0:0,0:0:0:0:
93,228,108943,2,0,P|90:191|71:160,1,75.0000028610231
160,104,109136,6,0,B|175:251|175:251|199:288|244:274,1,225.000008583069,0|0,3:0|0:0,0:0:0:0:
306,324,109523,1,8,2:2:0:0:
321,281,109620,1,0,1:0:0:0:
356,254,109717,1,0,1:0:0:0:
401,251,109814,1,0,1:0:0:0:
438,341,109911,6,0,P|410:340|388:332,1,50,6|0,3:2|0:0,0:0:0:0:
289,210,110104,2,0,P|316:184|352:174,1,75.0000028610231,2|0,0:2|0:0,0:0:0:0:
511,21,110298,2,0,P|462:25|416:6,1,100,8|0,0:0|0:0,0:0:0:0:
244,79,110491,1,2,0:0:0:0:
237,75,110588,1,2,0:0:0:0:
230,74,110685,2,0,P|261:93|281:124,1,75.0000028610231,0|2,3:0|0:0,0:0:0:0:
441,161,110878,2,0,P|431:138|433:113,1,50,2|0,0:0|0:0,0:0:0:0:
339,0,111072,2,0,P|334:17|323:32,1,37.5000014305115,8|0,0:0|0:0,0:0:0:0:
330,185,111265,2,0,P|339:176|352:173,1,25
357,99,111459,5,2,3:2:0:0:
357,99,111653,1,2,0:0:0:0:
357,99,111846,1,10,0:0:0:0:
357,99,112040,1,2,0:0:0:0:
322,33,112233,1,2,3:2:0:0:
296,378,112620,5,8,0:0:0:0:
228,360,112814,1,2,1:0:0:0:
73,42,113007,6,0,P|102:44|123:51,1,50,2|0,3:2|0:0,0:0:0:0:
223,174,113201,2,0,P|196:200|160:210,1,75.0000028610231,2|0,0:0|0:0,0:0:0:0:
0,362,113394,2,0,P|49:358|95:377,1,100,8|0,0:0|0:0,0:0:0:0:
268,305,113587,1,2,0:0:0:0:
275,309,113684,1,2,0:0:0:0:
282,310,113782,2,0,P|250:290|230:259,1,75.0000028610231,0|2,3:0|0:0,0:0:0:0:
71,223,113975,2,0,P|80:245|78:270,1,50,2|0,0:0|0:0,0:0:0:0:
173,384,114169,2,0,P|177:366|188:351,1,37.5000014305115,8|0,0:0|0:0,0:0:0:0:
182,199,114362,2,0,P|172:207|159:210,1,25
99,57,114556,5,2,3:2:0:0:
141,137,114653,1,2,0:0:0:0:
179,67,114749,1,2,0:0:0:0:
214,124,114846,1,2,0:0:0:0:
256,65,114943,5,8,1:2:0:0:
259,70,115040,1,0,1:0:0:0:
298,124,115136,5,2,0:0:0:0:
333,67,115233,1,2,0:0:0:0:
371,137,115329,1,2,3:2:0:0:
413,57,115426,1,2,0:0:0:0:
458,137,115523,5,0,1:0:0:0:
461,141,115620,1,0,1:0:0:0:
473,208,115717,5,10,0:0:0:0:
432,264,115814,1,2,0:0:0:0:
360,300,115911,1,2,0:0:0:0:
254,287,116008,1,2,0:0:0:0:
176,208,116105,6,0,B|123:136|3:164|-12:262|-12:262|23:212|89:211|122:250,1,400,4|8,3:0|0:0,0:0:0:0:
118,246,116685,2,0,P|94:251|74:265,1,50,2|0,0:0|0:0,0:0:0:0:
0,370,116878,2,0,B|21:341|61:355|61:355|111:360|123:315,1,150.000005722046,2|0,3:2|0:0,0:0:0:0:
266,45,117265,6,0,P|167:96|56:99,1,225.000008583069,8|0,0:0|0:0,0:0:0:0:
5,48,117653,2,0,P|37:29|74:32,1,75.0000028610231,2|0,3:2|0:0,0:0:0:0:
232,113,117846,5,2,0:0:0:0:
276,134,117911,5,2,0:0:0:0:
325,135,117975,5,2,0:0:0:0:
369,112,118040,6,0,P|390:99|414:94,1,50,10|0,0:0|0:0,0:0:0:0:
487,0,118233,2,0,P|488:24|480:48,1,50,2|0,0:0|0:0,0:0:0:0:
431,231,118427,2,0,L|444:380,1,150.000005722046,2|0,3:2|0:0,0:0:0:0:
444,380,118814,2,0,B|452:340|452:340|426:317,1,75.0000028610231,10|0,0:0|0:0,0:0:0:0:
198,277,119007,2,0,B|190:317|190:317|215:340,1,75.0000028610231,2|0,0:0|0:0,0:0:0:0:
334,383,119201,6,0,B|340:280|340:280|304:184,2,200,2|10|2,3:2|0:0|3:2,0:0:0:0:
270,293,120169,1,0,1:0:0:0:
467,179,120362,2,0,P|420:160|373:144,1,100,8|0,0:0|0:0,0:0:0:0:
134,100,120556,1,2,0:0:0:0:
232,53,120653,1,2,0:0:0:0:
73,61,120749,6,0,B|270:93|270:93|467:61,2,400,4|10|4,3:2|0:0|3:2,0:0:0:0:
0,344,121911,5,10,0:0:0:0:
123,300,122008,1,0,0:0:0:0:
4,276,122104,5,2,1:2:0:0:
101,362,122201,1,2,1:2:0:0:
81,230,122298,6,0,B|32:182|80:97|93:131|167:103|185:23|185:23|251:78|210:145,1,400,4|8,3:0|0:0,0:0:0:0:
132,182,122878,1,2,0:0:0:0:
135,186,122975,1,2,0:0:0:0:
201,213,123072,6,0,B|192:272|253:330|347:316|347:316|306:285|309:242|328:244|316:188|267:184,1,375,0|0,3:0|0:0,2:0:0:0:
128,289,123459,6,0,B|98:290|89:317|89:317|130:338|150:298,1,125,8|0,0:0|0:0,0:0:0:0:
392,258,123653,1,2,0:0:0:0:
392,258,123749,1,2,0:0:0:0:
437,315,123846,6,0,B|423:350|430:380|430:380|399:357|411:329,1,125,2|0,3:2|0:0,0:0:0:0:
449,212,124040,2,0,B|484:225|514:218|514:218|491:249|463:237,1,125,0|0,3:0|0:0,0:0:0:0:
346,199,124233,2,0,B|359:163|352:133|352:133|383:156|371:184,1,125,8|0,0:0|0:0,0:0:0:0:
334,302,124427,2,0,B|298:288|268:295|268:295|291:264|319:276,1,125,0|0,3:0|1:0,0:0:0:0:
256,76,124620,5,10,0:0:0:0:
256,63,124717,1,0,3:0:0:0:
256,50,124814,1,0,3:0:0:0:
256,37,124911,1,0,3:0:0:0:
324,42,125007,5,2,3:2:0:0:
186,66,125104,1,2,3:2:0:0:
297,143,125201,5,2,3:2:0:0:
214,161,125298,1,2,3:2:0:0:
264,251,125394,6,2,P|256:302|248:251,1,150.000005722046,4|0,3:0|0:0,0:1:0:0:
142,132,125588,2,0,P|95:113|46:112,1,100,8|0,0:0|0:0,0:0:0:0:
369,132,125782,2,0,P|416:113|465:112,1,100,0|0,3:0|0:0,0:0:0:0:
256,0,125975,6,0,L|256:64,1,50,0|0,3:0|0:0,0:0:0:0:
172,214,126169,6,0,B|135:231|135:231|121:266|121:266|77:283,1,125,8|0,0:0|0:0,0:0:0:0:
256,50,126362,6,0,L|256:114,1,50,0|0,3:0|0:0,0:0:0:0:
340,214,126556,6,0,B|377:231|377:231|391:266|391:266|434:283,1,125,8|0,0:0|0:0,0:0:0:0:
192,352,126749,1,8,0:0:0:0:
320,352,126846,1,8,0:0:0:0:
256,290,126943,6,2,B|256:238|256:238|260:234|260:234|252:234|252:234|256:230|256:230|256:176,1,125,4|0,3:0|0:0,0:1:0:0:
256,171,127523,6,2,L|256:220,1,50,4|0,3:0|0:0,0:1:0:0:
111,354,127717,6,2,B|147:336|147:336|364:372|364:372|400:354,1,300.000011444092,6|0,3:2|0:0,0:1:0:0:
