osu file format v14

[General]
AudioFilename: audio.mp3
AudioLeadIn: 0
PreviewTime: 50688
Countdown: 0
SampleSet: Soft
StackLeniency: 0.6
Mode: 0
LetterboxInBreaks: 0
WidescreenStoryboard: 1

[Editor]
DistanceSpacing: 5.3
BeatDivisor: 4
GridSize: 32
TimelineZoom: 1.9

[Metadata]
Title:Kessen
TitleUnicode:決戦
Artist:Atsushi
ArtistUnicode:篤志
Creator:Yusomi
Version:Insane
Source:Cytus II
Tags:Muya Cubby Lv9 Firika Shota on osu Cubbby sakura blossom instrumental video game
BeatmapID:2341755
BeatmapSetID:1094459

[Difficulty]
HPDrainRate:4
CircleSize:3.8
OverallDifficulty:7
ApproachRate:8.7
SliderMultiplier:1.7
SliderTickRate:1

[Events]
//Background and Video events
0,0,"Konachan.com - 301609.jpg",0,0
//Break Periods
//Storyboard Layer 0 (Background)
//Storyboard Layer 1 (Fail)
//Storyboard Layer 2 (Pass)
//Storyboard Layer 3 (Foreground)
//Storyboard Layer 4 (Overlay)
//Storyboard Sound Samples

[TimingPoints]
749,387.096774193548,4,2,1,30,1,0
1524,387.096774193548,4,2,1,60,1,0
3459,-133.333333333333,4,2,2,60,0,0
4427,-133.333333333333,4,2,1,80,0,0
4620,-100,4,2,1,80,0,0
5007,-100,4,2,1,60,0,0
5201,-100,4,2,1,80,0,0
5394,-100,4,2,1,80,0,0
5588,-100,4,2,1,60,0,0
5975,-100,4,2,1,80,0,0
6169,-100,4,2,2,60,0,0
6556,-100,4,2,1,60,0,0
6749,-100,4,2,1,60,0,0
6943,-100,4,2,1,60,0,0
8878,-100,4,2,1,60,0,0
9072,-100,4,2,1,60,0,0
9556,-100,4,2,1,5,0,0
9653,-100,4,2,1,60,0,0
9846,-100,4,2,2,60,0,0
10814,-100,4,2,1,60,0,0
11975,-100,4,2,1,60,0,0
12169,-100,4,2,1,60,0,0
12362,-100,4,2,2,60,0,0
13523,-100,4,2,1,60,0,0
13717,-100,4,2,1,60,0,0
15072,-100,4,2,1,60,0,0
15265,-100,4,2,1,60,0,0
15749,-100,4,2,1,5,0,0
15846,-100,4,2,1,60,0,0
16040,-100,4,2,2,60,0,0
17007,-100,4,2,1,60,0,0
18169,-100,4,2,1,60,0,0
18362,-100,4,2,1,60,0,0
18556,-100,4,2,2,60,0,0
19330,-100,4,2,1,60,0,0
19523,-100,4,2,1,60,0,0
19717,-100,4,2,1,60,0,0
19911,-100,4,2,1,60,0,0
20104,-100,4,2,1,75,0,0
20298,-100,4,2,1,75,0,0
20491,-100,4,2,1,75,0,0
20685,-100,4,2,1,75,0,0
20878,-100,4,2,1,75,0,0
21072,-100,4,2,1,75,0,0
21265,-100,4,2,1,75,0,0
21459,-100,4,2,1,75,0,0
22233,-100,4,2,1,60,0,0
22427,-100,4,2,1,60,0,0
22814,-100,4,2,2,60,0,0
23201,-100,4,2,1,60,0,0
23588,-100,4,2,2,60,0,0
23782,-133.333333333333,4,2,2,60,0,0
23975,-133.333333333333,4,2,2,60,0,0
24169,-133.333333333333,4,2,2,60,0,0
24943,-133.333333333333,4,2,2,60,0,0
25523,-133.333333333333,4,2,2,60,0,0
25717,-133.333333333333,4,2,2,60,0,0
25765,-133.333333333333,4,2,2,30,0,0
25911,-133.333333333333,4,2,2,60,0,0
26104,-133.333333333333,4,2,2,60,0,0
26298,-133.333333333333,4,2,2,60,0,0
26491,-133.333333333333,4,2,2,60,0,0
27072,-133.333333333333,4,2,2,60,0,0
27265,-133.333333333333,4,2,2,60,0,0
27846,-133.333333333333,4,2,2,60,0,0
28040,-133.333333333333,4,2,2,60,0,0
28088,-133.333333333333,4,2,2,30,0,0
28233,-133.333333333333,4,2,2,60,0,0
29007,-133.333333333333,4,2,2,60,0,0
29394,-114.942528735632,4,2,2,60,0,0
29588,-114.942528735632,4,2,2,60,0,0
31330,-114.942528735632,4,2,2,60,0,0
31959,-114.942528735632,4,2,2,30,0,0
32104,-114.942528735632,4,2,2,60,0,0
32298,-114.942528735632,4,2,2,60,0,0
34427,-114.942528735632,4,2,2,60,0,0
34620,-114.942528735632,4,2,2,60,0,0
35007,-114.942528735632,4,2,2,60,0,0
35201,-114.942528735632,4,2,2,60,0,0
35588,-133.333333333333,4,2,1,60,0,0
36362,-133.333333333333,4,2,1,60,0,0
36491,-133.333333333333,4,2,2,60,0,0
36943,-133.333333333333,4,2,1,60,0,0
37911,-133.333333333333,4,2,2,60,0,0
38104,-133.333333333333,4,2,1,60,0,0
38685,-133.333333333333,4,2,2,60,0,0
39362,-133.333333333333,4,2,1,60,0,0
41782,-100,4,2,1,60,0,0
41975,-100,4,2,2,60,0,0
42362,-100,4,2,2,60,0,0
42943,-100,4,2,2,60,0,0
43136,-100,4,2,2,60,0,0
43330,-100,4,2,2,60,0,0
45265,-100,4,2,2,60,0,0
45459,-100,4,2,2,60,0,0
46040,-100,4,2,2,60,0,0
47007,-100,4,2,2,60,0,0
47201,-100,4,2,2,60,0,0
49523,-100,4,2,2,60,0,0
50685,-83.3333333333333,4,2,2,60,0,0
51072,-83.3333333333333,4,2,1,75,0,1
51459,-83.3333333333333,4,2,1,75,0,1
52523,-83.3333333333333,4,2,1,5,0,1
52620,-83.3333333333333,4,2,1,75,0,1
53201,-83.3333333333333,4,2,1,75,0,1
53975,-83.3333333333333,4,2,1,75,0,1
54169,-83.3333333333333,4,2,1,75,0,1
56878,-83.3333333333333,4,2,2,75,0,1
57265,-83.3333333333333,4,2,1,75,0,1
57653,-83.3333333333333,4,2,1,75,0,1
58717,-83.3333333333333,4,2,1,5,0,1
58814,-83.3333333333333,4,2,1,75,0,1
59394,-83.3333333333333,4,2,1,75,0,1
59975,-83.3333333333333,4,2,2,75,0,1
60362,-83.3333333333333,4,2,1,75,0,1
62491,-83.3333333333333,4,2,1,75,0,1
62975,-83.3333333333333,4,2,1,5,0,1
63072,-83.3333333333333,4,2,1,60,0,1
63653,-83.3333333333333,4,2,1,60,0,1
63846,-83.3333333333333,4,2,1,60,0,1
64040,-83.3333333333333,4,2,1,60,0,1
64620,-83.3333333333333,4,2,1,60,0,1
64814,-83.3333333333333,4,2,1,60,0,1
65007,-83.3333333333333,4,2,1,60,0,1
66749,-83.3333333333333,4,2,1,60,0,1
66943,-83.3333333333333,4,2,1,60,0,1
67136,-83.3333333333333,4,2,1,60,0,1
67717,-83.3333333333333,4,2,1,60,0,1
67911,-83.3333333333333,4,2,1,60,0,1
68104,-83.3333333333333,4,2,2,60,0,1
69653,-83.3333333333333,4,2,1,60,0,1
71104,-83.3333333333333,4,2,1,5,0,1
71201,-83.3333333333333,4,2,1,60,0,1
71394,-83.3333333333333,4,2,1,60,0,1
71782,-83.3333333333333,4,2,1,60,0,1
72556,-83.3333333333333,4,2,1,60,0,1
72749,-83.3333333333333,4,2,1,60,0,1
74104,-83.3333333333333,4,2,1,60,0,1
75459,-83.3333333333333,4,2,2,60,0,1
75846,-83.3333333333333,4,2,1,60,0,1
76911,-83.3333333333333,4,2,1,5,0,1
77007,-83.3333333333333,4,2,1,60,0,1
77201,-83.3333333333333,4,2,1,60,0,1
77588,-83.3333333333333,4,2,1,60,0,1
77782,-83.3333333333333,4,2,1,60,0,1
77975,-83.3333333333333,4,2,1,60,0,1
78362,-83.3333333333333,4,2,1,60,0,1
78556,-83.3333333333333,4,2,1,60,0,1
78749,-83.3333333333333,4,2,1,60,0,1
78943,-100,4,2,1,60,0,0
82040,-100,4,2,1,60,0,0
83201,-100,4,2,1,60,0,0
83394,-100,4,2,1,60,0,0
83878,-100,4,2,1,5,0,0
83975,-100,4,2,1,60,0,0
84169,-100,4,2,2,60,0,0
85136,-100,4,2,1,60,0,0
86298,-100,4,2,1,60,0,0
86491,-100,4,2,1,60,0,0
86685,-100,4,2,2,60,0,0
87653,-100,4,2,1,60,0,0
89394,-100,4,2,1,60,0,0
89588,-100,4,2,1,60,0,0
90072,-100,4,2,1,5,0,0
90169,-100,4,2,1,60,0,0
91523,-100,4,2,1,60,0,0
91717,-100,4,2,1,60,0,0
91911,-100,4,2,1,60,0,0
92878,-100,4,2,2,60,0,0
93701,-100,4,2,2,30,0,0
93846,-100,4,2,2,60,0,0
93894,-100,4,2,2,30,0,0
94040,-100,4,2,2,60,0,0
94088,-100,4,2,2,30,0,0
94233,-100,4,2,2,60,0,0
94282,-100,4,2,2,30,0,0
94427,-100,4,2,1,60,0,0
94620,-100,4,2,1,60,0,0
94814,-100,4,2,1,60,0,0
95007,-100,4,2,1,60,0,0
95201,-100,4,2,1,60,0,0
95394,-100,4,2,1,60,0,0
95588,-100,4,2,1,60,0,0
95782,-100,4,2,1,60,0,0
96556,-100,4,2,1,60,0,0
96749,-100,4,2,1,60,0,0
97136,-100,4,2,2,60,0,0
97523,-83.3333333333333,4,2,1,75,0,1
97911,-83.3333333333333,4,2,1,75,0,1
98975,-83.3333333333333,4,2,1,5,0,1
99072,-83.3333333333333,4,2,1,75,0,1
99265,-83.3333333333333,4,2,1,75,0,1
100427,-83.3333333333333,4,2,1,75,0,1
100620,-83.3333333333333,4,2,1,75,0,1
101975,-83.3333333333333,4,2,1,75,0,1
103330,-83.3333333333333,4,2,2,75,0,1
103717,-83.3333333333333,4,2,1,75,0,1
104104,-83.3333333333333,4,2,1,75,0,1
105169,-83.3333333333333,4,2,1,5,0,1
105265,-83.3333333333333,4,2,1,75,0,1
105459,-83.3333333333333,4,2,1,75,0,1
105846,-83.3333333333333,4,2,1,75,0,1
106427,-83.3333333333333,4,2,2,75,0,1
106814,-83.3333333333333,4,2,1,75,0,1
108943,-83.3333333333333,4,2,1,75,0,1
109427,-83.3333333333333,4,2,1,5,0,1
109523,-83.3333333333333,4,2,1,60,0,1
114556,-83.3333333333333,4,2,2,60,0,1
116104,-83.3333333333333,4,2,1,60,0,1
117556,-83.3333333333333,4,2,1,5,0,1
117653,-83.3333333333333,4,2,1,60,0,1
117846,-83.3333333333333,4,2,1,60,0,1
118233,-83.3333333333333,4,2,1,60,0,1
119007,-83.3333333333333,4,2,1,60,0,1
119201,-83.3333333333333,4,2,1,60,0,1
120556,-83.3333333333333,4,2,1,60,0,1
121911,-83.3333333333333,4,2,2,60,0,1
122298,-83.3333333333333,4,2,1,60,0,1
123459,-83.3333333333333,4,2,1,60,0,1
123653,-83.3333333333333,4,2,1,60,0,1
125007,-83.3333333333333,4,2,1,75,0,1
125588,-83.3333333333333,4,2,1,75,0,1
125782,-83.3333333333333,4,2,1,75,0,1
125975,-83.3333333333333,4,2,1,75,0,1
126169,-83.3333333333333,4,2,1,75,0,1
126362,-83.3333333333333,4,2,1,75,0,1
126556,-83.3333333333333,4,2,1,75,0,1
126749,-83.3333333333333,4,2,1,75,0,1
127523,-83.3333333333333,4,2,1,75,0,1
127717,-83.3333333333333,4,2,1,75,0,0

[Colours]
Combo1 : 246,227,223
Combo2 : 198,59,98

[HitObjects]
256,192,1524,5,4,3:2:0:0:
160,192,1911,2,0,P|97:181|42:149,2,127.5,2|0|2,0:0|0:0|0:0,0:0:0:0:
256,192,2685,1,2,0:0:0:0:
352,256,2878,5,0,3:0:0:0:
352,128,3072,1,0,3:0:0:0:
215,14,3459,6,0,L|178:7,3,31.8750012159348,0|0|0|0,0:0|0:0|0:0|0:0,0:0:0:0:
297,59,3846,2,0,L|334:52,3,31.8750012159348,0|0|0|0,0:0|0:0|0:0|0:0,0:0:0:0:
215,99,4233,1,0,0:0:0:0:
215,99,4330,1,0,0:0:0:0:
215,99,4427,5,0,3:0:0:0:
301,145,4620,2,0,L|482:114,1,170,0|2,3:0|0:0,0:0:0:0:
468,116,5201,5,0,3:0:0:0:
446,209,5394,2,0,B|370:244|370:244|284:232,1,170,0|2,3:0|0:0,0:0:0:0:
152,261,5975,1,4,3:2:0:0:
189,87,6169,5,2,0:0:0:0:
193,115,6265,1,2,0:0:0:0:
197,143,6362,1,2,3:2:0:0:
202,171,6459,1,2,0:0:0:0:
208,199,6556,1,2,3:2:0:0:
281,151,6749,1,2,3:2:0:0:
123,187,6943,2,0,L|59:198,3,42.5,2|0|0|0,3:2|3:0|3:0|3:0,0:0:0:0:
112,107,7330,1,6,3:2:0:0:
151,339,7717,6,0,B|184:332|203:352|203:352|230:380|268:364,1,127.5,4|0,3:0|0:0,0:0:0:0:
283,348,8104,2,0,P|311:329|363:340,1,85,8|0,0:0|0:0,0:0:0:0:
432,382,8394,1,2,0:0:0:0:
432,382,8491,2,0,L|441:274,1,85,2|2,3:2|0:0,0:0:0:0:
398,220,8878,2,0,L|314:212,1,85,8|0,0:0|3:0,0:0:0:0:
237,275,9265,6,0,P|229:211|235:148,1,127.5,4|0,3:0|0:0,0:0:0:0:
247,111,9653,1,10,0:2:0:0:
342,92,9846,1,2,0:0:0:0:
342,92,9943,1,2,0:0:0:0:
342,92,10040,2,0,L|330:133,3,42.5,0|2|2|0,3:0|0:0|0:0|0:0,0:0:0:0:
425,46,10427,2,0,L|425:88,3,42.5,8|0|2|2,0:0|0:0|0:0|0:0,0:0:0:0:
349,6,10814,6,0,B|308:-2|308:-2|224:15,1,127.5,4|0,3:0|0:0,0:0:0:0:
216,32,11201,2,0,B|180:55|180:55|139:44,1,85,8|0,0:0|0:0,0:0:0:0:
65,0,11490,1,2,0:0:0:0:
65,0,11588,2,0,L|56:108,1,85,2|2,3:2|0:0,0:0:0:0:
8,154,11975,2,0,P|45:171|87:164,1,85,8|0,0:0|3:0,0:0:0:0:
249,106,12362,5,4,3:0:0:0:
249,106,12459,1,0,0:0:0:0:
249,106,12556,2,0,L|292:109,2,42.5,2|0|8,0:0|0:0|0:0,0:0:0:0:
222,192,12943,1,2,0:0:0:0:
222,192,13040,1,2,0:0:0:0:
222,192,13137,2,0,L|179:195,2,42.5,0|2|2,3:0|0:0|0:0,0:0:0:0:
311,189,13523,1,10,0:2:0:0:
161,114,13717,1,2,0:0:0:0:
283,34,13911,6,0,B|316:27|335:47|335:47|362:75|400:59,1,127.5,4|0,3:0|0:0,0:0:0:0:
413,41,14298,2,0,P|454:41|482:72,1,85,8|0,0:0|0:0,0:0:0:0:
501,155,14588,1,2,0:0:0:0:
500,155,14685,2,0,P|505:198|499:239,1,85,2|2,3:2|0:0,0:0:0:0:
401,232,15072,2,0,P|406:189|400:148,1,85,8|0,0:0|3:0,0:0:0:0:
305,178,15362,1,0,0:0:0:0:
305,178,15459,6,0,L|325:313,1,127.5,4|0,3:0|0:0,0:0:0:0:
323,304,15846,1,8,0:0:0:0:
465,351,16040,1,2,0:0:0:0:
465,351,16136,1,2,0:0:0:0:
465,351,16233,2,0,L|520:360,3,42.5,0|2|2|0,3:0|0:0|0:0|0:0,0:0:0:0:
409,269,16620,2,0,L|464:260,3,42.5,8|0|2|2,0:0|0:0|0:0|0:0,0:0:0:0:
387,344,17007,6,0,B|345:363|345:363|246:348,1,127.5,4|0,3:0|0:0,0:0:0:0:
245,335,17394,2,0,B|203:332|203:332|175:294,1,85,8|0,0:0|0:0,0:0:0:0:
143,215,17685,1,2,0:0:0:0:
143,215,17782,2,0,P|185:211|225:222,1,85,2|2,3:2|0:0,0:0:0:0:
125,368,18169,2,0,P|100:333|89:292,1,85,8|0,0:0|3:0,0:0:0:0:
54,219,18556,5,4,3:0:0:0:
54,197,18653,1,0,0:0:0:0:
54,175,18749,1,2,0:0:0:0:
54,153,18846,1,0,0:0:0:0:
53,131,18943,2,0,P|47:88|64:48,1,85,8|2,0:0|0:0,0:0:0:0:
221,113,19330,2,0,L|126:100,1,85,0|0,3:0|3:2,0:0:0:0:
250,34,19717,1,0,3:0:0:0:
293,155,19911,1,0,3:0:0:0:
420,49,20104,5,4,3:2:0:0:
260,47,20298,1,8,0:0:0:0:
379,138,20491,2,0,L|463:150,1,85,0|0,3:0|3:2,0:0:0:0:
283,157,20878,1,8,3:2:0:0:
399,238,21072,1,0,3:2:0:0:
306,247,21265,2,0,L|221:259,1,85,8|8,3:2|0:0,0:0:0:0:
193,279,21556,1,8,0:0:0:0:
158,277,21653,5,4,3:2:0:0:
58,157,22233,1,0,3:0:0:0:
98,342,22427,1,0,3:0:0:0:
101,346,22814,1,2,0:2:0:0:
305,239,23201,6,0,B|362:264|362:264|376:301|376:301|437:330,1,170,4|0,3:0|3:0,0:0:0:0:
445,237,23782,1,2,0:0:0:0:
445,237,23975,2,0,P|443:198|451:163,2,63.7500024318696,2|0|0,3:2|0:0|3:0,0:0:0:0:
362,157,24556,1,2,0:0:0:0:
362,157,24749,2,0,P|375:120|396:91,2,63.7500024318696,2|0|0,3:2|0:0|3:0,0:0:0:0:
316,50,25330,1,2,0:0:0:0:
316,50,25523,5,2,3:2:0:0:
252,112,25717,1,2,0:0:0:0:
192,45,25911,1,2,3:2:0:0:
128,107,26104,1,2,0:0:0:0:
68,40,26298,6,0,B|60:74|36:96|36:96|52:122|56:156,1,127.500004863739,4|0,3:2|3:0,0:0:0:0:
61,236,26878,1,2,0:0:0:0:
60,236,27072,2,0,P|91:226|116:207,2,63.7500024318696,2|0|0,3:2|0:0|3:0,0:0:0:0:
36,314,27653,1,2,0:0:0:0:
35,313,27847,2,0,P|66:316|97:308,2,63.7500024318696,2|0|0,3:2|0:0|0:0,0:0:0:0:
180,279,28427,1,2,0:0:0:0:
180,279,28523,1,2,0:0:0:0:
180,279,28620,5,2,3:2:0:0:
222,357,28814,1,2,0:0:0:0:
310,369,29007,1,2,3:2:0:0:
386,323,29200,1,2,0:0:0:0:
394,235,29394,6,0,B|386:220|389:206|389:206|399:186|391:163,1,73.9500006206131,4|0,3:2|0:0,0:0:0:0:
346,87,29782,2,0,P|275:52|207:54,2,147.900001241226,10|2|10,0:2|3:2|0:0,0:0:0:0:
473,206,30943,2,0,P|484:134|489:51,1,147.900001241226,2|8,3:2|0:0,0:0:0:0:
351,83,31523,1,0,0:0:0:0:
387,162,31717,2,0,P|392:198|391:235,1,73.9500006206131,0|0,3:0|0:0,0:0:0:0:
308,374,32104,1,10,0:0:0:0:
417,337,32298,2,0,L|518:319,1,73.9500006206131,2|4,0:0|3:2,0:0:0:0:
242,313,32878,6,0,B|173:297|175:353|94:332,2,147.900001241226,10|2|10,0:0|3:2|0:0,0:0:0:0:
321,376,33846,1,0,0:0:0:0:
307,237,34040,2,0,P|290:166|290:92,1,147.900001241226,2|8,3:2|0:0,0:0:0:0:
356,16,34620,1,0,0:0:0:0:
356,16,34717,1,0,0:0:0:0:
356,16,34814,2,0,P|392:19|428:27,1,73.9500006206131,2|2,3:2|3:2,0:0:0:0:
396,131,35201,1,10,0:0:0:0:
396,131,35298,1,2,3:2:0:0:
396,131,35394,1,8,0:0:0:0:
291,92,35588,6,0,B|208:48|208:48|115:74,1,191.250007295609,6|0,3:0|0:0,0:0:0:0:
31,156,36362,2,0,P|27:92|18:29,1,127.500004863739,10|0,0:0|0:0,0:0:0:0:
130,171,36943,1,2,3:0:0:0:
130,171,37040,1,2,0:3:0:0:
130,169,37136,6,0,P|121:199|117:231,2,63.7500024318696,2|0|0,3:0|0:0|0:0,0:0:0:0:
3,307,37911,1,8,0:0:0:0:
100,325,38104,2,0,P|162:336|224:351,1,127.500004863739,2|0,3:0|3:0,0:0:0:0:
264,370,38588,1,8,0:0:0:0:
264,370,38685,6,0,L|343:353,1,63.7500024318696,2|0,3:0|0:0,0:0:0:0:
494,311,39072,2,0,L|415:294,1,63.7500024318696,0|0,0:0|0:0,0:0:0:0:
397,279,39362,1,0,3:0:0:0:
397,279,39459,2,0,L|387:240,4,31.8750012159348,10|2|0|10|2,0:0|0:0|3:0|0:0|0:0,0:0:0:0:
415,383,40040,1,2,0:0:0:0:
477,225,40233,6,0,P|477:163|474:112,1,95.6250036478044,2|0,3:0|3:0,0:0:0:0:
462,93,40620,2,0,L|474:49,3,31.8750012159348,2|0|8|8,0:0|3:0|0:0|0:0,0:0:0:0:
445,33,41007,1,2,3:2:0:0:
373,114,41201,1,2,3:2:0:0:
373,114,41298,1,8,0:0:0:0:
373,114,41394,2,0,L|385:158,3,31.8750012159348,2|8|10|8,3:2|0:0|0:0|0:0,0:0:0:0:
362,188,41782,6,0,P|326:210|284:210,1,85,6|2,3:0|0:2,0:0:0:0:
172,145,42169,2,0,L|151:62,1,85,8|2,0:0|0:0,0:0:0:0:
286,38,42556,2,0,L|265:121,1,85,0|2,3:0|0:0,0:0:0:0:
189,231,42943,2,0,P|146:230|111:208,1,85,10|2,0:0|0:0,0:0:0:0:
36,77,43330,5,2,3:2:0:0:
39,81,43717,2,0,L|26:275,2,170,10|2|10,0:0|3:2|0:0,0:0:0:0:
248,56,44878,6,0,B|300:36|335:66|335:66|351:106|390:117,1,170,2|8,3:2|0:0,0:0:0:0:
504,27,45459,1,2,0:0:0:0:
504,27,45653,2,0,L|420:44,1,85,0|0,0:0|0:0,0:0:0:0:
283,132,46040,2,0,L|300:215,1,85,8|0,0:0|0:0,0:0:0:0:
472,282,46427,6,0,P|430:275|387:274,1,85,2|0,3:2|0:0,0:0:0:0:
356,304,46717,1,2,0:0:0:0:
356,304,46814,2,0,P|314:310|272:303,1,85,8|2,0:0|0:0,0:0:0:0:
171,142,47201,2,0,P|201:196|200:259,1,127.5,0|0,3:0|0:0,0:0:0:0:
181,298,47588,2,0,P|139:291|97:299,1,85,10|0,0:0|0:0,0:0:0:0:
8,365,47975,5,4,3:1:0:0:
30,80,49136,1,2,0:0:0:0:
33,84,49523,6,0,B|96:96|96:96|149:62,2,127.5,4|4|4,3:2|3:1|3:2,0:0:0:0:
220,17,50298,1,4,3:2:0:0:
422,158,50685,5,0,0:0:0:0:
389,168,50782,1,0,0:0:0:0:
355,169,50878,1,0,0:0:0:0:
321,162,50975,1,0,0:0:0:0:
291,145,51072,6,0,P|203:94|103:102,1,203.999993774414,4|8,3:0|0:0,0:0:0:0:
26,301,51653,1,2,0:0:0:0:
26,301,51749,1,2,0:0:0:0:
26,301,51846,2,0,P|59:338|107:354,1,101.999996887207,2|0,3:2|0:0,0:0:0:0:
273,239,52233,2,0,L|109:252,1,152.999995330811,10|0,0:0|0:0,0:0:0:0:
86,228,52620,5,2,3:2:0:0:
27,117,52814,2,0,L|20:73,2,33.9999989624024,2|2|2,0:0|0:0|0:0,0:0:0:0:
33,139,53007,2,0,L|163:151,1,101.999996887207,10|2,0:2|0:0,0:0:0:0:
226,33,53394,2,0,L|124:42,1,101.999996887207,2|0,3:2|0:0,0:0:0:0:
139,155,53782,1,10,0:0:0:0:
242,122,53975,1,2,0:0:0:0:
204,249,54169,6,0,P|102:237|0:241,2,203.999993774414,2|10|2,3:2|0:0|3:2,0:0:0:0:
404,118,55330,1,10,0:0:0:0:
309,216,55523,1,2,0:0:0:0:
309,216,55620,1,2,0:0:0:0:
309,216,55717,6,0,P|410:204|512:208,2,203.999993774414,6|10|6,3:2|0:0|3:2,0:0:0:0:
142,345,56878,1,10,0:0:0:0:
128,312,56975,1,0,0:0:0:0:
127,277,57071,1,2,1:2:0:0:
133,242,57168,1,10,1:2:0:0:
149,211,57265,6,0,B|142:158|142:158|149:126|149:126|131:94|131:94|115:14,1,203.999993774414,4|8,3:0|0:0,0:0:0:0:
276,77,57846,1,2,0:0:0:0:
276,77,57943,1,2,0:0:0:0:
276,76,58040,2,0,P|246:117|235:166,1,101.999996887207,2|0,3:2|0:0,0:0:0:0:
319,288,58427,2,0,P|366:229|380:154,1,152.999995330811,10|0,0:0|0:0,0:0:0:0:
365,123,58814,5,0,3:0:0:0:
182,278,59007,2,0,L|221:280,2,33.9999989624024,2|2|2,0:0|0:0|0:0,0:0:0:0:
176,260,59201,2,0,L|65:254,1,101.999996887207,10|2,0:2|0:0,0:0:0:0:
3,354,59588,2,0,L|104:348,1,101.999996887207,0|0,3:0|0:0,0:0:0:0:
157,177,59975,1,8,0:0:0:0:
159,142,60072,1,0,0:0:0:0:
153,108,60169,1,2,0:0:0:0:
141,75,60265,1,2,0:0:0:0:
122,44,60362,6,0,P|54:116|51:215,1,203.999993774414,2|8,3:2|0:0,0:0:0:0:
198,289,60943,1,2,0:0:0:0:
198,289,61040,1,2,0:0:0:0:
198,289,61136,2,0,P|253:206|238:107,1,203.999993774414,2|8,3:2|0:0,0:0:0:0:
320,6,61717,1,2,0:0:0:0:
320,6,61814,1,2,0:0:0:0:
320,6,61911,6,0,L|344:113,1,101.999996887207,2|0,3:2|0:0,0:0:0:0:
374,232,62298,1,10,0:0:0:0:
292,180,62491,1,2,0:0:0:0:
292,180,62588,1,2,0:0:0:0:
292,179,62685,2,0,P|351:133|426:126,1,152.999995330811,2|0,3:2|0:0,0:0:0:0:
455,107,63072,2,0,L|470:215,1,101.999996887207,8|2,1:2|1:2,0:0:0:0:
483,299,63459,5,4,3:0:0:0:
328,246,63653,1,2,0:0:0:0:
504,202,63846,1,8,0:0:0:0:
386,358,64040,1,2,0:0:0:0:
386,358,64136,1,2,0:0:0:0:
386,358,64233,5,0,3:0:0:0:
338,158,64427,1,2,0:0:0:0:
280,376,64620,1,8,0:0:0:0:
225,241,64814,1,0,0:0:0:0:
162,347,65007,2,0,L|56:336,1,101.999996887207,2|2,3:2|0:0,0:0:0:0:
0,192,65394,2,0,L|106:181,1,101.999996887207,10|2,0:0|0:0,0:0:0:0:
133,194,65685,1,2,0:0:0:0:
133,194,65782,2,0,L|144:249,2,50.9999984436036,2|0|0,3:2|0:0|0:0,0:0:0:0:
157,88,66169,2,0,P|202:65|252:64,1,101.999996887207,8|2,0:0|0:0,0:0:0:0:
425,125,66556,5,2,3:2:0:0:
224,150,66749,1,2,0:0:0:0:
356,24,66943,1,8,0:0:0:0:
389,213,67136,1,2,0:0:0:0:
389,213,67233,1,2,0:0:0:0:
389,213,67330,5,0,3:0:0:0:
452,107,67523,1,2,0:0:0:0:
448,320,67717,1,8,0:0:0:0:
512,215,67911,1,0,0:0:0:0:
361,296,68104,5,2,3:2:0:0:
330,311,68201,1,2,0:0:0:0:
296,318,68298,2,0,L|226:315,3,50.9999984436036,2|2|8|0,0:0|0:0|1:2|1:0,0:0:0:0:
181,251,68685,1,2,0:0:0:0:
147,242,68782,1,2,0:0:0:0:
112,242,68879,2,0,L|44:259,3,50.9999984436036,2|2|0|0,3:2|0:0|1:0|1:0,0:0:0:0:
32,173,69265,1,10,0:0:0:0:
25,138,69362,1,2,0:0:0:0:
27,103,69459,1,2,0:0:0:0:
40,70,69556,1,2,0:0:0:0:
67,48,69653,6,0,L|269:73,1,203.999993774414,4|8,3:0|0:0,0:0:0:0:
435,11,70233,1,2,0:0:0:0:
435,11,70330,1,2,0:0:0:0:
435,11,70427,2,0,P|384:3|336:17,1,101.999996887207,2|0,3:2|0:0,0:0:0:0:
262,160,70814,2,0,P|338:161|406:121,1,152.999995330811,10|0,0:0|0:0,0:0:0:0:
420,94,71201,5,2,3:2:0:0:
468,257,71394,2,0,L|471:207,2,33.9999989624024,2|2|2,0:0|0:0|0:0,0:0:0:0:
445,271,71588,2,0,L|343:280,1,101.999996887207,10|2,0:2|0:0,0:0:0:0:
150,337,71975,2,0,L|251:346,1,101.999996887207,2|0,3:2|0:0,0:0:0:0:
340,276,72362,1,10,0:0:0:0:
229,241,72556,1,2,0:0:0:0:
315,171,72749,6,0,B|367:164|397:157|397:157|436:173|436:173|473:161|512:156,2,203.999993774414,2|10|2,3:2|0:0|3:2,0:0:0:0:
125,121,73911,1,8,0:0:0:0:
197,46,74104,1,2,0:0:0:0:
197,46,74201,1,2,0:0:0:0:
197,46,74298,6,0,B|145:39|115:32|115:32|76:48|76:48|39:36|0:31,2,203.999993774414,6|10|6,3:2|0:0|3:2,0:0:0:0:
170,220,75459,1,10,0:0:0:0:
180,253,75556,1,0,0:0:0:0:
180,287,75653,1,2,1:2:0:0:
179,321,75749,1,2,1:2:0:0:
167,353,75846,6,0,P|95:283|92:184,1,203.999993774414,4|8,3:0|0:0,0:0:0:0:
201,137,76427,1,2,0:0:0:0:
201,137,76523,1,2,0:0:0:0:
201,137,76620,2,0,P|260:183|281:255,1,152.999995330811,2|0,3:2|0:0,0:0:0:0:
270,289,77007,2,0,L|396:314,1,101.999996887207,8|2,0:0|0:0,0:0:0:0:
398,329,77298,1,2,0:0:0:0:
398,329,77394,6,0,P|421:284|419:234,1,101.999996887207,2|0,3:2|3:0,0:0:0:0:
358,0,77782,2,0,P|334:44|336:94,1,101.999996887207,10|0,0:0|3:0,0:0:0:0:
357,123,78072,1,0,1:0:0:0:
388,138,78169,2,0,L|448:139,2,50.9999984436036,8|0|0,0:0|0:0|3:0,0:0:0:0:
262,128,78556,1,10,0:0:0:0:
421,56,78749,1,0,3:0:0:0:
321,240,78943,6,0,B|258:225|213:282|241:291|185:353|94:358|35:277|35:277|44:176|124:140|182:149|176:166|247:190|292:107|292:107|178:71|126:-1|126:-1|85:88|11:132|11:132|-6:65|27:5,1,1190,4|0,3:0|0:0,0:0:0:0:
98,86,81846,1,0,3:0:0:0:
98,86,82040,6,0,B|131:93|150:73|150:73|177:45|215:61,1,127.5,6|0,3:0|0:0,0:0:0:0:
242,49,82427,2,0,P|274:77|278:118,1,85,8|0,0:0|0:0,0:0:0:0:
199,147,82717,1,2,0:0:0:0:
199,147,82814,2,0,P|162:169|120:173,1,85,2|2,3:2|0:0,0:0:0:0:
51,236,83201,2,0,P|86:256|128:261,1,85,8|0,0:0|3:0,0:0:0:0:
303,198,83588,6,0,L|438:210,1,127.5,4|0,3:0|0:0,0:0:0:0:
455,195,83975,1,8,0:0:0:0:
428,297,84169,1,2,0:0:0:0:
428,297,84265,1,2,0:0:0:0:
428,297,84362,2,0,L|439:337,3,42.5,0|2|2|2,3:0|0:0|0:0|0:0,0:0:0:0:
355,342,84749,2,0,L|351:384,3,42.5,8|2|2|2,0:0|0:0|0:0|0:0,0:0:0:0:
289,285,85136,6,0,B|259:267|259:267|168:286,1,127.5,4|0,3:0|0:0,0:0:0:0:
150,299,85523,2,0,B|123:267|123:267|129:224,1,85,8|0,0:0|0:0,0:0:0:0:
50,218,85814,1,2,0:0:0:0:
50,218,85911,2,0,L|37:315,1,85,2|2,3:2|0:0,0:0:0:0:
132,228,86298,2,0,L|140:130,1,85,8|0,0:0|3:0,0:0:0:0:
83,41,86685,5,4,3:0:0:0:
83,41,86782,1,0,0:0:0:0:
83,41,86878,2,0,L|29:31,2,42.5,2|0|8,0:0|0:0|0:0,0:0:0:0:
175,43,87265,1,2,1:2:0:0:
175,43,87362,1,2,1:2:0:0:
175,43,87459,2,0,L|229:33,2,42.5,0|2|2,3:0|1:2|1:2,0:0:0:0:
224,123,87846,1,10,3:2:0:0:
251,115,87943,1,0,3:0:0:0:
279,109,88040,1,2,3:2:0:0:
307,109,88136,1,0,3:0:0:0:
334,111,88233,6,0,P|358:170|359:234,1,127.5,4|0,3:0|0:0,0:0:0:0:
348,263,88620,2,0,P|381:287|422:280,1,85,8|0,0:0|0:0,0:0:0:0:
444,202,88911,1,2,0:0:0:0:
444,202,89007,2,0,L|441:107,1,85,2|2,3:2|0:0,0:0:0:0:
266,215,89394,2,0,L|268:300,1,85,8|0,0:0|3:0,0:0:0:0:
171,370,89782,6,0,P|169:306|173:242,1,127.5,0|0,3:0|0:0,0:0:0:0:
183,214,90169,1,8,0:0:0:0:
87,307,90362,1,2,0:0:0:0:
87,307,90459,1,2,0:0:0:0:
87,307,90556,2,0,L|93:360,3,42.5,0|2|2|2,3:0|0:0|0:0|0:0,0:0:0:0:
5,285,90943,2,0,L|10:243,3,42.5,8|2|2|2,0:0|0:0|3:2|0:0,0:0:0:0:
94,218,91330,5,4,3:0:0:0:
16,159,91523,1,0,3:0:0:0:
109,121,91717,1,8,0:0:0:0:
31,62,91910,1,2,3:2:0:0:
31,62,92007,1,2,3:2:0:0:
30,62,92104,2,0,P|64:36|105:26,1,85,0|10,3:0|0:0,0:0:0:0:
179,177,92491,2,0,P|212:202|253:212,1,85,8|0,0:0|3:0,0:0:0:0:
364,49,92878,5,4,3:0:0:0:
390,37,92975,1,0,0:0:0:0:
418,34,93072,1,2,0:0:0:0:
446,40,93169,1,0,0:0:0:0:
472,51,93265,2,0,P|491:63|512:68,3,42.5,8|0|2|2,0:0|0:0|0:0|0:0,0:0:0:0:
412,120,93653,6,0,P|376:141|348:182,1,85,4|2,3:0|3:2,0:0:0:0:
283,346,94040,1,2,3:2:0:0:
249,188,94233,1,2,3:2:0:0:
422,287,94427,5,0,3:0:0:0:
169,256,94620,1,8,0:0:0:0:
375,190,94814,2,0,L|479:183,1,85,0|0,3:0|3:0,0:0:0:0:
286,107,95201,1,8,0:0:0:0:
438,66,95394,1,0,3:0:0:0:
318,23,95588,2,0,L|233:17,1,85,8|8,0:0|0:0,0:0:0:0:
205,26,95878,1,8,0:0:0:0:
178,14,95975,5,4,3:0:0:0:
130,181,96556,1,0,3:0:0:0:
95,0,96749,1,6,3:2:0:0:
24,278,97136,5,8,0:0:0:0:
50,266,97233,1,8,0:0:0:0:
78,259,97330,1,8,0:0:0:0:
106,257,97427,1,8,0:0:0:0:
132,261,97523,6,0,P|227:293|323:266,1,203.999993774414,4|8,3:0|0:0,0:0:0:0:
435,134,98104,1,2,0:0:0:0:
435,134,98201,1,2,0:0:0:0:
435,134,98298,2,0,P|386:145|357:186,1,101.999996887207,2|0,3:2|0:0,0:0:0:0:
453,383,98685,2,0,B|475:269|475:269|467:232,1,152.999995330811,10|0,0:0|0:0,0:0:0:0:
432,216,99072,5,2,3:2:0:0:
324,369,99265,2,0,L|372:363,2,33.9999989624024,2|2|2,0:0|0:0|0:0,0:0:0:0:
312,352,99459,2,0,L|195:365,1,101.999996887207,10|2,0:0|0:0,0:0:0:0:
142,303,99846,2,0,L|41:292,1,101.999996887207,0|0,3:0|0:0,0:0:0:0:
93,207,100233,1,8,0:0:0:0:
81,378,100427,1,2,0:0:0:0:
180,225,100620,6,0,B|189:197|189:197|162:24,2,203.999993774414,2|10|2,3:2|0:0|3:2,0:0:0:0:
382,293,101782,1,8,0:0:0:0:
324,156,101975,1,2,0:0:0:0:
324,156,102072,1,2,0:0:0:0:
324,156,102169,6,0,B|297:334|297:334|282:352,2,203.999993774414,6|10|6,3:2|0:0|3:2,0:0:0:0:
80,36,103330,1,10,0:0:0:0:
97,65,103427,1,0,0:0:0:0:
123,87,103523,1,0,1:0:0:0:
156,95,103620,1,8,1:2:0:0:
190,90,103717,6,0,B|258:77|258:77|279:59|279:59|309:64|309:64|383:47,1,203.999993774414,4|8,3:0|0:0,0:0:0:0:
391,238,104298,1,2,0:0:0:0:
391,238,104394,1,2,0:0:0:0:
391,238,104491,2,0,P|358:200|360:150,1,101.999996887207,2|0,3:2|0:0,0:0:0:0:
454,0,104878,2,0,B|480:42|480:42|444:168,1,152.999995330811,8|0,0:0|0:0,0:0:0:0:
439,174,105265,5,2,3:2:0:0:
245,124,105459,2,0,L|278:118,2,33.9999989624024,2|2|2,0:0|0:0|0:0,0:0:0:0:
224,110,105653,2,0,L|213:215,1,101.999996887207,10|2,0:0|0:0,0:0:0:0:
290,283,106040,2,0,L|300:384,1,101.999996887207,2|0,3:2|0:0,0:0:0:0:
213,333,106427,1,8,0:0:0:0:
191,306,106523,1,0,0:0:0:0:
166,281,106620,1,2,0:0:0:0:
136,262,106717,1,2,0:0:0:0:
102,251,106814,6,0,P|68:157|112:68,1,203.999993774414,0|8,3:0|0:0,0:0:0:0:
248,15,107394,1,2,0:0:0:0:
248,15,107491,1,2,0:0:0:0:
248,15,107588,2,0,P|307:94|291:192,1,203.999993774414,2|8,3:2|0:0,0:0:0:0:
200,330,108169,1,2,0:0:0:0:
200,330,108265,1,2,0:0:0:0:
200,330,108362,6,0,L|192:227,1,101.999996887207,2|0,3:2|0:0,0:0:0:0:
185,122,108749,1,10,0:0:0:0:
299,300,108943,1,2,0:0:0:0:
299,300,109040,1,2,0:0:0:0:
299,300,109136,2,0,P|386:323|449:308,1,152.999995330811,2|0,3:2|0:0,0:0:0:0:
477,324,109523,2,0,B|488:298|488:298|474:222,1,101.999996887207,8|0,2:2|1:0,0:0:0:0:
385,23,109911,5,6,3:2:0:0:
397,209,110104,1,2,0:2:0:0:
502,38,110298,1,8,0:0:0:0:
314,141,110491,1,2,0:0:0:0:
314,141,110588,1,2,0:0:0:0:
314,141,110685,5,0,3:0:0:0:
493,163,110878,1,2,0:0:0:0:
332,38,111072,1,8,0:0:0:0:
474,27,111265,1,0,0:0:0:0:
245,0,111459,6,0,L|130:17,1,101.999996887207,2|2,3:2|0:0,0:0:0:0:
236,169,111846,2,0,L|351:186,1,101.999996887207,10|2,0:0|0:0,0:0:0:0:
371,179,112136,1,2,0:0:0:0:
402,165,112233,2,0,B|430:132|429:73|429:73|460:81|470:106,1,152.999995330811,2|0,3:2|0:0,0:0:0:0:
493,131,112620,2,0,P|487:188|485:244,1,101.999996887207,8|2,1:0|2:2,1:0:0:0:
482,319,113007,5,2,3:2:0:0:
265,245,113201,1,2,0:0:0:0:
357,383,113394,1,8,0:0:0:0:
391,169,113588,1,2,0:0:0:0:
391,169,113685,1,2,0:0:0:0:
391,169,113782,5,0,3:0:0:0:
334,304,113975,1,2,0:0:0:0:
314,73,114169,1,8,0:0:0:0:
271,206,114362,1,0,0:0:0:0:
218,60,114556,5,2,3:2:0:0:
182,62,114653,1,2,0:0:0:0:
151,80,114749,2,0,L|116:126,3,50.9999984436036,2|2|8|0,0:0|0:0|1:2|1:0,0:0:0:0:
170,198,115136,1,2,0:0:0:0:
170,231,115233,1,2,0:0:0:0:
163,264,115330,2,0,L|146:325,3,50.9999984436036,2|2|0|0,3:2|0:0|1:0|1:0,0:0:0:0:
232,339,115717,1,10,0:0:0:0:
258,361,115814,1,2,0:0:0:0:
290,372,115911,1,2,0:0:0:0:
324,371,116007,1,2,0:0:0:0:
356,360,116104,6,0,P|367:258|369:156,1,203.999993774414,4|8,3:0|0:0,0:0:0:0:
472,47,116685,1,2,0:0:0:0:
472,47,116782,1,2,0:0:0:0:
472,46,116878,2,0,P|469:96|472:147,1,101.999996887207,2|0,3:2|0:0,0:0:0:0:
288,243,117265,2,0,P|397:249|448:246,1,152.999995330811,8|0,0:0|0:0,0:0:0:0:
471,230,117653,5,2,3:2:0:0:
329,113,117846,2,0,L|322:156,2,33.9999989624024,2|2|2,0:0|0:0|0:0,0:0:0:0:
349,101,118040,2,0,L|357:0,1,101.999996887207,10|2,0:0|0:0,0:0:0:0:
236,64,118427,2,0,L|244:165,1,101.999996887207,2|0,3:2|0:0,0:0:0:0:
141,123,118814,1,10,0:0:0:0:
157,13,119007,1,2,0:0:0:0:
57,54,119201,6,0,B|32:151|32:151|63:249,2,203.999993774414,2|10|2,3:2|0:0|3:2,0:0:0:0:
171,209,120362,1,8,0:0:0:0:
258,114,120556,1,2,0:0:0:0:
258,114,120653,1,2,0:0:0:0:
258,114,120749,6,0,B|283:211|283:211|251:309,2,203.999993774414,4|10|4,3:2|0:0|3:2,0:0:0:0:
415,7,121911,1,10,0:0:0:0:
401,38,122007,1,0,0:0:0:0:
397,72,122104,1,2,1:2:0:0:
401,106,122201,1,2,1:2:0:0:
416,135,122298,6,0,P|448:231|433:331,1,203.999993774414,4|8,3:0|0:0,0:0:0:0:
300,334,122878,1,2,0:0:0:0:
300,334,122975,1,2,0:0:0:0:
300,334,123072,2,0,P|284:234|316:138,1,203.999993774414,0|8,3:0|0:0,0:0:0:0:
261,7,123653,1,2,0:0:0:0:
261,7,123749,1,2,0:0:0:0:
260,6,123846,6,0,P|254:56|221:94,1,101.999996887207,2|0,3:2|3:0,0:0:0:0:
34,62,124233,2,0,L|148:53,1,101.999996887207,8|0,0:0|3:0,0:0:0:0:
232,173,124620,1,10,0:0:0:0:
198,167,124717,1,0,3:0:0:0:
165,159,124814,1,0,3:0:0:0:
132,151,124911,1,0,3:0:0:0:
99,143,125007,2,0,B|38:152,3,50.9999984436036,2|2|2|2,3:2|3:2|3:2|3:2,0:0:0:0:
28,178,125394,5,4,3:0:0:0:
118,384,125588,1,8,0:0:0:0:
94,226,125782,2,0,L|65:323,1,101.999996887207,0|0,3:0|3:0,0:0:0:0:
196,284,126169,5,8,0:0:0:0:
148,109,126363,1,0,3:0:0:0:
204,199,126557,2,0,L|232:101,1,101.999996887207,8|0,0:0|3:0,0:0:0:0:
257,76,126846,1,8,0:0:0:0:
256,41,126943,5,4,3:0:0:0:
270,248,127523,1,4,3:0:0:0:
177,36,127717,1,6,3:2:0:0:
