osu file format v14

[General]
AudioFilename: audio.mp3
AudioLeadIn: 0
PreviewTime: 50688
Countdown: 0
SampleSet: Soft
StackLeniency: 0.7
Mode: 0
LetterboxInBreaks: 0
WidescreenStoryboard: 1

[Editor]
Bookmarks: 1532,7726,23210,35597,51081,63462,78946,82042,97526,109913,125397,128518
DistanceSpacing: 1.5
BeatDivisor: 4
GridSize: 16
TimelineZoom: 2.550002

[Metadata]
Title:Kessen
TitleUnicode:決戦
Artist:Atsushi
ArtistUnicode:篤志
Creator:Yusomi
Version:Hard
Source:Cytus II
Tags:Muya Cubby Lv9 Firika Shota on osu Cubbby sakura blossom instrumental video game
BeatmapID:2310736
BeatmapSetID:1094459

[Difficulty]
HPDrainRate:3
CircleSize:4
OverallDifficulty:6.5
ApproachRate:8
SliderMultiplier:1.45
SliderTickRate:1

[Events]
//Background and Video events
0,0,"Konachan.com - 301609.jpg",0,0
//Break Periods
//Storyboard Layer 0 (Background)
//Storyboard Layer 1 (Fail)
//Storyboard Layer 2 (Pass)
//Storyboard Layer 3 (Foreground)
//Storyboard Layer 4 (Overlay)
//Storyboard Sound Samples

[TimingPoints]
749,387.096774193548,4,2,1,30,1,0
1426,-100,4,2,1,5,0,0
1524,387.096774193548,4,2,1,60,1,0
1524,-100,4,2,1,80,0,0
1620,-100,4,2,1,5,0,0
1911,-100,4,2,1,60,0,0
2878,-100,4,2,1,80,0,0
2975,-100,4,2,1,5,0,0
3072,-100,4,2,1,80,0,0
3169,-100,4,2,1,5,0,0
3459,-100,4,2,2,60,0,0
4427,-100,4,2,1,80,0,0
4523,-100,4,2,1,5,0,0
4620,-100,4,2,1,80,0,0
4717,-100,4,2,1,5,0,0
5007,-100,4,2,1,60,0,0
5104,-100,4,2,1,5,0,0
5201,-100,4,2,1,80,0,0
5298,-100,4,2,1,5,0,0
5394,-100,4,2,1,80,0,0
5491,-100,4,2,1,5,0,0
5588,-100,4,2,1,60,0,0
5975,-100,4,2,1,80,0,0
6072,-100,4,2,1,5,0,0
6169,-100,4,2,2,60,0,0
6362,-100,4,2,2,60,0,0
6459,-100,4,2,1,5,0,0
6556,-100,4,2,1,60,0,0
6653,-100,4,2,1,5,0,0
6749,-100,4,2,1,60,0,0
6846,-100,4,2,1,5,0,0
6943,-100,4,2,1,60,0,0
7717,-100,4,2,1,60,0,0
8104,-100,4,2,1,60,0,0
8491,-100,4,2,1,60,0,0
8782,-100,4,2,1,5,0,0
8878,-100,4,2,1,60,0,0
8975,-100,4,2,1,5,0,0
9072,-100,4,2,1,60,0,0
9265,-100,4,2,1,60,0,0
9556,-100,4,2,1,5,0,0
9653,-100,4,2,1,60,0,0
9846,-100,4,2,2,60,0,0
10814,-100,4,2,1,60,0,0
11201,-100,4,2,1,60,0,0
11588,-100,4,2,1,60,0,0
11878,-100,4,2,1,5,0,0
11975,-100,4,2,1,60,0,0
12072,-100,4,2,1,5,0,0
12169,-100,4,2,1,60,0,0
12362,-100,4,2,2,60,0,0
13330,-100,4,2,2,60,0,0
13427,-100,4,2,1,5,0,0
13523,-100,4,2,1,60,0,0
13669,-100,4,2,1,5,0,0
13717,-100,4,2,1,60,0,0
13911,-100,4,2,1,60,0,0
14298,-100,4,2,1,60,0,0
14685,-100,4,2,1,60,0,0
14975,-100,4,2,1,5,0,0
15072,-100,4,2,1,60,0,0
15169,-100,4,2,1,5,0,0
15265,-100,4,2,1,60,0,0
15459,-100,4,2,1,60,0,0
15749,-100,4,2,1,5,0,0
15846,-100,4,2,1,60,0,0
16040,-100,4,2,2,60,0,0
17007,-100,4,2,1,60,0,0
17394,-100,4,2,1,60,0,0
17782,-100,4,2,1,60,0,0
18072,-100,4,2,1,5,0,0
18169,-100,4,2,1,60,0,0
18265,-100,4,2,1,5,0,0
18362,-100,4,2,1,60,0,0
18556,-100,4,2,2,60,0,0
19330,-100,4,2,1,60,0,0
19427,-100,4,2,1,5,0,0
19523,-100,4,2,1,60,0,0
19620,-100,4,2,1,5,0,0
19717,-100,4,2,1,60,0,0
19814,-100,4,2,1,5,0,0
19911,-100,4,2,1,60,0,0
20007,-100,4,2,1,5,0,0
20104,-100,4,2,1,75,0,1
20201,-100,4,2,1,5,0,1
20298,-100,4,2,1,75,0,1
20394,-100,4,2,1,5,0,1
20491,-100,4,2,1,75,0,1
20588,-100,4,2,1,5,0,1
20685,-100,4,2,1,75,0,1
20782,-100,4,2,1,5,0,1
20878,-100,4,2,1,75,0,1
20975,-100,4,2,1,5,0,1
21072,-100,4,2,1,75,0,1
21169,-100,4,2,1,5,0,1
21265,-100,4,2,1,75,0,1
21362,-100,4,2,1,5,0,1
21459,-100,4,2,1,75,0,1
21653,-100,4,2,1,75,0,0
21749,-100,4,2,1,5,0,0
22233,-100,4,2,1,60,0,0
22330,-100,4,2,1,5,0,0
22427,-100,4,2,1,60,0,0
22523,-100,4,2,1,5,0,0
22814,-100,4,2,2,60,0,0
23201,-100,4,2,1,60,0,0
23588,-100,4,2,2,60,0,0
23927,-100,4,2,2,5,0,0
23975,-100,4,2,2,60,0,0
24120,-100,4,2,2,5,0,0
24169,-100,4,2,2,60,0,0
24701,-100,4,2,2,5,0,0
24749,-100,4,2,2,60,0,0
24894,-100,4,2,2,5,0,0
24943,-100,4,2,2,60,0,0
25475,-100,4,2,2,5,0,0
25523,-100,4,2,2,60,0,0
25669,-100,4,2,2,5,0,0
25717,-100,4,2,2,60,0,0
25765,-100,4,2,2,30,0,0
25911,-100,4,2,2,60,0,0
26056,-100,4,2,1,5,0,0
26104,-100,4,2,2,60,0,0
26249,-100,4,2,1,5,0,0
26298,-100,4,2,2,60,0,0
26443,-100,4,2,1,5,0,0
26491,-100,4,2,2,60,0,0
26685,-100,4,2,2,60,0,0
27023,-100,4,2,1,5,0,0
27072,-100,4,2,2,60,0,0
27217,-100,4,2,1,5,0,0
27265,-100,4,2,2,60,0,0
27798,-100,4,2,1,5,0,0
27846,-100,4,2,2,60,0,0
27991,-100,4,2,1,5,0,0
28040,-100,4,2,2,60,0,0
28088,-100,4,2,2,30,0,0
28233,-100,4,2,2,60,0,0
28959,-100,4,2,1,5,0,0
29007,-100,4,2,2,60,0,0
29394,-100,4,2,2,60,0,0
29540,-100,4,2,1,5,0,0
29588,-100,4,2,2,60,0,0
29782,-100,4,2,2,60,0,0
30943,-100,4,2,2,60,0,0
31233,-100,4,2,2,5,0,0
31330,-100,4,2,2,60,0,0
31959,-100,4,2,2,30,0,0
32104,-100,4,2,2,60,0,0
32249,-100,4,2,2,5,0,0
32298,-100,4,2,2,60,0,0
32878,-100,4,2,2,60,0,0
34330,-100,4,2,1,5,0,0
34427,-100,4,2,2,60,0,0
34523,-100,4,2,1,5,0,0
34620,-100,4,2,2,60,0,0
34814,-100,4,2,2,60,0,0
34911,-100,4,2,1,5,0,0
35007,-100,4,2,2,60,0,0
35104,-100,4,2,1,5,0,0
35201,-100,4,2,2,60,0,0
35588,-100,4,2,1,60,0,0
36265,-100,4,2,1,5,0,0
36362,-100,4,2,1,60,0,0
36491,-100,4,2,2,60,0,0
36943,-100,4,2,1,60,0,0
37136,-100,4,2,1,60,0,0
37814,-100,4,2,1,5,0,0
37911,-100,4,2,2,60,0,0
38104,-100,4,2,1,60,0,0
38685,-100,4,2,2,60,0,0
39362,-100,4,2,1,60,0,0
41975,-100,4,2,2,60,0,0
42169,-100,4,2,2,60,0,0
42265,-100,4,2,2,5,0,0
42362,-100,4,2,2,60,0,0
42749,-100,4,2,2,60,0,0
42846,-100,4,2,2,5,0,0
42943,-100,4,2,2,60,0,0
43040,-100,4,2,2,5,0,0
43136,-100,4,2,2,60,0,0
43233,-100,4,2,2,5,0,0
43330,-100,4,2,2,60,0,0
45169,-100,4,2,1,5,0,0
45265,-100,4,2,2,60,0,0
45362,-100,4,2,1,5,0,0
45459,-100,4,2,2,60,0,0
45943,-100,4,2,1,5,0,0
46040,-100,4,2,2,60,0,0
46427,-100,4,2,2,60,0,0
46814,-100,4,2,2,60,0,0
46911,-100,4,2,1,5,0,0
47007,-100,4,2,2,60,0,0
47104,-100,4,2,1,5,0,0
47201,-100,4,2,2,60,0,0
49136,-100,4,2,2,60,0,0
49427,-100,4,2,1,5,0,0
49523,-100,4,2,2,60,0,0
50298,-100,4,2,2,60,0,0
51072,-100,4,2,1,75,0,1
51362,-100,4,2,1,5,0,1
51459,-100,4,2,1,75,0,1
51653,-100,4,2,1,75,0,1
51846,-100,4,2,1,75,0,1
52523,-100,4,2,1,5,0,1
52620,-100,4,2,1,75,0,1
53007,-100,4,2,1,75,0,1
53104,-100,4,2,1,5,0,1
53201,-100,4,2,1,75,0,1
53394,-100,4,2,1,75,0,1
53878,-100,4,2,1,5,0,1
53975,-100,4,2,1,75,0,1
54072,-100,4,2,1,5,0,1
54169,-100,4,2,1,75,0,1
55330,-100,4,2,1,75,0,1
55717,-100,4,2,1,75,0,1
56588,-100,4,2,1,75,0,1
56878,-100,4,2,2,75,0,1
57265,-100,4,2,1,75,0,1
57556,-100,4,2,1,5,0,1
57653,-100,4,2,1,75,0,1
57846,-100,4,2,1,75,0,1
58040,-100,4,2,1,75,0,1
58717,-100,4,2,1,5,0,1
58814,-100,4,2,1,75,0,1
59201,-100,4,2,1,75,0,1
59298,-100,4,2,1,5,0,1
59394,-100,4,2,1,75,0,1
59588,-100,4,2,1,75,0,1
59975,-100,4,2,2,75,0,1
60362,-100,4,2,1,75,0,1
62298,-100,4,2,1,75,0,1
62394,-100,4,2,1,5,0,1
62491,-100,4,2,1,75,0,1
62685,-100,4,2,1,75,0,1
62709,-100,4,2,1,60,0,0
62975,-100,4,2,1,5,0,0
63072,-100,4,2,1,60,0,0
63459,-100,4,2,1,60,0,0
63556,-100,4,2,1,5,0,0
63653,-100,4,2,1,60,0,0
63749,-100,4,2,1,5,0,0
63846,-100,4,2,1,60,0,0
63943,-100,4,2,1,5,0,0
64040,-100,4,2,1,60,0,0
64233,-100,4,2,1,60,0,0
64427,-100,4,2,1,60,0,0
64523,-100,4,2,1,5,0,0
64620,-100,4,2,1,60,0,0
64717,-100,4,2,1,5,0,0
64814,-100,4,2,1,60,0,0
64911,-100,4,2,1,5,0,0
65007,-100,4,2,1,60,0,0
66653,-100,4,2,1,5,0,0
66749,-100,4,2,1,60,0,0
66846,-100,4,2,1,5,0,0
66943,-100,4,2,1,60,0,0
67040,-100,4,2,1,5,0,0
67136,-100,4,2,1,60,0,0
67330,-100,4,2,1,60,0,0
67523,-100,4,2,1,60,0,0
67620,-100,4,2,1,5,0,0
67717,-100,4,2,1,60,0,0
67814,-100,4,2,1,5,0,0
67911,-100,4,2,1,60,0,0
68007,-100,4,2,1,5,0,0
68104,-100,4,2,2,60,0,0
69653,-100,4,2,1,60,0,0
70233,-100,4,2,1,60,0,0
70427,-100,4,2,1,60,0,0
71104,-100,4,2,1,5,0,0
71201,-100,4,2,1,60,0,0
71298,-100,4,2,1,5,0,0
71394,-100,4,2,1,60,0,0
71588,-100,4,2,1,60,0,0
71685,-100,4,2,1,5,0,0
71782,-100,4,2,1,60,0,0
71975,-100,4,2,1,60,0,0
72459,-100,4,2,1,5,0,0
72556,-100,4,2,1,60,0,0
72653,-100,4,2,1,5,0,0
72749,-100,4,2,1,60,0,0
73911,-100,4,2,1,60,0,0
74007,-100,4,2,1,5,0,0
74104,-100,4,2,1,60,0,0
74298,-100,4,2,1,60,0,0
75459,-100,4,2,2,60,0,0
75846,-100,4,2,1,60,0,0
76620,-100,4,2,1,60,0,0
76911,-100,4,2,1,5,0,0
77007,-100,4,2,1,60,0,0
77104,-100,4,2,1,5,0,0
77201,-100,4,2,1,60,0,0
77394,-100,4,2,1,60,0,0
77491,-100,4,2,1,5,0,0
77588,-100,4,2,1,60,0,0
77685,-100,4,2,1,5,0,0
77782,-100,4,2,1,60,0,0
77878,-100,4,2,1,5,0,0
77975,-100,4,2,1,60,0,0
78169,-100,4,2,1,60,0,0
78362,-100,4,2,1,60,0,0
78459,-100,4,2,1,5,0,0
78556,-100,4,2,1,60,0,0
78653,-100,4,2,1,5,0,0
78749,-100,4,2,1,60,0,0
78846,-100,4,2,1,5,0,0
78943,-100,4,2,1,60,0,0
81653,-100,4,2,1,60,0,0
81846,-100,4,2,1,60,0,0
81943,-100,4,2,1,5,0,0
82040,-100,4,2,1,60,0,0
82427,-100,4,2,1,60,0,0
82669,-100,4,2,1,5,0,0
82717,-100,4,2,1,60,0,0
82814,-100,4,2,1,60,0,0
83104,-100,4,2,1,5,0,0
83201,-100,4,2,1,60,0,0
83298,-100,4,2,1,5,0,0
83394,-100,4,2,1,60,0,0
83588,-100,4,2,1,60,0,0
83878,-100,4,2,1,5,0,0
83975,-100,4,2,1,60,0,0
84169,-100,4,2,2,60,0,0
85136,-100,4,2,1,60,0,0
85523,-100,4,2,1,60,0,0
85765,-100,4,2,1,5,0,0
85814,-100,4,2,1,60,0,0
85911,-100,4,2,1,60,0,0
86201,-100,4,2,1,5,0,0
86298,-100,4,2,1,60,0,0
86394,-100,4,2,1,5,0,0
86491,-100,4,2,1,60,0,0
86685,-100,4,2,2,60,0,0
87653,-100,4,2,1,60,0,0
88233,-100,4,2,1,60,0,0
88620,-100,4,2,1,60,0,0
88862,-100,4,2,1,5,0,0
88911,-100,4,2,1,60,0,0
89007,-100,4,2,1,60,0,0
89298,-100,4,2,1,5,0,0
89394,-100,4,2,1,60,0,0
89491,-100,4,2,1,5,0,0
89588,-100,4,2,1,60,0,0
89782,-100,4,2,1,60,0,0
90072,-100,4,2,1,5,0,0
90169,-100,4,2,1,60,0,0
91330,-100,4,2,1,60,0,0
91475,-100,4,2,1,5,0,0
91523,-100,4,2,1,60,0,0
91620,-100,4,2,1,5,0,0
91717,-100,4,2,1,60,0,0
91862,-100,4,2,1,5,0,0
91911,-100,4,2,1,60,0,0
92685,-100,4,2,1,60,0,0
92830,-100,4,2,1,5,0,0
92878,-100,4,2,2,60,0,0
93265,-100,4,2,2,60,0,0
93653,-100,4,2,2,60,0,0
93701,-100,4,2,2,30,0,0
93846,-100,4,2,2,60,0,0
93894,-100,4,2,2,30,0,0
94040,-100,4,2,2,60,0,0
94088,-100,4,2,2,30,0,0
94233,-100,4,2,2,60,0,0
94282,-100,4,2,2,30,0,0
94427,-100,4,2,1,60,0,0
94523,-100,4,2,1,5,0,0
94620,-100,4,2,1,60,0,0
94717,-100,4,2,1,5,0,0
94814,-100,4,2,1,60,0,0
94911,-100,4,2,1,5,0,0
95007,-100,4,2,1,60,0,0
95104,-100,4,2,1,5,0,0
95201,-100,4,2,1,60,0,0
95298,-100,4,2,1,5,0,0
95394,-100,4,2,1,60,0,0
95491,-100,4,2,1,5,0,0
95588,-100,4,2,1,60,0,0
95685,-100,4,2,1,5,0,0
95782,-100,4,2,1,60,0,0
95975,-100,4,2,1,60,0,0
96072,-100,4,2,1,5,0,0
96556,-100,4,2,1,60,0,0
96653,-100,4,2,1,5,0,0
96749,-100,4,2,1,60,0,0
96846,-100,4,2,1,5,0,0
97136,-100,4,2,2,60,0,0
97523,-100,4,2,1,75,0,1
97814,-100,4,2,1,5,0,1
97911,-100,4,2,1,75,0,1
98104,-100,4,2,1,75,0,1
98298,-100,4,2,1,75,0,1
98975,-100,4,2,1,5,0,1
99072,-100,4,2,1,75,0,1
99169,-100,4,2,1,5,0,1
99265,-100,4,2,1,75,0,1
99459,-100,4,2,1,75,0,1
99846,-100,4,2,1,75,0,1
100330,-100,4,2,1,5,0,1
100427,-100,4,2,1,75,0,1
100523,-100,4,2,1,5,0,1
100620,-100,4,2,1,75,0,1
101782,-100,4,2,1,75,0,1
101878,-100,4,2,1,5,0,1
101975,-100,4,2,1,75,0,1
102169,-100,4,2,1,75,0,1
103040,-100,4,2,1,75,0,1
103330,-100,4,2,2,75,0,1
103717,-100,4,2,1,75,0,1
104007,-100,4,2,1,5,0,1
104104,-100,4,2,1,75,0,1
104491,-100,4,2,1,75,0,1
104878,-100,4,2,1,75,0,1
105169,-100,4,2,1,5,0,1
105265,-100,4,2,1,75,0,1
105362,-100,4,2,1,5,0,1
105459,-100,4,2,1,75,0,1
105653,-100,4,2,1,75,0,1
105749,-100,4,2,1,5,0,1
105846,-100,4,2,1,75,0,1
106040,-100,4,2,1,75,0,1
106427,-100,4,2,2,75,0,1
106814,-100,4,2,1,75,0,1
108846,-100,4,2,1,5,0,1
108943,-100,4,2,1,75,0,1
109136,-100,4,2,1,75,0,1
109161,-100,4,2,1,60,0,0
109427,-100,4,2,1,5,0,0
109523,-100,4,2,1,60,0,0
109911,-100,4,2,1,60,0,0
110104,-100,4,2,1,60,0,0
110298,-100,4,2,1,60,0,0
110685,-100,4,2,1,60,0,0
110878,-100,4,2,1,60,0,0
111072,-100,4,2,1,60,0,0
111265,-100,4,2,1,60,0,0
113007,-100,4,2,1,60,0,0
113201,-100,4,2,1,60,0,0
113394,-100,4,2,1,60,0,0
113782,-100,4,2,1,60,0,0
113975,-100,4,2,1,60,0,0
114169,-100,4,2,1,60,0,0
114362,-100,4,2,1,60,0,0
114556,-100,4,2,2,60,0,0
116104,-100,4,2,1,60,0,0
116685,-100,4,2,1,60,0,0
116878,-100,4,2,1,60,0,0
117556,-100,4,2,1,5,0,0
117653,-100,4,2,1,60,0,0
117749,-100,4,2,1,5,0,0
117846,-100,4,2,1,60,0,0
118040,-100,4,2,1,60,0,0
118136,-100,4,2,1,5,0,0
118233,-100,4,2,1,60,0,0
118427,-100,4,2,1,60,0,0
118911,-100,4,2,1,5,0,0
119007,-100,4,2,1,60,0,0
119104,-100,4,2,1,5,0,0
119201,-100,4,2,1,60,0,0
120362,-100,4,2,1,60,0,0
120459,-100,4,2,1,5,0,0
120556,-100,4,2,1,60,0,0
121911,-100,4,2,2,60,0,0
122298,-100,4,2,1,60,0,0
123072,-100,4,2,1,60,0,0
123362,-100,4,2,1,5,0,0
123459,-100,4,2,1,60,0,0
123556,-100,4,2,1,5,0,0
123653,-100,4,2,1,60,0,0
125007,-100,4,2,1,75,0,1
125394,-100,4,2,1,75,0,1
125491,-100,4,2,1,5,0,1
125588,-100,4,2,1,75,0,1
125685,-100,4,2,1,5,0,1
125782,-100,4,2,1,75,0,1
125878,-100,4,2,1,5,0,1
125975,-100,4,2,1,75,0,1
126072,-100,4,2,1,5,0,1
126169,-100,4,2,1,75,0,1
126265,-100,4,2,1,5,0,1
126362,-100,4,2,1,75,0,1
126459,-100,4,2,1,5,0,1
126556,-100,4,2,1,75,0,1
126653,-100,4,2,1,5,0,1
126749,-100,4,2,1,75,0,1
127040,-100,4,2,1,5,0,1
127523,-100,4,2,1,75,0,1
127620,-100,4,2,1,5,0,1
127717,-100,4,2,1,75,0,1
127911,-100,4,2,1,5,0,0

[Colours]
Combo1 : 246,227,223
Combo2 : 198,59,98

[HitObjects]
396,171,1524,6,0,P|391:206|393:242,1,72.5,4|0,3:2|0:0,0:0:0:0:
397,247,1911,2,0,L|518:249,2,108.75,2|0|2,0:0|0:0|0:0,0:0:0:0:
335,285,2685,1,2,0:0:0:0:
265,265,2878,1,0,3:0:0:0:
256,192,3072,5,0,3:0:0:0:
111,96,4427,1,0,3:0:0:0:
111,96,4620,6,0,P|118:168|116:240,1,145,0|2,3:0|0:0,0:0:0:0:
75,304,5201,2,0,P|102:327|133:345,1,72.5,0|0,3:0|3:0,0:0:0:0:
177,285,5588,1,2,0:0:0:0:
247,265,5781,1,2,0:0:0:0:
256,192,5975,5,4,3:2:0:0:
156,86,6362,2,0,P|119:88|83:85,2,72.5,2|2|2,3:2|3:2|3:2,0:0:0:0:
227,72,6943,2,0,P|227:53|225:31,3,36.25,2|0|0|0,3:2|3:0|3:0|3:0,0:0:0:0:
256,17,7330,5,6,3:2:0:0:
349,127,7717,5,4,3:0:0:0:
460,219,8104,2,0,B|406:205|406:232|353:219,1,108.75,8|2,0:0|0:0,0:0:0:0:
317,228,8491,2,0,P|292:201|287:166,1,72.5,2|2,3:2|0:0,0:0:0:0:
346,123,8878,2,0,L|430:130,1,72.5,8|0,0:0|3:0,0:0:0:0:
471,79,9265,5,4,3:0:0:0:
463,224,9653,1,10,0:2:0:0:
470,303,9846,1,2,0:0:0:0:
470,303,9943,1,2,0:0:0:0:
470,303,10040,2,0,L|482:342,3,36.25,0|2|2|0,3:0|0:0|0:0|0:0,0:0:0:0:
461,368,10427,2,0,L|449:329,3,36.25,8|0|2|2,0:0|0:0|0:0|0:0,0:0:0:0:
414,325,10814,5,4,3:0:0:0:
274,363,11201,2,0,B|288:309|261:309|274:256,1,108.75,8|2,0:0|0:0,0:0:0:0:
298,228,11588,2,0,P|288:192|284:156,1,72.5,2|2,3:2|0:0,0:0:0:0:
356,146,11975,2,0,P|365:181|369:217,1,72.5,8|0,0:0|3:0,0:0:0:0:
434,251,12362,6,0,L|476:260,4,36.25,4|0|2|0|8,3:0|0:0|0:0|0:0|0:0,0:0:0:0:
438,178,12943,2,0,L|480:187,4,36.25,2|2|0|2|2,0:0|0:0|3:0|0:0|0:0,0:0:0:0:
356,146,13523,2,0,P|330:120|296:109,1,72.5,10|2,0:2|0:0,0:0:0:0:
163,127,13911,5,4,3:0:0:0:
52,219,14298,2,0,B|106:205|106:232|159:219,1,108.75,8|2,0:0|0:0,0:0:0:0:
195,228,14685,2,0,P|220:201|225:166,1,72.5,2|2,3:2|0:0,0:0:0:0:
166,123,15072,2,0,L|82:130,1,72.5,8|0,0:0|3:0,0:0:0:0:
41,79,15459,5,4,3:0:0:0:
49,224,15847,1,8,0:0:0:0:
42,303,16040,1,2,0:0:0:0:
42,303,16137,1,2,0:0:0:0:
42,303,16234,2,0,L|30:342,3,36.25,0|2|2|0,3:0|0:0|0:0|0:0,0:0:0:0:
51,368,16621,2,0,L|63:329,3,36.25,8|0|2|2,0:0|0:0|0:0|0:0,0:0:0:0:
98,325,17008,5,4,3:0:0:0:
238,363,17395,2,0,B|224:309|251:309|238:256,1,108.75,8|2,0:0|0:0,0:0:0:0:
214,228,17782,2,0,P|223:192|227:156,1,72.5,2|2,3:2|0:0,0:0:0:0:
156,146,18169,2,0,P|146:181|142:217,1,72.5,8|0,0:0|3:0,0:0:0:0:
78,251,18556,6,0,L|36:260,4,36.25,4|0|2|0|8,3:0|0:0|0:0|0:0|0:0,0:0:0:0:
74,178,19136,1,2,0:0:0:0:
153,142,19330,1,0,3:0:0:0:
215,82,19523,1,0,3:2:0:0:
256,5,19717,2,0,L|256:85,1,72.5,0|0,3:0|3:0,0:0:0:0:
307,147,20104,6,0,L|388:138,1,72.5,4|8,3:2|0:0,0:0:0:0:
373,225,20491,2,0,L|300:233,1,72.5,0|0,3:0|3:2,0:0:0:0:
213,237,20878,2,0,L|132:228,1,72.5,8|0,3:2|3:2,0:0:0:0:
147,315,21265,2,0,L|219:323,1,72.5,8|8,3:2|0:0,0:0:0:0:
256,345,21556,1,8,0:0:0:0:
292,323,21653,5,4,3:2:0:0:
205,147,22234,1,0,3:0:0:0:
307,147,22427,1,0,3:0:0:0:
39,36,23201,6,0,P|34:105|41:191,1,145,4|0,3:0|3:0,0:0:0:0:
88,241,23782,5,2,0:0:0:0:
89,241,23975,2,0,P|58:259|22:258,2,72.5,2|0|0,3:2|0:0|3:0,0:0:0:0:
163,229,24556,1,2,0:0:0:0:
163,229,24749,2,0,P|163:264|144:295,2,72.5,2|0|0,3:2|0:0|3:0,0:0:0:0:
114,174,25330,1,2,0:0:0:0:
112,100,25523,2,0,P|111:64|113:28,1,72.5,2|2,3:2|0:0,0:0:0:0:
186,29,25911,2,0,P|188:65|187:101,1,72.5,2|2,3:2|0:0,0:0:0:0:
196,173,26298,6,0,B|192:203|192:203|212:222|221:252|221:252|209:281|216:313,1,145,4|0,3:2|3:0,0:0:0:0:
291,296,26878,5,2,0:0:0:0:
291,295,27071,2,0,P|291:330|272:361,2,72.5,2|0|0,3:2|0:0|3:0,0:0:0:0:
318,225,27652,1,2,0:0:0:0:
318,225,27846,2,0,P|349:242|366:274,2,72.5,2|0|2,3:2|0:0|3:2,0:0:0:0:
268,170,28427,1,2,0:0:0:0:
268,170,28523,1,2,0:0:0:0:
268,170,28620,1,2,3:2:0:0:
267,97,28814,1,2,0:0:0:0:
263,23,29007,2,0,P|299:22|335:24,1,72.5,2|2,3:2|0:0,0:0:0:0:
408,24,29394,5,4,3:2:0:0:
458,160,29782,6,0,P|470:68|485:10,2,145,10|2|10,0:2|3:2|0:0,0:0:0:0:
474,234,30749,1,0,0:0:0:0:
474,234,30943,2,0,B|433:247|406:220|406:220|378:193|338:206,1,145,2|8,3:2|0:0,0:0:0:0:
280,163,31523,1,0,0:0:0:0:
280,163,31717,2,0,P|263:194|267:230,1,72.5,0|0,3:0|0:0,0:0:0:0:
285,300,32104,1,10,0:0:0:0:
223,337,32298,2,0,L|133:330,1,72.5,2|4,0:0|3:2,0:0:0:0:
54,224,32878,6,0,P|42:316|27:374,2,145,10|2|10,0:0|3:2|0:0,0:0:0:0:
38,150,33845,1,0,0:0:0:0:
38,150,34039,2,0,B|78:136|105:163|105:163|133:190|173:177,1,145,2|8,3:2|0:0,0:0:0:0:
232,221,34619,1,0,0:0:0:0:
232,221,34717,1,0,0:0:0:0:
232,221,34813,2,0,P|248:189|244:153,1,72.5,2|2,3:2|3:2,0:0:0:0:
188,106,35201,2,0,L|181:70,2,36.25,10|2|8,0:0|3:2|0:0,0:0:0:0:
256,83,35588,6,0,P|353:47|473:171,1,290,6|10,3:0|0:0,0:0:0:0:
256,156,36943,2,0,L|256:108,1,36.25,2|2,3:0|0:3,0:0:0:0:
256,83,37136,2,0,P|159:47|39:171,1,290,2|8,3:0|0:0,0:0:0:0:
39,165,38104,1,2,3:0:0:0:
12,313,38491,1,0,3:0:0:0:
12,313,38588,1,8,0:0:0:0:
12,313,38685,6,0,P|47:319|79:302,1,72.5,2|0,3:0|0:0,0:0:0:0:
151,306,39072,2,0,P|182:322|218:316,1,72.5,0|0,0:0|0:0,0:0:0:0:
244,290,39362,1,0,3:0:0:0:
256,255,39459,6,0,L|256:179,1,72.5,10|0,0:0|3:0,0:0:0:0:
256,182,39749,6,0,L|330:182,1,72.5,10|0,0:0|0:0,0:0:0:0:
365,182,40040,5,2,3:2:0:0:
437,178,40233,6,0,P|443:106|439:34,1,145,2|2,3:0|0:0,0:0:0:0:
367,21,40814,1,8,0:0:0:0:
367,21,40911,1,8,0:0:0:0:
367,21,41007,6,0,B|311:38|311:38|261:27,1,108.75,2|8,3:2|0:0,0:0:0:0:
256,30,41394,2,0,L|208:35,3,36.25,2|8|10|8,3:2|0:0|0:0|0:0,0:0:0:0:
184,24,41782,5,6,3:0:0:0:
184,96,41975,1,2,0:2:0:0:
124,138,42169,2,0,P|88:141|54:154,1,72.5,8|2,0:0|0:0,0:0:0:0:
31,222,42556,2,0,P|43:255|65:284,1,72.5,0|2,3:0|0:0,0:0:0:0:
137,290,42943,2,0,P|166:269|188:240,1,72.5,10|2,0:0|0:0,0:0:0:0:
192,168,43330,5,2,3:2:0:0:
317,95,43717,2,0,B|355:82|383:109|383:109|410:136|451:123,2,145,10|2|10,0:0|3:2|0:0,0:0:0:0:
186,23,44878,2,0,P|191:155|191:186,1,145,2|8,3:2|0:0,0:0:0:0:
133,212,45459,2,0,L|60:209,1,72.5,2|0,0:0|0:0,0:0:0:0:
53,64,46040,1,8,0:0:0:0:
56,213,46427,6,0,B|52:261|52:261|48:269|48:269|43:320,2,108.75,2|2|2,3:2|0:0|0:0,0:0:0:0:
59,137,47201,2,0,L|209:145,1,145,0|10,3:0|0:0,0:0:0:0:
348,153,47975,5,4,3:1:0:0:
456,213,49136,1,2,0:0:0:0:
456,213,49523,6,0,B|460:261|460:261|464:269|464:269|469:320,2,108.75,4|4|4,3:2|3:1|3:2,0:0:0:0:
440,104,50298,5,4,3:2:0:0:
377,234,50685,2,0,L|374:188,3,36.25,0|0|0|0,0:0|0:0|0:0|0:0,0:0:0:0:
365,162,51072,6,0,B|370:134|353:108|353:108|348:59|387:29,1,145,4|8,3:0|0:0,0:0:0:0:
385,30,51653,1,2,0:0:0:0:
440,104,51846,2,0,P|449:137|446:179,1,72.5,2|0,3:2|0:0,0:0:0:0:
401,233,52233,2,0,P|348:238|305:206,1,108.75,10|0,0:0|0:0,0:0:0:0:
304,205,52620,6,0,P|307:169|306:134,1,72.5,2|0,3:2|1:0,0:0:0:0:
309,53,53007,2,0,P|345:55|380:54,1,72.5,10|2,1:2|0:0,0:0:0:0:
459,36,53394,1,2,3:2:0:0:
475,195,53782,2,0,P|477:230|474:269,1,72.5,10|2,0:0|0:0,0:0:0:0:
462,346,54169,6,0,P|402:324|306:337,2,145,2|10|2,3:2|0:0|3:2,0:0:0:0:
370,215,55330,1,10,0:0:0:0:
297,248,55523,1,2,0:0:0:0:
297,248,55620,1,2,0:0:0:0:
297,248,55717,6,0,P|246:287|151:304,2,145,6|10|6,3:2|0:0|3:2,0:0:0:0:
135,234,56878,2,0,L|138:188,3,36.25,10|0|2|10,0:0|0:0|1:2|1:2,0:0:0:0:
147,162,57265,6,0,B|142:134|159:108|159:108|164:59|125:29,1,145,4|8,3:0|0:0,0:0:0:0:
127,30,57846,1,2,0:0:0:0:
72,104,58039,2,0,P|63:137|66:179,1,72.5,2|0,3:2|0:0,0:0:0:0:
111,237,58426,2,0,P|164:242|207:210,1,108.75,10|0,0:0|0:0,0:0:0:0:
208,205,58813,6,0,P|205:169|206:134,1,72.5,0|0,3:0|1:0,0:0:0:0:
203,53,59200,2,0,P|167:55|132:54,1,72.5,10|2,1:2|0:0,0:0:0:0:
53,36,59587,1,0,3:0:0:0:
36,195,59975,2,0,P|35:213|34:231,3,36.25,8|0|2|2,0:0|0:0|0:0|0:0,0:0:0:0:
43,270,60362,6,0,P|103:248|199:261,1,145,2|8,3:2|0:0,0:0:0:0:
243,320,60942,1,2,0:0:0:0:
243,320,61039,1,2,0:0:0:0:
243,320,61136,2,0,P|293:359|388:376,1,145,2|8,3:2|0:0,0:0:0:0:
456,368,61717,1,2,0:0:0:0:
456,368,61814,1,2,0:0:0:0:
456,368,61911,6,0,P|434:319|381:293,1,108.75,2|0,3:2|0:0,0:0:0:0:
347,295,62298,1,10,0:0:0:0:
282,248,62491,1,2,0:0:0:0:
256,172,62685,1,2,3:2:0:0:
380,72,63072,6,0,L|377:108,3,36.25,8|0|2|0,1:2|1:0|1:2|1:0,0:0:0:0:
367,146,63459,6,0,P|394:169|429:178,2,72.5,4|2|8,3:0|0:0|0:0,0:0:0:0:
298,104,64040,1,2,0:0:0:0:
298,104,64136,1,2,0:0:0:0:
298,104,64233,2,0,P|270:80|235:71,2,72.5,0|2|8,3:0|0:0|0:0,0:0:0:0:
298,183,64814,1,0,0:0:0:0:
300,262,65007,2,0,L|300:338,1,72.5,2|2,3:2|0:0,0:0:0:0:
212,334,65394,2,0,L|212:261,1,72.5,10|2,0:0|0:0,0:0:0:0:
214,183,65782,1,2,3:2:0:0:
77,100,66169,1,8,0:0:0:0:
150,65,66362,1,0,0:0:0:0:
144,146,66556,6,0,P|117:169|82:178,2,72.5,2|2|8,3:2|0:0|0:0,0:0:0:0:
214,104,67137,1,2,0:0:0:0:
214,104,67233,1,2,0:0:0:0:
214,104,67330,2,0,P|241:80|276:71,2,72.5,0|2|8,3:0|0:0|0:0,0:0:0:0:
214,183,67911,1,0,0:0:0:0:
212,262,68104,6,0,L|212:298,4,36.25,2|2|2|2|8,3:2|0:0|0:0|0:0|1:2,0:0:0:0:
300,262,68685,2,0,L|300:298,4,36.25,2|2|2|2|0,0:0|0:0|3:2|0:0|1:0,0:0:0:0:
256,186,69265,2,0,L|256:149,3,36.25,10|2|2|2,0:0|0:0|0:0|0:0,0:0:0:0:
256,105,69653,5,4,3:0:0:0:
499,6,70233,1,2,0:0:0:0:
499,6,70330,1,0,0:0:0:0:
499,6,70427,2,0,B|440:17|458:40|401:50,1,108.75,2|0,3:2|0:0,0:0:0:0:
368,79,70814,2,0,L|293:52,1,72.5,10|0,0:0|0:0,0:0:0:0:
212,54,71201,2,0,L|144:79,1,72.5,2|0,3:2|1:0,0:0:0:0:
144,166,71588,2,0,L|212:141,1,72.5,10|2,1:2|0:0,0:0:0:0:
299,141,71975,1,2,3:2:0:0:
475,189,72362,2,0,P|477:154|474:115,1,72.5,10|2,0:0|0:0,0:0:0:0:
462,38,72749,6,0,P|402:60|306:47,2,145,2|10|2,3:2|0:0|3:2,0:0:0:0:
370,169,73910,1,8,0:0:0:0:
297,136,74103,1,2,0:0:0:0:
297,136,74200,1,2,0:0:0:0:
297,136,74297,2,0,P|246:97|151:80,2,145,6|10|6,3:2|0:0|3:2,0:0:0:0:
256,290,75459,2,0,L|256:341,3,36.25,10|0|2|2,0:0|0:0|1:2|1:2,0:0:0:0:
256,366,75846,5,4,3:0:0:0:
13,378,76426,1,2,0:0:0:0:
13,378,76523,1,2,0:0:0:0:
13,378,76620,2,0,B|72:367|54:344|110:333,1,108.75,2|0,3:2|0:0,0:0:0:0:
144,305,77007,2,0,L|219:332,1,72.5,8|2,0:0|0:0,0:0:0:0:
299,329,77394,5,2,3:2:0:0:
299,249,77588,1,0,3:0:0:0:
213,249,77782,5,10,0:0:0:0:
212,168,77975,1,0,3:0:0:0:
256,101,78169,6,0,L|256:51,2,36.25,8|0|0,0:0|0:0|3:0,0:0:0:0:
300,168,78556,6,0,B|385:182|353:134|440:147,1,145,10|4,0:0|3:0,0:0:0:0:
256,192,78991,12,0,81653,0:0:0:0:
163,257,82040,5,6,3:0:0:0:
52,165,82427,2,0,B|106:179|106:152|159:165,1,108.75,8|2,0:0|0:0,0:0:0:0:
195,156,82814,2,0,P|220:183|225:218,1,72.5,2|2,3:2|0:0,0:0:0:0:
166,261,83201,2,0,L|82:254,1,72.5,8|0,0:0|3:0,0:0:0:0:
41,305,83588,5,4,3:0:0:0:
49,160,83976,1,8,0:0:0:0:
42,81,84169,1,2,0:0:0:0:
42,81,84266,1,2,0:0:0:0:
42,81,84363,2,0,L|30:42,3,36.25,0|2|2|0,3:0|0:0|0:0|0:0,0:0:0:0:
51,16,84750,2,0,L|63:55,3,36.25,8|0|2|2,0:0|0:0|0:0|0:0,0:0:0:0:
98,59,85137,5,4,3:0:0:0:
238,21,85524,2,0,B|224:75|251:75|238:128,1,108.75,8|2,0:0|0:0,0:0:0:0:
214,156,85911,2,0,P|224:192|228:228,1,72.5,2|2,3:2|0:0,0:0:0:0:
156,238,86298,2,0,P|147:203|143:167,1,72.5,8|0,0:0|3:0,0:0:0:0:
78,133,86685,6,0,L|36:124,4,36.25,4|0|2|0|8,3:0|0:0|0:0|0:0|0:0,0:0:0:0:
74,206,87266,2,0,L|32:197,4,36.25,2|2|0|2|2,1:2|1:2|3:0|1:2|1:2,0:0:0:0:
156,238,87846,2,0,P|182:264|216:275,1,72.5,10|2,3:2|3:2,0:0:0:0:
349,257,88234,5,4,3:0:0:0:
460,165,88621,2,0,B|406:179|406:152|353:165,1,108.75,8|2,0:0|0:0,0:0:0:0:
317,156,89008,2,0,P|292:183|287:218,1,72.5,2|2,3:2|0:0,0:0:0:0:
346,261,89395,2,0,L|430:254,1,72.5,8|0,0:0|3:0,0:0:0:0:
471,305,89782,5,0,3:0:0:0:
463,160,90170,1,8,0:0:0:0:
470,81,90363,1,2,0:0:0:0:
470,81,90460,1,2,0:0:0:0:
470,81,90556,2,0,L|482:42,3,36.25,2|2|10|2,3:2|0:0|0:0|0:0,0:0:0:0:
461,16,90943,2,0,L|449:55,3,36.25,8|2|2|2,0:0|0:0|3:2|0:0,0:0:0:0:
414,59,91331,5,4,3:0:0:0:
274,21,91718,2,0,B|288:75|261:75|274:128,1,108.75,8|0,0:0|3:0,0:0:0:0:
298,156,92105,2,0,P|289:192|285:228,1,72.5,0|10,3:0|0:0,0:0:0:0:
356,238,92492,2,0,P|366:203|370:167,1,72.5,8|0,0:0|3:0,0:0:0:0:
434,133,92879,6,0,L|476:124,4,36.25,4|0|0|0|0,3:0|0:0|0:0|0:0|0:0,0:0:0:0:
438,206,93459,1,2,0:0:0:0:
359,242,93653,1,4,3:0:0:0:
297,302,93846,1,2,3:2:0:0:
256,379,94040,2,0,L|256:299,1,72.5,2|2,3:2|3:2,0:0:0:0:
205,237,94427,6,0,L|124:246,1,72.5,0|8,3:0|0:0,0:0:0:0:
139,159,94814,2,0,L|212:151,1,72.5,0|0,3:0|3:0,0:0:0:0:
299,147,95201,2,0,L|380:156,1,72.5,8|0,0:0|3:0,0:0:0:0:
365,69,95588,2,0,L|293:61,1,72.5,8|8,0:0|0:0,0:0:0:0:
256,39,95879,1,8,0:0:0:0:
220,61,95976,5,4,3:0:0:0:
307,237,96557,1,0,3:0:0:0:
205,237,96750,1,6,3:2:0:0:
135,150,97136,2,0,L|138:196,3,36.25,8|8|8|8,0:0|0:0|0:0|0:0,0:0:0:0:
147,222,97523,6,0,B|142:250|159:276|159:276|164:325|125:355,1,145,4|8,3:0|0:0,0:0:0:0:
127,354,98104,1,2,0:0:0:0:
72,280,98297,2,0,P|63:247|66:205,1,72.5,2|0,3:2|0:0,0:0:0:0:
111,151,98684,2,0,P|164:146|207:178,1,108.75,10|0,0:0|0:0,0:0:0:0:
208,179,99071,6,0,P|205:215|206:250,1,72.5,2|0,3:2|1:0,0:0:0:0:
203,331,99459,2,0,P|167:329|132:330,1,72.5,10|2,0:0|0:0,0:0:0:0:
53,348,99845,1,0,3:0:0:0:
37,189,100233,2,0,P|35:154|38:115,1,72.5,8|2,0:0|0:0,0:0:0:0:
50,38,100620,6,0,P|110:60|206:47,2,145,2|10|2,3:2|0:0|3:2,0:0:0:0:
142,169,101781,1,8,0:0:0:0:
215,136,101974,1,2,0:0:0:0:
215,136,102071,1,2,0:0:0:0:
215,136,102168,6,0,P|266:97|361:80,2,145,6|10|6,3:2|0:0|3:2,0:0:0:0:
377,150,103330,2,0,L|374:196,3,36.25,10|0|0|8,0:0|0:0|1:0|1:2,0:0:0:0:
365,222,103716,6,0,B|370:250|353:276|353:276|348:325|387:355,1,145,4|8,3:0|0:0,0:0:0:0:
385,354,104297,1,2,0:0:0:0:
440,280,104491,2,0,P|449:247|446:205,1,72.5,2|0,3:2|0:0,0:0:0:0:
401,151,104878,2,0,P|348:146|305:178,1,108.75,8|0,0:0|0:0,0:0:0:0:
304,179,105265,6,0,P|307:215|306:250,1,72.5,2|0,3:2|1:0,0:0:0:0:
309,331,105653,2,0,P|345:329|380:330,1,72.5,8|2,0:0|0:0,0:0:0:0:
459,348,106040,1,2,3:2:0:0:
476,189,106426,2,0,P|477:171|478:153,3,36.25,8|0|2|2,0:0|0:0|0:0|0:0,0:0:0:0:
469,114,106813,6,0,P|409:136|313:123,1,145,0|8,3:0|0:0,0:0:0:0:
269,64,107393,1,2,0:0:0:0:
269,64,107490,1,2,0:0:0:0:
269,64,107587,2,0,P|219:25|124:8,1,145,2|8,3:2|0:0,0:0:0:0:
56,16,108168,1,2,0:0:0:0:
56,16,108265,1,2,0:0:0:0:
56,16,108362,6,0,P|78:65|131:91,1,108.75,2|0,3:2|0:0,0:0:0:0:
165,89,108749,1,10,0:0:0:0:
230,136,108942,1,0,0:0:0:0:
256,212,109136,1,0,3:0:0:0:
146,327,109523,6,0,L|149:291,3,36.25,8|0|0|0,2:2|1:0|1:0|1:0,0:0:0:0:
159,253,109911,5,6,3:2:0:0:
159,253,110104,2,0,P|170:218|166:183,1,72.5,2|8,0:2|0:0,0:0:0:0:
114,133,110491,1,2,0:0:0:0:
114,133,110588,1,2,0:0:0:0:
114,133,110685,1,0,3:0:0:0:
39,104,110878,2,0,P|27:69|31:34,1,72.5,2|8,0:0|0:0,0:0:0:0:
105,5,111265,1,0,0:0:0:0:
164,58,111459,5,2,3:2:0:0:
256,18,111653,1,2,0:0:0:0:
348,58,111846,1,10,0:0:0:0:
256,102,112040,1,2,0:0:0:0:
256,186,112233,1,2,3:2:0:0:
420,175,112620,1,8,0:0:0:0:
423,95,112814,1,0,0:0:0:0:
353,131,113007,5,2,3:2:0:0:
353,131,113200,2,0,P|341:165|345:200,1,72.5,2|8,0:0|0:0,0:0:0:0:
410,249,113587,1,2,0:0:0:0:
410,249,113684,1,2,0:0:0:0:
410,249,113781,1,0,3:0:0:0:
473,280,113975,2,0,P|484:314|480:349,1,72.5,2|8,0:0|0:0,0:0:0:0:
394,383,114361,1,0,0:0:0:0:
311,342,114556,6,0,L|344:320,4,36.25,2|2|2|2|8,3:2|0:0|0:0|0:0|1:2,0:0:0:0:
201,342,115136,2,0,L|168:320,4,36.25,2|2|2|2|0,0:0|0:0|3:2|0:0|1:0,0:0:0:0:
256,272,115717,2,0,L|256:208,3,36.25,10|2|2|2,0:0|0:0|0:0|0:0,0:0:0:0:
256,192,116104,5,4,3:0:0:0:
52,88,116685,1,2,0:0:0:0:
55,92,116878,2,0,P|50:147|51:201,1,108.75,2|0,3:2|0:0,0:0:0:0:
67,242,117265,2,0,L|139:243,1,72.5,8|0,0:0|0:0,0:0:0:0:
193,174,117653,2,0,P|206:140|209:104,1,72.5,2|0,3:2|1:0,0:0:0:0:
302,104,118040,2,0,P|305:140|319:174,1,72.5,10|2,0:0|0:0,0:0:0:0:
372,243,118427,2,0,L|445:242,1,72.5,2|0,3:2|0:0,0:0:0:0:
472,324,118814,2,0,L|399:325,1,72.5,10|2,0:0|0:0,0:0:0:0:
326,373,119201,6,0,P|300:307|304:235,2,145,2|10|2,3:2|0:0|3:2,0:0:0:0:
138,290,120362,1,8,0:0:0:0:
206,234,120556,1,2,0:0:0:0:
206,234,120653,1,2,0:0:0:0:
206,234,120749,2,0,P|211:305|185:373,2,145,4|10|4,3:2|0:0|3:2,0:0:0:0:
256,82,121911,2,0,L|256:45,3,36.25,10|0|2|2,0:0|0:0|1:2|1:2,0:0:0:0:
256,5,122298,5,4,3:0:0:0:
457,291,122878,1,2,0:0:0:0:
457,291,122975,1,2,0:0:0:0:
457,292,123071,2,0,P|462:237|461:183,1,108.75,0|0,3:0|0:0,0:0:0:0:
445,142,123459,2,0,L|373:141,1,72.5,8|2,0:0|0:0,0:0:0:0:
319,210,123846,2,0,P|306:244|303:280,1,72.5,2|0,3:2|3:0,0:0:0:0:
210,280,124233,2,0,P|207:244|193:210,1,72.5,8|0,0:0|3:0,0:0:0:0:
256,144,124620,2,0,L|256:96,3,36.25,10|0|0|0,0:0|3:0|3:0|3:0,0:0:0:0:
229,82,125007,2,0,L|229:130,3,36.25,2|2|2|2,3:2|3:2|3:2|3:2,0:0:0:0:
205,147,125394,6,0,L|124:138,1,72.5,4|8,3:0|0:0,0:0:0:0:
139,225,125781,2,0,L|212:233,1,72.5,0|0,3:0|3:0,0:0:0:0:
299,237,126168,2,0,L|380:228,1,72.5,8|0,0:0|3:0,0:0:0:0:
365,315,126555,2,0,L|293:323,1,72.5,8|8,0:0|0:0,0:0:0:0:
256,345,126846,1,8,0:0:0:0:
220,323,126943,5,4,3:0:0:0:
307,147,127524,1,4,3:0:0:0:
205,147,127717,1,6,3:2:0:0:
