osu file format v14

[General]
AudioFilename: audio.mp3
AudioLeadIn: 0
PreviewTime: 50688
Countdown: 0
SampleSet: Soft
StackLeniency: 0.2
Mode: 0
LetterboxInBreaks: 0
WidescreenStoryboard: 1

[Editor]
Bookmarks: 1532,7726,23210,35597,51081,63462,78946,82042,84776,93292,97526,109913,125397,128518
DistanceSpacing: 5.3
BeatDivisor: 8
GridSize: 32
TimelineZoom: 2.550002

[Metadata]
Title:Kessen
TitleUnicode:決戦
Artist:Atsushi
ArtistUnicode:篤志
Creator:Yusomi
Version:Cub's Expert
Source:Cytus II
Tags:Muya Cubby Lv9 Firika Shota on osu Cubbby sakura blossom instrumental video game
BeatmapID:2287856
BeatmapSetID:1094459

[Difficulty]
HPDrainRate:4
CircleSize:5
OverallDifficulty:8.3
ApproachRate:9.4
SliderMultiplier:1.95
SliderTickRate:1

[Events]
//Background and Video events
0,0,"Konachan.com - 301609.jpg",0,0
//Break Periods
//Storyboard Layer 0 (Background)
//Storyboard Layer 1 (Fail)
//Storyboard Layer 2 (Pass)
//Storyboard Layer 3 (Foreground)
//Storyboard Layer 4 (Overlay)
//Storyboard Sound Samples

[TimingPoints]
749,387.096774193548,4,2,1,30,1,0
1426,-100,4,2,1,5,0,0
1524,387.096774193548,4,2,1,80,1,0
1524,-58.8235294117647,4,2,1,80,0,0
1814,-58.8235294117647,4,2,1,60,0,0
2104,-200,4,2,1,60,0,0
2878,-58.8235294117647,4,2,1,80,0,0
2974,-58.8235294117647,4,2,1,5,0,0
3072,-58.8235294117647,4,2,1,80,0,0
3459,-200,4,2,2,60,0,0
3588,-200,4,2,1,60,0,0
3846,-200,4,2,2,60,0,0
3975,-200,4,2,1,60,0,0
4233,-200,4,2,2,60,0,0
4427,-58.8235294117647,4,2,1,80,0,0
4523,-58.8235294117647,4,2,1,5,0,0
4620,-58.8235294117647,4,2,1,80,0,0
5007,-58.8235294117647,4,2,1,60,0,0
5201,-58.8235294117647,4,2,1,80,0,0
5297,-58.8235294117647,4,2,1,5,0,0
5394,-58.8235294117647,4,2,1,80,0,0
5588,-58.8235294117647,4,2,1,60,0,0
5975,-58.8235294117647,4,2,1,80,0,0
6071,-58.8235294117647,4,2,1,5,0,0
6169,-58.8235294117647,4,2,2,60,0,0
6362,-83.3333333333333,4,2,2,60,0,0
6458,-83.3333333333333,4,2,1,5,0,0
6556,-83.3333333333333,4,2,1,60,0,0
6652,-83.3333333333333,4,2,1,5,0,0
6749,-83.3333333333333,4,2,1,60,0,0
6845,-83.3333333333333,4,2,1,5,0,0
6943,-83.3333333333333,4,2,1,60,0,0
7330,-133.333333333333,4,2,1,60,0,0
7717,-58.8235294117647,4,2,1,60,0,0
8104,-76.9230769230769,4,2,1,60,0,0
8878,-200,4,2,1,60,0,0
8974,-200,4,2,1,5,0,0
9072,-58.8235294117647,4,2,1,60,0,0
9555,-58.8235294117647,4,2,1,5,0,0
9653,-58.8235294117647,4,2,1,60,0,0
9846,-58.8235294117647,4,2,2,60,0,0
10814,-58.8235294117647,4,2,1,60,0,0
11201,-76.9230769230769,4,2,1,60,0,0
11975,-200,4,2,1,60,0,0
12071,-200,4,2,1,5,0,0
12169,-58.8235294117647,4,2,1,60,0,0
12362,-58.8235294117647,4,2,2,60,0,0
13523,-40,4,2,1,60,0,0
13911,-58.8235294117647,4,2,1,60,0,0
14298,-76.9230769230769,4,2,1,60,0,0
15072,-200,4,2,1,60,0,0
15168,-200,4,2,1,5,0,0
15265,-200,4,2,1,60,0,0
15459,-58.8235294117647,4,2,1,60,0,0
15749,-58.8235294117647,4,2,1,5,0,0
15846,-58.8235294117647,4,2,1,60,0,0
16040,-58.8235294117647,4,2,2,60,0,0
17007,-58.8235294117647,4,2,1,60,0,0
17394,-76.9230769230769,4,2,1,60,0,0
18169,-200,4,2,1,60,0,0
18265,-200,4,2,1,5,0,0
18362,-58.8235294117647,4,2,1,60,0,0
18556,-58.8235294117647,4,2,2,60,0,0
19330,-58.8235294117647,4,2,1,60,0,0
19717,-40,4,2,1,60,0,0
19813,-40,4,2,1,5,0,0
19911,-40,4,2,1,60,0,0
20104,-52.6315789473684,4,2,1,75,0,1
20200,-52.6315789473684,4,2,1,5,0,1
20298,-52.6315789473684,4,2,1,75,0,1
20394,-52.6315789473684,4,2,1,5,0,1
20491,-52.6315789473684,4,2,1,75,0,1
20587,-52.6315789473684,4,2,1,5,0,1
20685,-52.6315789473684,4,2,1,75,0,1
20781,-52.6315789473684,4,2,1,5,0,1
20878,-200,4,2,1,75,0,1
20974,-200,4,2,1,5,0,1
21072,-40,4,2,1,75,0,1
21168,-40,4,2,1,5,0,1
21265,-40,4,2,1,75,0,1
21653,-40,4,2,1,75,0,0
22814,-40,4,2,2,60,0,0
23201,-83.3333333333333,4,2,1,60,0,0
23588,-100,4,2,2,60,0,0
25765,-100,4,2,1,60,0,0
25911,-200,4,2,2,60,0,0
26007,-200,4,2,1,60,0,0
26104,-200,4,2,2,60,0,0
26200,-200,4,2,1,60,0,0
26298,-200,4,2,2,60,0,0
26685,-100,4,2,2,60,0,0
26785,-66.6666666666667,4,2,1,60,0,0
26878,-66.6666666666667,4,2,2,60,0,0
27201,-66.6666666666667,4,2,1,60,0,0
27459,-66.6666666666667,4,2,2,60,0,0
27588,-66.6666666666667,4,2,1,60,0,0
27846,-66.6666666666667,4,2,2,60,0,0
28083,-66.6666666666667,4,2,2,30,0,0
28126,-66.6666666666667,4,2,1,60,0,0
28233,-66.6666666666667,4,2,2,60,0,0
29007,-83.3333333333333,4,2,2,60,0,0
29297,-83.3333333333333,4,2,1,60,0,0
29394,-83.3333333333333,4,2,2,60,0,0
29684,-83.3333333333333,4,2,1,60,0,0
29782,-83.3333333333333,4,2,2,60,0,0
30072,-83.3333333333333,4,2,1,60,0,0
30169,-83.3333333333333,4,2,2,60,0,0
30459,-83.3333333333333,4,2,1,60,0,0
30556,-83.3333333333333,4,2,2,60,0,0
30846,-83.3333333333333,4,2,1,60,0,0
30943,-83.3333333333333,4,2,2,60,0,0
31233,-83.3333333333333,4,2,2,5,0,0
31330,-83.3333333333333,4,2,2,60,0,0
31959,-83.3333333333333,4,2,1,60,0,0
32104,-83.3333333333333,4,2,2,60,0,0
32781,-83.3333333333333,4,2,1,60,0,0
32878,-83.3333333333333,4,2,2,60,0,0
33168,-83.3333333333333,4,2,1,60,0,0
33265,-83.3333333333333,4,2,2,60,0,0
33394,-83.3333333333333,4,2,1,60,0,0
33653,-83.3333333333333,4,2,2,60,0,0
33943,-83.3333333333333,4,2,1,60,0,0
34040,-83.3333333333333,4,2,2,60,0,0
34233,-83.3333333333333,4,2,1,60,0,0
34427,-83.3333333333333,4,2,2,60,0,0
34523,-83.3333333333333,4,2,1,5,0,0
34620,-83.3333333333333,4,2,2,60,0,0
35588,-133.333333333333,4,2,1,60,0,0
37911,-83.3333333333333,4,2,2,60,0,0
38104,-83.3333333333333,4,2,1,60,0,0
38685,-83.3333333333333,4,2,2,60,0,0
39362,-83.3333333333333,4,2,1,60,0,0
41975,-83.3333333333333,4,2,2,60,0,0
43620,-83.3333333333333,4,2,1,60,0,0
43717,-83.3333333333333,4,2,2,60,0,0
44007,-83.3333333333333,4,2,1,60,0,0
44104,-83.3333333333333,4,2,2,60,0,0
44394,-83.3333333333333,4,2,1,60,0,0
44491,-66.6666666666667,4,2,2,60,0,0
44781,-66.6666666666667,4,2,1,60,0,0
44878,-83.3333333333333,4,2,2,60,0,0
45168,-83.3333333333333,4,2,1,5,0,0
45265,-83.3333333333333,4,2,2,60,0,0
45942,-83.3333333333333,4,2,1,5,0,0
46040,-66.6666666666667,4,2,2,60,0,0
46330,-66.6666666666667,4,2,1,60,0,0
46427,-66.6666666666667,4,2,2,60,0,0
47491,-66.6666666666667,4,2,1,60,0,0
47588,-66.6666666666667,4,2,2,60,0,0
47878,-66.6666666666667,4,2,1,60,0,0
47975,-66.6666666666667,4,2,2,60,0,0
49136,-133.333333333333,4,2,2,60,0,0
49426,-133.333333333333,4,2,1,5,0,0
49523,-52.6315789473684,4,2,2,60,0,0
49716,-52.6315789473684,4,2,1,60,0,0
49814,-52.6315789473684,4,2,2,60,0,0
50007,-52.6315789473684,4,2,1,60,0,0
50104,-52.6315789473684,4,2,2,60,0,0
51072,-45.4545454545455,4,2,1,75,0,1
51362,-45.4545454545455,4,2,1,5,0,1
51459,-45.4545454545455,4,2,1,75,0,1
51653,-52.6315789473684,4,2,1,75,0,1
51846,-133.333333333333,4,2,1,75,0,1
52233,-45.4545454545455,4,2,1,75,0,1
52523,-45.4545454545455,4,2,1,5,0,1
52620,-52.6315789473684,4,2,1,75,0,1
53782,-133.333333333333,4,2,1,75,0,1
53878,-133.333333333333,4,2,1,5,0,1
53975,-133.333333333333,4,2,1,75,0,1
54071,-133.333333333333,4,2,1,5,0,1
54169,-133.333333333333,4,2,1,75,0,1
54556,-45.4545454545455,4,2,1,75,0,1
55040,-52.6315789473684,4,2,1,75,0,1
55717,-45.4545454545455,4,2,1,75,0,1
56104,-83.3333333333333,4,2,1,75,0,1
56878,-83.3333333333333,4,2,2,75,0,1
57265,-45.4545454545455,4,2,1,75,0,1
57555,-45.4545454545455,4,2,1,5,0,1
57653,-45.4545454545455,4,2,1,75,0,1
57846,-52.6315789473684,4,2,1,75,0,1
58040,-133.333333333333,4,2,1,75,0,1
58427,-45.4545454545455,4,2,1,75,0,1
58717,-45.4545454545455,4,2,1,5,0,1
58814,-52.6315789473684,4,2,1,75,0,1
59975,-52.6315789473684,4,2,2,75,0,1
60362,-133.333333333333,4,2,1,75,0,1
61523,-52.6315789473684,4,2,1,75,0,1
62394,-52.6315789473684,4,2,1,5,0,1
62491,-52.6315789473684,4,2,1,75,0,1
62975,-52.6315789473684,4,2,1,5,0,0
63072,-45.4545454545455,4,2,1,60,0,0
65782,-133.333333333333,4,2,1,60,0,0
66169,-45.4545454545455,4,2,1,60,0,0
68104,-45.4545454545455,4,2,2,60,0,0
69653,-45.4545454545455,4,2,1,60,0,0
70427,-133.333333333333,4,2,1,60,0,0
70814,-45.4545454545455,4,2,1,60,0,0
71104,-45.4545454545455,4,2,1,5,0,0
71201,-52.6315789473684,4,2,1,60,0,0
71297,-52.6315789473684,4,2,1,5,0,0
71394,-52.6315789473684,4,2,1,60,0,0
72362,-133.333333333333,4,2,1,60,0,0
72458,-133.333333333333,4,2,1,5,0,0
72556,-133.333333333333,4,2,1,60,0,0
72652,-133.333333333333,4,2,1,5,0,0
72749,-133.333333333333,4,2,1,60,0,0
73136,-45.4545454545455,4,2,1,60,0,0
74298,-133.333333333333,4,2,1,60,0,0
74685,-45.4545454545455,4,2,1,60,0,0
75169,-52.6315789473684,4,2,1,60,0,0
75459,-52.6315789473684,4,2,2,60,0,0
75846,-52.6315789473684,4,2,1,60,0,0
76620,-133.333333333333,4,2,1,60,0,0
76910,-133.333333333333,4,2,1,5,0,0
77007,-52.6315789473684,4,2,1,60,0,0
77103,-52.6315789473684,4,2,1,5,0,0
77201,-52.6315789473684,4,2,1,60,0,0
77490,-52.6315789473684,4,2,1,5,0,0
77588,-52.6315789473684,4,2,1,60,0,0
77684,-52.6315789473684,4,2,1,5,0,0
77782,-52.6315789473684,4,2,1,60,0,0
77878,-52.6315789473684,4,2,1,5,0,0
77975,-52.6315789473684,4,2,1,60,0,0
78362,-52.6315789473684,4,2,1,60,0,0
78846,-52.6315789473684,4,2,1,5,0,0
78943,-133.333333333333,4,2,1,60,0,0
82040,-58.8235294117647,4,2,1,60,0,0
82427,-76.9230769230769,4,2,1,60,0,0
83201,-200,4,2,1,60,0,0
83297,-200,4,2,1,5,0,0
83394,-58.8235294117647,4,2,1,60,0,0
83878,-58.8235294117647,4,2,1,5,0,0
83975,-58.8235294117647,4,2,1,60,0,0
84169,-58.8235294117647,4,2,2,60,0,0
85136,-58.8235294117647,4,2,1,60,0,0
85523,-76.9230769230769,4,2,1,60,0,0
86298,-200,4,2,1,60,0,0
86394,-200,4,2,1,5,0,0
86491,-58.8235294117647,4,2,1,60,0,0
86685,-58.8235294117647,4,2,2,60,0,0
87653,-58.8235294117647,4,2,1,60,0,0
88620,-76.9230769230769,4,2,1,60,0,0
89394,-200,4,2,1,60,0,0
89490,-200,4,2,1,5,0,0
89588,-58.8235294117647,4,2,1,60,0,0
90072,-58.8235294117647,4,2,1,5,0,0
90169,-58.8235294117647,4,2,1,60,0,0
92878,-100,4,2,2,60,0,0
92926,-100,4,2,1,60,0,0
92975,-100,4,2,2,60,0,0
93023,-100,4,2,1,60,0,0
93072,-100,4,2,2,60,0,0
93120,-100,4,2,1,60,0,0
93169,-100,4,2,2,60,0,0
93217,-100,4,2,1,60,0,0
93265,-66.6666666666667,4,2,2,60,0,0
93313,-66.6666666666667,4,2,1,60,0,0
93362,-66.6666666666667,4,2,2,60,0,0
93410,-66.6666666666667,4,2,1,60,0,0
93459,-66.6666666666667,4,2,2,60,0,0
93507,-66.6666666666667,4,2,1,60,0,0
93556,-66.6666666666667,4,2,2,60,0,0
93604,-66.6666666666667,4,2,1,60,0,0
93653,-57.1428571428571,4,2,2,60,0,0
93701,-57.1428571428571,4,2,2,30,0,0
93797,-57.1428571428571,4,2,1,60,0,0
93846,-57.1428571428571,4,2,2,60,0,0
93894,-57.1428571428571,4,2,2,30,0,0
93991,-57.1428571428571,4,2,2,60,0,0
94040,-40,4,2,2,60,0,0
94136,-40,4,2,2,30,0,0
94233,-40,4,2,2,60,0,0
94427,-58.8235294117647,4,2,1,60,0,0
94523,-58.8235294117647,4,2,1,5,0,0
94620,-58.8235294117647,4,2,1,60,0,0
94716,-58.8235294117647,4,2,1,5,0,0
94814,-58.8235294117647,4,2,1,60,0,0
94910,-58.8235294117647,4,2,1,5,0,0
95007,-58.8235294117647,4,2,1,60,0,0
95103,-58.8235294117647,4,2,1,5,0,0
95201,-200,4,2,1,60,0,0
95297,-200,4,2,1,5,0,0
95394,-40,4,2,1,60,0,0
95490,-40,4,2,1,5,0,0
95588,-40,4,2,1,60,0,0
97136,-40,4,2,2,60,0,0
97523,-45.4545454545455,4,2,1,75,0,1
97813,-45.4545454545455,4,2,1,5,0,1
97911,-45.4545454545455,4,2,1,75,0,1
98104,-52.6315789473684,4,2,1,75,0,1
98298,-133.333333333333,4,2,1,75,0,1
98685,-45.4545454545455,4,2,1,75,0,1
98975,-45.4545454545455,4,2,1,5,0,1
99072,-52.6315789473684,4,2,1,75,0,1
99168,-52.6315789473684,4,2,1,5,0,1
99265,-52.6315789473684,4,2,1,75,0,1
100233,-133.333333333333,4,2,1,75,0,1
100329,-133.333333333333,4,2,1,5,0,1
100427,-133.333333333333,4,2,1,75,0,1
100523,-133.333333333333,4,2,1,5,0,1
100620,-133.333333333333,4,2,1,75,0,1
101007,-45.4545454545455,4,2,1,75,0,1
101491,-52.6315789473684,4,2,1,75,0,1
101878,-52.6315789473684,4,2,1,5,0,1
101975,-52.6315789473684,4,2,1,75,0,1
102169,-45.4545454545455,4,2,1,75,0,1
102556,-83.3333333333333,4,2,1,75,0,1
103330,-83.3333333333333,4,2,2,75,0,1
103717,-45.4545454545455,4,2,1,75,0,1
104007,-45.4545454545455,4,2,1,5,0,1
104104,-45.4545454545455,4,2,1,75,0,1
104298,-52.6315789473684,4,2,1,75,0,1
104491,-133.333333333333,4,2,1,75,0,1
104878,-45.4545454545455,4,2,1,75,0,1
105168,-45.4545454545455,4,2,1,5,0,1
105265,-52.6315789473684,4,2,1,75,0,1
105361,-52.6315789473684,4,2,1,5,0,1
105459,-52.6315789473684,4,2,1,75,0,1
106427,-52.6315789473684,4,2,2,75,0,1
106814,-133.333333333333,4,2,1,75,0,1
107975,-52.6315789473684,4,2,1,75,0,1
108845,-52.6315789473684,4,2,1,5,0,1
108943,-52.6315789473684,4,2,1,75,0,1
109427,-52.6315789473684,4,2,1,5,0,0
109523,-45.4545454545455,4,2,1,60,0,0
112233,-133.333333333333,4,2,1,60,0,0
112620,-45.4545454545455,4,2,1,60,0,0
114556,-45.4545454545455,4,2,2,60,0,0
116104,-45.4545454545455,4,2,1,60,0,0
116878,-133.333333333333,4,2,1,60,0,0
117265,-45.4545454545455,4,2,1,60,0,0
117555,-45.4545454545455,4,2,1,5,0,0
117653,-52.6315789473684,4,2,1,60,0,0
117749,-52.6315789473684,4,2,1,5,0,0
117846,-52.6315789473684,4,2,1,60,0,0
118814,-45.4545454545455,4,2,1,60,0,0
118910,-45.4545454545455,4,2,1,5,0,0
119007,-45.4545454545455,4,2,1,60,0,0
119201,-133.333333333333,4,2,1,60,0,0
119588,-45.4545454545455,4,2,1,60,0,0
119975,-133.333333333333,4,2,1,60,0,0
120362,-52.6315789473684,4,2,1,60,0,0
120458,-52.6315789473684,4,2,1,5,0,0
120556,-52.6315789473684,4,2,1,60,0,0
120749,-133.333333333333,4,2,1,60,0,0
121136,-45.4545454545455,4,2,1,60,0,0
121523,-133.333333333333,4,2,1,60,0,0
121911,-133.333333333333,4,2,2,60,0,0
122298,-45.4545454545455,4,2,1,60,0,0
123072,-133.333333333333,4,2,1,60,0,0
123362,-133.333333333333,4,2,1,5,0,0
123459,-52.6315789473684,4,2,1,60,0,0
123555,-52.6315789473684,4,2,1,5,0,0
123653,-52.6315789473684,4,2,1,60,0,0
125394,-52.6315789473684,4,2,1,75,0,1
125490,-52.6315789473684,4,2,1,5,0,1
125588,-52.6315789473684,4,2,1,75,0,1
125684,-52.6315789473684,4,2,1,5,0,1
125782,-52.6315789473684,4,2,1,75,0,1
125878,-52.6315789473684,4,2,1,5,0,1
125975,-52.6315789473684,4,2,1,75,0,1
126071,-52.6315789473684,4,2,1,5,0,1
126169,-200,4,2,1,75,0,1
126265,-200,4,2,1,5,0,1
126362,-40,4,2,1,75,0,1
126458,-40,4,2,1,5,0,1
126556,-40,4,2,1,75,0,1
127741,-40,4,2,1,60,0,0

[Colours]
Combo1 : 246,227,223
Combo2 : 198,59,98

[HitObjects]
256,192,749,12,0,1426,0:0:0:0:
0,0,1524,6,0,B|36:-17|56:4|56:4|152:100|152:100|176:121|216:100,1,248.625004742146,4|0,3:2|0:0,0:0:0:0:
220,103,1911,1,0,0:0:0:0:
220,103,2201,6,0,B|244:94|262:104|264:118|280:122|296:120,1,73.125
304,124,2685,1,0,0:0:0:0:
213,263,2878,6,0,B|256:277|256:277|304:261,1,82.8750015807152,0|0,3:0|0:0,0:0:0:0:
256,197,3072,1,0,3:0:0:0:
45,119,3459,5,0,0:0:0:0:
46,104,3555,1,0,0:0:0:0:
47,89,3652,1,0,0:0:0:0:
48,75,3749,1,0,0:0:0:0:
119,84,3846,5,0,0:0:0:0:
121,68,3942,1,0,0:0:0:0:
122,53,4039,1,0,0:0:0:0:
123,39,4136,1,0,0:0:0:0:
190,13,4233,5,0,0:0:0:0:
80,200,4427,6,0,L|71:295,1,82.8750015807152,0|0,3:0|0:0,0:0:0:0:
64,353,4620,1,0,3:0:0:0:
64,353,5007,1,2,0:0:0:0:
432,200,5201,6,0,L|440:295,1,82.8750015807152,0|0,3:0|0:0,0:0:0:0:
448,353,5394,1,0,3:0:0:0:
382,326,5588,1,2,0:0:0:0:
439,282,5782,1,2,0:0:0:0:
486,76,5975,6,0,P|450:95|410:88,1,82.8750015807152,4|0,3:2|0:0,0:0:0:0:
288,32,6169,5,2,0:0:0:0:
256,0,6265,1,2,0:0:0:0:
224,32,6362,6,0,L|160:26,1,58.4999982147217,2|0,3:2|0:0,0:0:0:0:
54,44,6556,2,0,L|28:102,1,58.4999982147217,2|0,3:2|0:0,0:0:0:0:
0,195,6749,2,0,L|48:236,1,58.4999982147217,2|0,3:2|0:0,0:0:0:0:
160,192,6943,5,2,3:2:0:0:
224,144,7040,1,0,3:0:0:0:
226,119,7136,5,0,3:0:0:0:
162,167,7233,1,0,3:0:0:0:
256,208,7330,6,0,B|269:244|253:268|253:268|237:293|246:328,1,109.687504184246,6|0,3:2|0:0,0:0:0:0:
385,315,7717,6,2,B|398:277|457:279|457:279|424:269|343:275|311:341,1,248.625004742146,4|0,3:0|0:0,0:1:0:0:
243,313,8104,2,0,L|252:185,1,126.749994197846,8|0,0:0|0:0,0:0:0:0:
169,247,8394,1,2,0:0:0:0:
325,224,8491,2,0,L|334:96,1,126.749994197846,2|0,3:2|0:0,0:0:0:0:
274,54,8878,6,0,L|243:57,1,24.375,8|0,0:0|0:0,0:0:0:0:
195,104,9072,6,0,P|178:66|186:26,1,82.8750015807152,0|0,3:0|0:0,0:0:0:0:
109,246,9265,6,0,P|73:128|102:8,1,248.625004742146,4|0,3:0|0:0,0:0:0:0:
111,0,9653,1,10,0:2:0:0:
195,104,9846,1,2,0:0:0:0:
265,113,9943,1,2,0:0:0:0:
217,170,10040,5,0,3:0:0:0:
216,178,10136,1,2,0:0:0:0:
269,244,10233,5,2,0:0:0:0:
261,245,10329,1,0,0:0:0:0:
212,308,10427,5,8,0:0:0:0:
216,316,10523,1,0,0:0:0:0:
133,273,10620,5,2,0:0:0:0:
127,280,10716,1,2,0:0:0:0:
128,185,10814,6,2,B|93:159|86:98|123:51|123:51|186:78|163:141,1,248.625004742146,4|0,3:0|0:0,0:1:0:0:
127,280,11201,6,0,P|96:287|65:282,1,63.3749970989229,8|0,0:0|0:0,0:0:0:0:
0,247,11394,1,0,0:0:0:0:
59,214,11491,1,2,0:0:0:0:
0,237,11588,6,0,L|11:109,1,126.749994197846,2|2,3:2|0:0,0:0:0:0:
273,76,11975,6,0,L|304:78,1,24.375,8|0,0:0|0:0,0:0:0:0:
360,46,12169,6,0,P|367:86|350:123,1,82.8750015807152,0|0,3:0|0:0,0:0:0:0:
288,170,12362,5,4,3:0:0:0:
289,185,12459,1,0,0:0:0:0:
330,224,12556,5,2,0:0:0:0:
264,218,12652,1,0,0:0:0:0:
198,212,12749,1,8,0:0:0:0:
55,111,12943,5,2,0:0:0:0:
54,96,13040,1,2,0:0:0:0:
12,57,13137,5,0,3:0:0:0:
78,63,13233,1,2,0:0:0:0:
144,69,13330,1,2,0:0:0:0:
255,352,13523,6,0,B|255:305|255:305|252:296|252:296|260:296|260:296|256:288|256:288|256:240,1,121.875,10|0,0:2|0:0,0:0:0:0:
256,44,13717,1,2,0:0:0:0:
166,223,13911,6,2,B|140:188|79:181|32:218|32:218|59:281|122:258,1,248.625004742146,4|0,3:0|0:0,0:1:0:0:
219,279,14298,6,0,P|238:253|210:160,1,126.749994197846,8|0,0:0|0:0,0:0:0:0:
166,223,14588,1,2,0:0:0:0:
316,258,14685,2,0,P|330:328|372:388,1,126.749994197846,2|2,3:2|0:0,0:0:0:0:
461,150,15072,6,0,L|430:152,1,24.375,8|0,0:0|0:0,0:0:0:0:
353,154,15265,1,0,3:0:0:0:
391,257,15362,1,0,0:0:0:0:
348,139,15459,2,0,B|313:113|306:52|343:5|343:5|406:32|383:95,1,248.625004742146,4|0,3:0|0:0,0:0:0:0:
386,83,15846,1,8,0:0:0:0:
224,152,16040,5,2,0:0:0:0:
158,116,16136,1,2,0:0:0:0:
227,81,16233,5,0,3:0:0:0:
227,72,16329,1,2,0:0:0:0:
300,40,16427,5,2,0:0:0:0:
308,37,16523,1,0,0:0:0:0:
199,7,16620,5,8,0:0:0:0:
193,0,16716,1,0,0:0:0:0:
103,42,16814,5,2,0:0:0:0:
99,50,16910,1,2,0:0:0:0:
30,115,17007,6,2,B|-12:195|55:250|130:238|149:174|90:137|60:165,1,248.625004742146,4|0,3:0|0:0,0:1:0:0:
0,339,17394,6,0,P|39:366|79:364,1,63.3749970989229,8|0,0:0|0:0,0:0:0:0:
98,248,17588,1,0,0:0:0:0:
56,301,17685,1,2,0:0:0:0:
98,248,17782,2,0,P|139:188|136:128,1,126.749994197846,2|2,3:2|0:0,0:0:0:0:
96,62,18169,6,0,L|131:65,1,24.375,8|0,0:0|0:0,0:0:0:0:
46,20,18362,6,0,P|25:55|32:95,1,82.8750015807152,0|0,3:0|0:0,0:0:0:0:
181,146,18556,5,4,3:0:0:0:
247,102,18652,1,0,0:0:0:0:
245,23,18749,1,2,0:0:0:0:
177,0,18846,1,0,0:0:0:0:
185,69,18943,5,8,0:0:0:0:
185,69,19136,1,2,0:0:0:0:
327,69,19330,5,0,3:0:0:0:
185,69,19523,1,0,3:2:0:0:
256,280,19717,6,0,B|256:233|256:233|253:224|253:224|261:224|261:224|257:216|257:216|257:168,1,121.875,0|0,3:0|0:0,0:0:0:0:
256,20,19911,1,0,3:0:0:0:
160,172,20104,6,0,P|116:181|65:152,1,92.6249975266457,4|0,3:2|0:0,0:0:0:0:
352,172,20298,2,0,P|396:181|447:152,1,92.6249975266457,8|0,0:0|0:0,0:0:0:0:
188,95,20491,6,0,P|165:55|177:-1,1,92.6249975266457,0|0,3:0|0:0,0:0:0:0:
340,9,20685,2,0,P|346:55|324:95,1,92.6249975266457,0|0,3:2|0:0,0:0:0:0:
256,224,20878,6,2,L|256:188,1,24.375,8|0,3:2|0:0,0:1:0:0:
188,95,21072,2,0,B|231:87|231:87|266:125|266:125|313:117,1,121.875,0|0,3:2|0:0,0:0:0:0:
306,117,21265,1,8,3:2:0:0:
182,282,21459,5,8,0:0:0:0:
256,336,21556,1,8,0:0:0:0:
324,280,21653,1,4,3:2:0:0:
429,30,22233,6,0,B|410:38|346:55|336:155|417:203|474:159|477:75|414:87,1,243.75,0|0,3:0|3:0,0:0:0:0:
256,368,22814,1,2,0:2:0:0:
40,88,23201,6,0,B|90:62|139:97|110:123|152:155|216:136,1,175.499994644165,4|0,3:0|0:0,0:0:0:0:
241,186,23588,6,0,P|261:141|241:94,1,97.5,0|2,3:0|0:0,0:0:0:0:
143,101,23975,2,0,P|126:145|146:188,1,97.5,2|0,3:2|0:0,0:0:0:0:
311,338,24362,6,0,P|291:293|311:246,1,97.5,0|2,3:0|0:0,0:0:0:0:
386,248,24749,2,0,P|402:292|382:335,1,97.5,2|0,3:2|0:0,0:0:0:0:
356,160,25136,6,0,L|453:168,1,97.5,0|2,3:0|0:0,0:0:0:0:
415,92,25523,1,2,3:2:0:0:
415,92,25717,2,0,L|414:46,2,24.375,2|0|0,0:0|0:0|0:0,0:0:0:0:
324,72,25911,6,0,L|284:68,1,24.375,2|0,3:2|0:0,0:0:0:0:
208,68,26104,2,0,L|168:71,1,24.375,2|0,0:0|0:0,0:0:0:0:
252,160,26298,5,4,3:2:0:0:
256,12,26491,1,0,0:0:0:0:
88,44,26685,6,0,L|96:141,1,97.5,0|2,3:0|0:0,0:0:0:0:
108,226,27072,5,2,3:2:0:0:
97,142,27265,1,0,0:0:0:0:
58,307,27459,2,0,L|213:294,1,146.250005578995,0|0,3:0|0:0,0:0:0:0:
299,287,27846,1,2,3:2:0:0:
299,287,28040,2,0,L|303:235,2,36.5625013947487
290,351,28233,5,2,3:2:0:0:
364,273,28427,1,2,0:0:0:0:
396,331,28524,1,2,0:0:0:0:
355,379,28620,1,2,3:2:0:0:
299,287,28814,1,2,0:0:0:0:
491,205,29007,6,0,B|489:226|483:245|483:245|519:174|454:110,1,175.499994644165,2|0,3:2|0:0,0:0:0:0:
504,23,29394,6,0,P|422:53|338:33,1,175.499994644165,4|0,3:2|0:0,0:0:0:0:
195,145,29782,6,0,B|182:132|173:180|207:203|262:186|262:117|207:132|200:93|226:52,1,175.499994644165,10|0,0:2|0:0,0:0:0:0:
245,261,30169,2,0,B|263:256|226:225|189:243|176:299|236:333|251:278|288:291|311:335,1,175.499994644165,2|0,3:2|0:0,0:0:0:0:
126,246,30556,2,0,B|121:265|167:248|170:207|128:168|68:203|108:243|78:269|30:267,1,175.499994644165,10|0,0:0|0:0,0:0:0:0:
311,335,30943,6,0,L|327:143,1,175.499994644165,2|0,3:2|0:0,0:0:0:0:
327,143,31330,1,8,0:0:0:0:
419,270,31523,1,0,0:0:0:0:
225,247,31717,1,0,3:0:0:0:
225,247,31911,6,0,L|229:191,2,29.2499991073609
220,313,32104,1,10,0:0:0:0:
233,143,32298,1,2,0:0:0:0:
134,202,32491,6,0,B|114:201|85:170|85:170|124:233|121:299,1,175.499994644165,4|0,3:2|0:0,0:0:0:0:
37,356,32878,6,0,P|51:270|18:190,1,175.499994644165,10|0,0:0|0:0,0:0:0:0:
0,102,33265,2,0,P|81:71|134:2,1,175.499994644165,2|0,3:2|0:0,0:0:0:0:
227,0,33653,2,0,P|294:55|380:66,1,175.499994644165,10|0,0:0|0:0,0:0:0:0:
372,145,34040,5,2,3:2:0:0:
372,145,34233,2,0,L|376:93,2,29.2499991073609
363,212,34427,6,0,L|356:283,1,58.4999982147217,8|0,0:0|0:0,0:0:0:0:
406,323,34620,1,0,0:0:0:0:
352,341,34716,1,0,0:0:0:0:
305,309,34813,1,2,3:2:0:0:
481,195,35007,1,2,3:2:0:0:
406,323,35201,5,10,0:0:0:0:
352,341,35297,1,2,3:2:0:0:
305,309,35394,1,8,0:0:0:0:
258,277,35491,1,8,0:0:0:0:
204,295,35588,6,0,B|145:337|98:290|98:290|101:238|161:233|178:249,1,219.375008368492,6|0,3:0|0:0,0:0:0:0:
305,309,36362,2,0,B|364:267|411:314|411:314|408:366|348:371|331:355,1,219.375008368492,10|2,0:0|3:0,0:0:0:0:
256,228,37136,2,0,L|256:4,1,219.375008368492,2|0,3:0|0:0,0:0:0:0:
426,87,37911,6,0,P|388:93|363:72,1,58.4999982147217,8|0,0:0|0:0,0:0:0:0:
402,26,38104,1,2,3:0:0:0:
402,26,38491,1,0,3:0:0:0:
426,87,38588,1,8,0:0:0:0:
472,40,38685,5,2,3:0:0:0:
301,92,38878,1,0,0:0:0:0:
404,231,39072,1,0,0:0:0:0:
385,360,39265,1,0,0:0:0:0:
333,313,39362,1,0,3:0:0:0:
401,295,39459,2,0,L|488:287,2,58.4999982147217,10|2|0,0:0|0:0|3:0,0:0:0:0:
252,252,39846,1,2,0:0:0:0:
120,300,40040,1,2,0:0:0:0:
252,369,40233,6,0,L|252:241,1,116.999996429443,2|0,3:0|0:0,0:0:0:0:
252,176,40523,1,0,3:0:0:0:
252,160,40620,1,2,0:0:0:0:
328,211,40814,5,8,0:0:0:0:
252,252,40910,1,8,0:0:0:0:
177,213,41007,1,2,3:2:0:0:
256,100,41201,1,2,3:2:0:0:
252,252,41394,5,2,3:2:0:0:
270,325,41491,1,8,0:0:0:0:
241,263,41588,5,10,0:0:0:0:
257,335,41685,1,8,0:0:0:0:
342,281,41782,6,0,P|370:275|389:253,1,58.4999982147217,6|0,3:0|0:0,0:0:0:0:
409,190,41975,1,2,0:2:0:0:
453,357,42169,1,8,0:0:0:0:
490,296,42362,1,2,0:0:0:0:
305,220,42556,1,0,3:0:0:0:
342,281,42749,1,2,0:0:0:0:
482,48,42943,1,10,0:0:0:0:
445,109,43136,1,2,0:0:0:0:
217,50,43330,6,0,P|307:75|323:11,1,175.499994644165,2|0,3:2|0:0,0:0:0:0:
111,87,43717,2,0,P|147:16|218:52,1,175.499994644165,10|0,0:0|0:0,0:0:0:0:
0,103,44104,6,0,P|84:143|111:82,1,175.499994644165,2|0,3:2|0:0,0:0:0:0:
201,244,44491,6,0,B|210:196|168:171|168:171|101:209|147:288,1,219.375008368492,10|0,0:0|0:0,0:0:0:0:
74,337,44878,6,0,P|140:359|240:278,1,175.499994644165,2|0,3:2|0:0,0:0:0:0:
229,303,45265,1,8,0:0:0:0:
323,209,45459,6,0,P|393:257|453:107,1,292.499991073609,2|0,0:0|0:0,0:0:0:0:
328,69,46040,6,0,B|326:40|376:6|376:6|263:88|306:124,1,219.375008368492,8|0,0:0|0:0,0:0:0:0:
323,209,46427,6,0,B|285:175|196:195|245:244|182:269|97:233,2,219.375008368492,2|2|2,3:2|0:0|0:0,0:0:0:0:
78,321,47201,6,0,B|53:263|-2:241|-2:241|52:222|82:161,1,219.375008368492,0|0,3:0|0:0,0:0:0:0:
140,84,47588,2,0,B|125:43|179:21|179:21|220:49|231:96|198:154,1,219.375008368492,10|0,0:0|0:0,0:0:0:0:
202,165,47975,1,4,3:1:0:0:
201,44,49136,6,0,B|231:30|258:45|243:62|278:74|304:63,1,109.687504184246,2|0,0:0|0:0,0:0:0:0:
252,225,49523,6,0,B|228:297|292:348|292:348|304:308|296:276,1,185.249995053291,4|0,3:2|0:0,0:0:0:0:
359,159,49814,2,0,B|434:143|446:62|446:62|405:71|381:94,1,185.249995053291,4|0,3:1|0:0,0:0:0:0:
208,122,50104,2,0,B|156:64|80:94|80:94|109:125|140:134,1,185.249995053291,4|4,3:2|3:2,0:0:0:0:
128,333,50685,5,0,0:0:0:0:
78,306,50782,1,0,0:0:0:0:
88,252,50878,1,0,0:0:0:0:
143,244,50975,1,0,0:0:0:0:
167,294,51072,6,2,B|211:312|247:300|247:300|331:147|331:147|360:133|403:159,1,321.750009819031,4|0,3:0|0:0,0:1:0:0:
410,158,51459,1,8,0:0:0:0:
385,384,51653,6,0,L|394:292,1,92.6249975266457,2|0,0:0|0:0,0:0:0:0:
452,215,51846,6,0,P|402:228|344:177,1,109.687504184246,2|0,3:2|0:0,0:0:0:0:
381,48,52233,6,0,B|295:32|295:32|177:153|177:153|63:133,1,321.750009819031,10|0,0:0|0:0,0:0:0:0:
32,174,52620,6,0,P|31:128|61:94,1,92.6249975266457,2|0,3:2|0:0,0:0:0:0:
109,196,52814,5,0,1:0:0:0:
104,178,52878,1,0,1:0:0:0:
105,159,52943,1,0,1:0:0:0:
112,142,53007,1,10,1:2:0:0:
179,171,53201,1,2,0:0:0:0:
143,308,53394,6,0,B|148:272|212:252|212:252|153:249|75:286|85:377,1,277.874992579937,2|0,3:2|0:0,0:0:0:0:
209,366,53782,6,0,L|212:329,1,36.5625013947487,10|0,0:0|0:0,0:0:0:0:
299,329,53975,2,0,L|303:366,1,36.5625013947487,2|0,0:0|0:0,0:0:0:0:
419,239,54169,6,0,B|437:244|455:237|455:237|431:259|393:256|376:242,1,109.687504184246,2|0,3:2|0:0,0:0:0:0:
332,48,54556,6,0,B|322:20|265:44|265:44|343:0|443:73|422:184,1,321.750009819031,10|0,0:0|0:0,0:0:0:0:
333,245,54943,1,2,3:2:0:0:
419,239,55040,2,0,L|541:227,2,92.6249975266457,0|0|0,1:0|1:0|0:0,0:0:0:0:
282,298,55330,6,0,P|261:257|270:212,1,92.6249975266457,10|0,0:0|0:0,0:0:0:0:
294,120,55523,5,2,0:0:0:0:
234,152,55619,1,2,0:0:0:0:
165,135,55717,2,0,B|95:90|136:-9|136:-9|80:76|-17:47,1,321.750009819031,6|2,3:2|0:0,0:0:0:0:
60,209,56104,6,0,B|98:233|76:289|76:289|106:241|161:257,1,175.499994644165,10|2,0:0|0:0,0:0:0:0:
234,152,56491,5,6,3:2:0:0:
238,111,56588,1,0,1:0:0:0:
242,71,56684,1,0,1:0:0:0:
324,189,56878,5,10,0:0:0:0:
356,127,56975,1,0,0:0:0:0:
426,139,57072,1,2,1:2:0:0:
435,208,57169,1,10,1:2:0:0:
372,239,57265,6,2,B|317:236|250:246|307:316|188:313|169:272|169:272|227:291|261:248,1,321.750009819031,4|0,3:0|0:0,0:1:0:0:
201,208,57653,1,8,0:0:0:0:
58,354,57846,6,0,P|50:314|86:268,1,92.6249975266457,2|0,0:0|0:0,0:0:0:0:
201,208,58040,6,0,P|135:217|96:183,1,109.687504184246,2|0,3:2|0:0,0:0:0:0:
274,312,58427,6,0,B|261:224|340:248|357:182|357:182|348:250|422:252|380:330,1,321.750009819031,10|0,0:0|0:0,0:0:0:0:
341,378,58814,6,0,P|399:389|438:359,1,92.6249975266457,0|0,3:0|0:0,0:0:0:0:
381,327,59007,5,0,1:0:0:0:
393,313,59071,1,0,1:0:0:0:
397,295,59136,1,0,1:0:0:0:
394,277,59200,1,10,1:2:0:0:
335,284,59394,1,2,0:0:0:0:
476,137,59588,6,0,B|448:168|402:175|343:168|293:105|293:105|318:139|358:132,1,277.874992579937,0|0,3:0|0:0,0:0:0:0:
377,10,59975,5,8,0:0:0:0:
348,63,60072,1,0,0:0:0:0:
252,64,60169,5,2,0:0:0:0:
223,11,60266,1,2,0:0:0:0:
300,32,60362,6,2,L|300:160,1,109.687504184246,2|0,3:2|0:0,0:1:0:0:
300,160,60749,1,8,0:0:0:0:
203,350,60943,5,2,0:0:0:0:
209,353,61040,1,2,0:0:0:0:
230,290,61136,2,0,L|134:281,1,73.1250027894975,2|0,3:2|0:0,0:0:0:0:
61,270,61427,1,2,0:0:0:0:
61,270,61523,6,0,P|81:229|70:185,1,92.6249975266457,8|0,0:0|0:0,0:0:0:0:
115,88,61717,5,2,0:0:0:0:
110,97,61814,1,2,0:0:0:0:
173,123,61910,2,0,L|184:-12,1,92.6249975266457,2|0,3:2|0:0,0:0:0:0:
331,30,62298,6,0,L|339:123,1,92.6249975266457,10|0,0:0|0:0,0:0:0:0:
255,196,62491,1,2,0:0:0:0:
256,108,62588,1,0,0:0:0:0:
321,196,62685,6,0,B|340:256|258:246|256:312|256:312|249:245|180:264|191:195,1,277.874992579937,2|0,3:2|0:0,0:0:0:0:
57,95,63072,6,0,B|111:81|111:81|149:115,1,107.25000327301,8|0,1:2|1:0,0:0:0:0:
92,159,63265,1,2,1:2:0:0:
256,24,63459,5,4,3:0:0:0:
420,159,63653,1,2,0:0:0:0:
92,159,63846,1,8,0:0:0:0:
256,100,64040,5,2,0:0:0:0:
305,140,64136,1,2,0:0:0:0:
206,140,64233,1,0,3:0:0:0:
256,24,64427,1,2,0:0:0:0:
256,208,64620,1,8,0:0:0:0:
256,24,64814,1,0,0:0:0:0:
420,160,65007,5,2,3:2:0:0:
91,157,65201,1,2,0:0:0:0:
412,292,65394,5,10,0:0:0:0:
83,289,65588,1,2,0:0:0:0:
256,24,65782,6,0,L|256:152,1,109.687504184246,2|0,3:2|0:0,0:0:0:0:
247,259,66169,6,0,B|203:235|168:270|168:270|192:208|302:200|365:261|363:312,1,321.750009819031,8|0,0:0|0:0,0:0:0:0:
415,293,66556,5,2,3:2:0:0:
247,259,66749,1,2,0:0:0:0:
83,289,66943,1,8,0:0:0:0:
335,353,67136,5,2,0:0:0:0:
251,336,67233,1,2,0:0:0:0:
169,351,67330,1,0,3:0:0:0:
247,259,67523,1,2,0:0:0:0:
416,293,67717,1,8,0:0:0:0:
83,289,67911,1,0,0:0:0:0:
412,136,68104,5,2,3:2:0:0:
358,135,68200,1,2,0:0:0:0:
309,114,68297,1,2,0:0:0:0:
272,76,68394,1,2,0:0:0:0:
244,37,68491,5,8,1:2:0:0:
234,62,68588,1,0,1:0:0:0:
216,81,68685,1,2,0:0:0:0:
191,91,68782,1,2,0:0:0:0:
128,104,68878,5,2,3:2:0:0:
155,129,68974,1,2,0:0:0:0:
167,165,69071,1,0,1:0:0:0:
162,203,69168,1,0,1:0:0:0:
220,232,69265,5,10,0:0:0:0:
156,232,69361,1,2,0:0:0:0:
99,256,69458,1,2,0:0:0:0:
56,301,69555,1,2,0:0:0:0:
33,358,69653,6,2,B|86:299|186:334|120:380|240:384|266:362|266:362|218:358|193:328,1,321.750009819031,4|0,3:0|0:0,0:1:0:0:
289,290,70040,1,8,0:0:0:0:
491,251,70233,2,0,P|429:259|391:211,1,107.25000327301,2|0,0:0|0:0,0:0:0:0:
333,111,70427,6,0,P|341:173|293:211,1,109.687504184246,2|0,3:2|0:0,0:0:0:0:
253,324,70814,6,0,B|167:323|169:254|169:254|243:224|311:272|301:375,1,321.750009819031,10|0,0:0|0:0,0:0:0:0:
390,376,71201,6,0,P|382:316|410:276,1,92.6249975266457,2|0,3:2|0:0,0:0:0:0:
355,226,71394,5,0,1:0:0:0:
368,213,71458,1,0,1:0:0:0:
385,204,71523,1,0,1:0:0:0:
402,200,71587,1,10,1:2:0:0:
407,269,71782,1,2,0:0:0:0:
305,111,71975,6,0,B|242:149|190:60|277:-5|364:67|316:121|417:119,1,277.874992579937,2|0,3:2|0:0,0:0:0:0:
409,15,72362,6,0,L|404:66,1,36.5625013947487,10|0,0:0|0:0,0:0:0:0:
308,147,72556,2,0,L|304:110,1,36.5625013947487,2|0,0:0|0:0,0:0:0:0:
435,213,72749,6,0,P|386:209|341:264,1,109.687504184246,2|0,3:2|0:0,0:0:0:0:
325,366,73136,6,0,P|220:248|64:234,1,321.750009819031,10|0,0:0|0:0,0:0:0:0:
37,245,73523,1,2,3:2:0:0:
262,173,73717,1,0,1:0:0:0:
246,384,73911,1,8,0:0:0:0:
104,258,74104,5,2,0:0:0:0:
216,222,74201,1,2,0:0:0:0:
208,327,74298,6,0,P|257:322|311:364,1,109.687504184246,6|0,3:2|0:0,0:0:0:0:
431,376,74685,6,0,P|374:228|436:47,1,321.750009819031,10|0,0:0|0:0,0:0:0:0:
422,65,75072,1,6,3:2:0:0:
328,56,75169,2,0,L|227:47,2,92.6249975266457
289,174,75459,5,10,0:0:0:0:
317,118,75556,1,0,0:0:0:0:
195,118,75653,5,2,1:2:0:0:
223,174,75750,1,2,1:2:0:0:
255,279,75846,6,2,B|255:231|255:231|251:223|251:223|259:223|259:223|255:215|255:215|255:3,1,277.874992579937,4|0,3:0|0:0,0:1:0:0:
254,5,76233,1,8,0:0:0:0:
195,118,76427,5,2,0:0:0:0:
255,150,76523,1,2,0:0:0:0:
317,118,76620,2,2,P|341:90|421:114,1,109.687504184246,2|0,3:2|0:0,0:1:0:0:
506,47,77007,6,0,L|496:158,1,92.6249975266457,8|0,0:0|0:0,0:0:0:0:
492,251,77201,1,2,0:0:0:0:
427,256,77297,1,2,0:0:0:0:
362,262,77394,6,0,L|370:357,1,92.6249975266457,2|0,3:2|0:0,0:0:0:0:
141,354,77588,2,0,L|150:262,1,92.6249975266457,0|0,3:0|0:0,0:0:0:0:
370,158,77782,6,0,L|463:179,1,92.6249975266457,10|0,0:0|0:0,0:0:0:0:
142,158,77975,2,0,L|48:179,1,92.6249975266457,0|0,3:0|1:0,0:0:0:0:
256,8,78169,5,8,0:0:0:0:
256,82,78265,1,8,0:0:0:0:
256,156,78362,1,0,3:0:0:0:
206,349,78556,6,0,B|182:283|246:283|258:227|258:227|266:283|326:283|299:351,1,277.874992579937,10|0,0:0|0:0,0:0:0:0:
448,354,78943,2,0,B|443:272|362:181|362:181|426:176|474:96|474:96|435:187|467:267,1,511.875019526482,4|0,3:0|0:0,0:0:0:0:
256,192,80491,12,0,81653,0:0:0:0:
256,192,81846,5,0,3:0:0:0:
169,51,82040,6,2,B|79:82|18:35|18:35|70:54|114:35,1,248.625004742146,6|0,3:0|0:0,0:1:0:0:
231,14,82427,6,0,P|240:45|237:76,1,63.3749970989229,8|0,0:0|0:0,0:0:0:0:
208,146,82620,1,0,0:0:0:0:
256,192,82717,1,2,0:0:0:0:
181,276,82814,6,0,P|178:244|187:214,2,63.3749970989229,2|0|2,3:2|0:0|0:0,0:0:0:0:
397,324,83201,6,0,L|373:321,1,24.375,8|0,0:0|0:0,0:0:0:0:
292,354,83394,6,0,P|312:319|300:280,1,82.8750015807152,0|0,3:0|0:0,0:0:0:0:
208,146,83588,2,0,P|328:182|437:119,1,248.625004742146,4|0,3:0|0:0,0:0:0:0:
439,101,83975,1,8,0:0:0:0:
404,108,84072,1,2,0:0:0:0:
430,133,84169,1,2,0:0:0:0:
465,126,84265,1,2,0:0:0:0:
450,19,84362,5,0,3:0:0:0:
447,45,84458,1,2,0:0:0:0:
404,108,84556,5,2,0:0:0:0:
377,113,84652,1,0,0:0:0:0:
287,137,84749,5,8,0:0:0:0:
300,161,84845,1,0,0:0:0:0:
337,227,84943,5,2,0:0:0:0:
317,247,85039,1,2,0:0:0:0:
247,294,85136,6,0,B|324:280|370:367|370:367|340:321|296:311,1,248.625004742146,4|0,3:0|0:0,0:0:0:0:
190,334,85523,6,0,P|179:304|183:273,1,63.3749970989229,8|0,0:0|0:0,0:0:0:0:
182,199,85717,1,0,0:0:0:0:
118,235,85814,1,2,0:0:0:0:
247,294,85911,6,0,P|275:308|306:306,2,63.3749970989229,2|0|2,3:2|0:0|0:0,0:0:0:0:
116,110,86298,6,0,L|159:106,1,24.375,8|0,0:0|0:0,0:0:0:0:
187,58,86491,6,0,P|210:103|195:150,1,82.8750015807152,0|0,3:0|0:0,0:0:0:0:
118,235,86685,5,6,3:0:0:0:
182,199,86781,1,2,0:0:0:0:
180,272,86878,1,2,0:0:0:0:
118,307,86974,1,2,0:0:0:0:
50,268,87071,1,2,0:0:0:0:
330,170,87265,5,2,3:0:0:0:
357,246,87361,1,2,0:0:0:0:
280,235,87458,1,2,0:0:0:0:
250,165,87556,1,2,0:0:0:0:
287,101,87653,2,0,L|295:-3,1,82.8750015807152,2|0,1:2|0:0,0:0:0:0:
417,22,87846,5,2,2:2:0:0:
417,59,87943,1,0,2:0:0:0:
466,115,88040,5,2,3:2:0:0:
430,127,88137,1,0,3:0:0:0:
450,195,88233,6,2,B|377:280|397:366|500:361|540:291|478:253|456:252,1,248.625004742146,4|0,3:0|0:0,0:1:0:0:
369,293,88620,2,0,P|339:304|321:330,1,63.3749970989229,2|0,3:2|0:0,0:0:0:0:
256,372,88814,1,0,0:0:0:0:
256,296,88911,1,2,0:0:0:0:
180,328,89007,2,0,P|161:302|131:292,2,63.3749970989229,2|0|2,3:2|0:0|0:0,0:0:0:0:
254,113,89394,6,0,L|254:137,1,24.375,8|0,0:0|0:0,0:0:0:0:
256,296,89588,6,0,L|256:208,1,82.8750015807152,0|0,3:0|0:0,0:0:0:0:
176,116,89782,6,0,P|255:37|331:119,1,248.625004742146,0|0,3:0|0:0,0:0:0:0:
324,142,90169,1,8,0:0:0:0:
289,127,90265,1,2,0:0:0:0:
321,105,90362,1,2,0:0:0:0:
356,122,90459,1,2,0:0:0:0:
324,142,90556,5,0,3:0:0:0:
321,175,90652,1,2,0:0:0:0:
317,244,90749,5,2,0:0:0:0:
284,251,90845,1,0,0:0:0:0:
216,289,90943,5,8,0:0:0:0:
223,322,91039,1,0,0:0:0:0:
279,369,91136,5,2,3:2:0:0:
312,372,91232,1,2,0:0:0:0:
380,332,91330,5,4,3:0:0:0:
118,226,91523,1,0,3:0:0:0:
312,372,91717,5,8,0:0:0:0:
331,90,91910,1,2,3:2:0:0:
157,303,92104,5,0,3:0:0:0:
431,233,92297,1,10,0:0:0:0:
161,134,92491,5,8,0:0:0:0:
312,372,92684,1,0,3:0:0:0:
281,125,92878,5,0,0:0:0:0:
310,122,92974,1,0,0:0:0:0:
339,119,93071,1,0,0:0:0:0:
368,117,93168,1,0,0:0:0:0:
408,156,93265,5,0,0:0:0:0:
437,159,93361,1,0,0:0:0:0:
466,162,93458,1,0,0:0:0:0:
495,164,93555,1,0,0:0:0:0:
475,92,93653,6,0,P|460:66|434:48,1,42.6562504068017,4|0,3:0|0:0,0:0:0:0:
438,36,93749,2,0,P|408:42|383:61,1,42.6562504068017,2|0,0:0|0:0,0:0:0:0:
369,44,93846,2,0,P|365:73|376:103,1,42.6562504068017,2|0,3:2|0:0,0:0:0:0:
338,115,93943,2,0,P|365:127|397:126,1,42.6562504068017,0|0,0:0|3:0,3:0:0:0:
430,156,94040,6,0,B|424:187|424:187|419:194|419:194|426:196|426:196|421:203|421:203|406:289,1,121.875,2|0,3:2|0:0,0:0:0:0:
393,379,94233,1,2,3:2:0:0:
416,128,94427,6,0,P|360:127|325:103,1,82.8750015807152,0|0,3:0|0:0,0:0:0:0:
96,128,94620,2,0,P|152:127|187:103,1,82.8750015807152,8|0,0:0|0:0,0:0:0:0:
355,324,94814,6,0,P|339:271|351:230,1,82.8750015807152,0|0,3:0|0:0,0:0:0:0:
167,245,95007,2,0,P|171:286|156:324,1,82.8750015807152,0|0,3:0|0:0,0:0:0:0:
256,348,95201,6,2,L|256:316,1,24.375,8|0,0:0|0:0,0:1:0:0:
190,174,95394,2,0,B|227:161|257:170|240:204|285:208|316:194,1,121.875,0|0,3:0|0:0,0:0:0:0:
323,199,95588,1,8,0:0:0:0:
332,60,95782,5,8,0:0:0:0:
259,22,95878,1,8,0:0:0:0:
185,57,95975,1,0,3:0:0:0:
89,230,96556,6,0,B|108:238|172:255|182:355|101:403|44:359|41:275|104:287,1,243.75,0|6,3:0|3:2,0:0:0:0:
136,104,97136,5,8,0:0:0:0:
212,81,97233,1,8,0:0:0:0:
260,24,97329,1,8,0:0:0:0:
308,81,97426,1,8,0:0:0:0:
386,104,97523,6,2,B|426:60|419:-15|419:-15|473:64|473:64|427:94|431:180,1,321.750009819031,4|0,3:0|0:0,0:1:0:0:
430,158,97911,1,8,0:0:0:0:
415,326,98104,6,0,L|423:234,1,92.6249975266457,2|0,0:0|0:0,0:0:0:0:
430,158,98298,6,0,P|377:170|331:143,1,109.687504184246,2|0,3:2|0:0,0:0:0:0:
208,112,98685,6,0,B|201:57|255:26|255:26|165:46|133:126|133:126|160:145|167:176,1,321.750009819031,10|0,0:0|0:0,0:0:0:0:
101,183,99072,6,0,P|56:191|16:170,1,92.6249975266457,2|0,3:2|0:0,0:0:0:0:
71,122,99265,5,0,1:0:0:0:
59,107,99329,1,0,1:0:0:0:
51,91,99394,1,0,1:0:0:0:
48,73,99458,1,10,0:0:0:0:
120,71,99653,1,2,0:0:0:0:
173,246,99846,6,0,B|156:204|99:183|99:183|226:215|237:278,1,277.874992579937,0|0,3:0|0:0,0:0:0:0:
106,270,100233,6,0,P|82:252|59:246,1,36.5625013947487,8|0,0:0|0:0,0:0:0:0:
71,122,100427,2,0,P|89:98|95:75,1,36.5625013947487,2|0,0:0|0:0,0:0:0:0:
140,188,100620,6,0,L|30:188,1,109.687504184246,2|0,3:2|0:0,0:0:0:0:
193,77,101007,6,0,B|257:52|323:97|260:147|350:189|426:164|426:164|400:147|397:114,1,321.750009819031,10|0,0:0|0:0,0:0:0:0:
467,109,101394,1,2,3:2:0:0:
496,196,101491,2,0,L|486:307,2,92.6249975266457,0|0|0,1:0|1:0|0:0,0:0:0:0:
354,256,101782,2,0,L|345:348,1,92.6249975266457,8|0,0:0|0:0,0:0:0:0:
250,308,101975,5,2,0:0:0:0:
180,326,102071,1,2,0:0:0:0:
116,292,102169,6,0,B|57:275|82:195|172:185|293:232|244:373,1,321.750009819031,6|0,3:2|0:0,0:0:0:0:
347,355,102556,6,0,B|380:345|366:299|314:293|245:320|273:401,1,175.499994644165,10|0,0:0|0:0,0:0:0:0:
250,308,102943,1,6,3:2:0:0:
253,266,103039,1,0,1:0:0:0:
256,226,103136,1,0,1:0:0:0:
438,97,103330,5,10,0:0:0:0:
407,33,103427,1,0,0:0:0:0:
337,43,103524,1,0,1:0:0:0:
325,112,103620,1,8,1:2:0:0:
387,145,103717,6,2,B|426:182|489:152|489:152|435:232|467:324|467:324|466:304|480:282,1,321.750009819031,4|0,3:0|0:0,0:1:0:0:
487,288,104104,1,8,0:0:0:0:
353,376,104298,6,0,P|363:334|336:287,1,92.6249975266457,2|0,0:0|0:0,0:0:0:0:
388,207,104491,6,0,P|336:223|286:204,1,109.687504184246,2|0,3:2|0:0,0:0:0:0:
155,143,104878,6,0,B|131:112|163:49|266:62|271:218|184:173|129:235|212:332,1,321.750009819031,8|0,0:0|0:0,0:0:0:0:
244,363,105265,6,0,P|201:379|157:369,1,92.6249975266457,2|0,3:2|0:0,0:0:0:0:
196,312,105459,5,0,1:0:0:0:
179,303,105523,1,0,1:0:0:0:
165,290,105588,1,0,1:0:0:0:
155,275,105652,1,8,0:0:0:0:
219,247,105846,5,2,0:0:0:0:
79,356,106040,2,0,B|98:318|75:258|53:290|40:248|49:174|49:174|51:231|93:258,1,277.874992579937,2|0,3:2|0:0,0:0:0:0:
129,130,106427,5,8,0:0:0:0:
126,186,106523,1,0,0:0:0:0:
208,139,106620,5,2,0:0:0:0:
203,84,106716,1,2,0:0:0:0:
240,22,106814,6,2,P|197:12|136:55,1,109.687504184246,0|0,3:0|0:0,0:1:0:0:
130,54,107201,1,8,0:0:0:0:
350,138,107394,5,2,0:0:0:0:
351,119,107490,1,2,0:0:0:0:
323,57,107588,2,0,L|398:63,1,73.1250027894975,2|0,3:2|0:0,0:0:0:0:
487,188,107878,5,0,0:0:0:0:
433,230,107975,2,0,P|417:187|430:143,1,92.6249975266457,8|0,0:0|0:0,0:0:0:0:
331,230,108169,5,2,0:0:0:0:
329,254,108265,1,2,0:0:0:0:
361,330,108363,2,0,L|264:321,1,92.6249975266457,2|0,3:2|0:0,0:0:0:0:
0,266,108749,6,0,L|97:274,1,92.6249975266457,8|0,0:0|0:0,0:0:0:0:
165,286,108943,1,0,0:0:0:0:
82,355,109040,1,0,0:0:0:0:
113,198,109136,6,0,B|154:146|132:57|132:57|177:131|240:123,1,277.874992579937,0|0,3:0|0:0,0:0:0:0:
455,95,109523,6,0,B|401:81|401:81|363:115,1,107.25000327301,8|0,1:2|1:0,0:0:0:0:
420,159,109716,1,0,1:0:0:0:
256,20,109911,1,6,3:2:0:0:
92,159,110104,1,2,0:2:0:0:
256,20,110298,1,8,0:0:0:0:
338,175,110491,5,2,0:0:0:0:
256,106,110588,1,2,0:0:0:0:
174,175,110685,1,0,3:0:0:0:
256,280,110878,5,2,0:0:0:0:
256,20,111072,1,8,0:0:0:0:
256,280,111265,1,0,0:0:0:0:
383,39,111459,5,2,3:2:0:0:
92,159,111653,1,2,0:0:0:0:
346,245,111846,5,10,0:0:0:0:
141,5,112040,1,2,0:0:0:0:
156,69,112136,1,0,0:0:0:0:
216,24,112233,6,0,L|228:162,1,109.687504184246,2|0,3:2|0:0,0:0:0:0:
190,239,112620,6,0,B|237:211|237:211|306:220,1,107.25000327301,8|0,0:0|0:0,0:0:0:0:
256,292,112814,1,2,2:0:0:0:
96,232,113007,5,2,3:2:0:0:
416,232,113201,1,2,0:0:0:0:
252,360,113394,1,8,0:0:0:0:
176,212,113588,5,2,0:0:0:0:
336,212,113685,1,2,0:0:0:0:
254,276,113782,1,0,3:0:0:0:
256,48,113975,1,2,0:0:0:0:
254,276,114169,5,8,0:0:0:0:
256,48,114362,1,0,0:0:0:0:
415,47,114556,5,2,3:2:0:0:
361,48,114652,1,2,0:0:0:0:
312,69,114749,1,2,0:0:0:0:
275,107,114846,1,2,0:0:0:0:
258,155,114943,5,8,1:2:0:0:
251,130,115039,1,0,1:0:0:0:
232,111,115136,1,2,0:0:0:0:
208,100,115233,1,2,0:0:0:0:
198,22,115330,5,0,0:0:0:0:
153,50,115426,1,0,0:0:0:0:
137,100,115523,1,0,0:0:0:0:
156,149,115620,1,0,0:0:0:0:
179,187,115717,5,10,0:0:0:0:
116,188,115813,1,2,0:0:0:0:
58,213,115910,1,2,0:0:0:0:
15,257,116007,1,2,0:0:0:0:
3,312,116104,6,0,B|44:277|144:309|74:343|159:383|226:366|226:366|224:312|271:290,1,321.750009819031,4|0,3:0|0:0,0:0:0:0:
298,355,116491,1,8,0:0:0:0:
299,170,116685,2,0,P|322:216|303:264,1,107.25000327301,2|0,0:0|0:0,0:0:0:0:
409,333,116878,6,0,P|453:285|516:287,1,109.687504184246,2|0,3:2|0:0,0:0:0:0:
460,132,117265,6,0,B|453:77|507:46|507:46|417:66|385:146|385:146|412:165|419:196,1,321.750009819031,8|0,0:0|0:0,0:0:0:0:
353,208,117653,6,0,P|275:223|247:204,1,92.6249975266457,2|0,3:2|0:0,0:0:0:0:
218,281,117846,1,0,1:0:0:0:
203,270,117910,1,0,1:0:0:0:
191,255,117975,1,0,1:0:0:0:
183,239,118039,1,10,0:0:0:0:
266,219,118233,1,2,0:0:0:0:
42,263,118427,6,0,B|101:290|121:338|121:338|79:213|79:213|99:223|127:222,1,277.874992579937,2|0,3:2|0:0,0:0:0:0:
92,55,118814,6,0,B|79:111|79:111|106:152,1,107.25000327301,10|0,0:0|0:0,0:0:0:0:
161,98,119007,1,2,0:0:0:0:
166,224,119201,6,0,P|224:239|279:206,1,109.687504184246,2|0,3:2|0:0,0:0:0:0:
351,289,119588,6,0,B|322:194|397:207|415:154|415:154|413:210|489:219|436:312,1,321.750009819031,10|0,0:0|0:0,0:0:0:0:
394,344,119975,6,0,P|334:356|286:319,1,109.687504184246,2|0,3:2|0:0,0:0:0:0:
217,218,120362,6,0,L|207:321,1,92.6249975266457,8|0,0:0|0:0,0:0:0:0:
65,309,120556,1,2,0:0:0:0:
137,341,120653,1,2,0:0:0:0:
208,310,120749,2,0,L|219:180,1,109.687504184246,4|0,3:2|0:0,0:0:0:0:
187,79,121136,6,0,B|227:78|261:37|261:37|234:119|150:111|150:111|160:58|109:30,1,321.750009819031,10|0,0:0|0:0,0:0:0:0:
0,35,121523,6,0,P|13:69|84:92,1,109.687504184246,4|0,3:2|0:0,0:0:0:0:
132,179,121911,5,10,0:0:0:0:
102,181,122007,1,0,0:0:0:0:
53,274,122104,5,2,1:2:0:0:
41,246,122200,1,2,1:2:0:0:
28,182,122298,6,0,B|117:206|133:296|133:296|135:202|202:158,1,321.750009819031,4|0,3:0|0:0,0:0:0:0:
215,153,122685,1,8,0:0:0:0:
368,288,122878,1,2,0:0:0:0:
291,276,122975,1,2,0:0:0:0:
235,338,123072,6,0,P|209:284|225:227,1,109.687504184246,0|0,3:0|0:0,2:0:0:0:
300,130,123459,6,0,P|260:153|214:152,1,92.6249975266457,8|0,0:0|0:0,0:0:0:0:
128,181,123653,5,2,0:0:0:0:
156,114,123749,1,2,0:0:0:0:
134,44,123846,6,0,L|41:35,1,92.6249975266457,2|0,3:2|0:0,0:0:0:0:
378,44,124040,2,0,L|470:35,1,92.6249975266457,0|0,3:0|0:0,0:0:0:0:
167,205,124233,6,0,L|155:113,1,92.6249975266457,8|0,0:0|0:0,0:0:0:0:
356,113,124427,2,0,L|345:205,1,92.6249975266457,0|0,3:0|1:0,0:0:0:0:
329,322,124620,5,10,0:0:0:0:
283,352,124716,1,0,3:0:0:0:
228,353,124813,1,0,3:0:0:0:
182,325,124910,1,0,3:0:0:0:
256,285,125007,6,0,L|256:185,1,92.6249975266457,2|2,3:2|3:2,0:0:0:0:
256,16,125201,2,0,L|256:108,1,92.6249975266457,2|2,3:2|3:2,0:0:0:0:
66,157,125394,6,2,P|105:176|170:160,1,92.6249975266457,4|0,3:0|0:0,0:1:0:0:
446,157,125588,2,0,P|407:176|342:160,1,92.6249975266457,8|0,0:0|0:0,0:0:0:0:
156,92,125782,6,0,P|149:46|169:5,1,92.6249975266457,0|0,3:0|0:0,0:0:0:0:
342,5,125975,2,0,P|362:46|356:92,1,92.6249975266457,0|0,3:0|0:0,0:0:0:0:
256,216,126169,6,0,L|256:184,1,24.375,8|0,0:0|0:0,0:0:0:0:
212,54,126362,6,0,B|251:47|251:47|295:88|295:88|338:80,1,121.875,0|0,3:0|0:0,0:0:0:0:
341,81,126556,1,8,0:0:0:0:
184,260,126749,5,8,0:0:0:0:
257,297,126845,1,8,0:0:0:0:
332,262,126942,1,4,3:0:0:0:
95,23,127523,6,0,B|76:31|12:48|2:148|83:196|140:152|143:68|80:80,1,243.75,4|4,3:0|3:2,0:0:0:0:
