osu file format v14

[General]
AudioFilename: audio.ogg
AudioLeadIn: 0
PreviewTime: 379151
Countdown: 0
SampleSet: Drum
StackLeniency: 0.7
Mode: 0
LetterboxInBreaks: 0
EpilepsyWarning: 1
WidescreenStoryboard: 1

[Editor]
Bookmarks: 409702
DistanceSpacing: 2
BeatDivisor: 16
GridSize: 32
TimelineZoom: 2.5

[Metadata]
Title:Seeds
TitleUnicode:Seeds
Artist:Atsuko Chiba
ArtistUnicode:Atsuko Chiba
Creator:a bat
Version:Bloom
Source:
Tags:water it feels like it's growing its experimental post psychedelic progressive space rock english mothland porgdeity a_bat
BeatmapID:4093641
BeatmapSetID:1972810

[Difficulty]
HPDrainRate:5.2
CircleSize:6.9
OverallDifficulty:7.4
ApproachRate:8.3
SliderMultiplier:1.4
SliderTickRate:2

[Events]
//Background and Video events
0,0,"wateritfeelslikeitsgrowing.jpg",0,0
//Break Periods
2,291638,292719
//Storyboard Layer 0 (Background)
//Storyboard Layer 1 (Fail)
//Storyboard Layer 2 (Pass)
//Storyboard Layer 3 (Foreground)
//Storyboard Layer 4 (Overlay)
//Storyboard Sound Samples

[TimingPoints]
162,971.65991902834,4,2,1,30,1,0
162,-1000,4,2,1,30,0,0
222,-1000,4,2,1,5,0,0
1133,-1000,4,2,1,30,0,0
1193,-1000,4,2,1,5,0,0
2105,-1000,4,2,1,30,0,0
2165,-1000,4,2,1,5,0,0
3076,-1000,4,2,1,30,0,0
4049,983.606557377049,4,2,1,30,1,0
4049,-1000,4,2,1,30,0,0
4110,-1000,4,2,1,5,0,0
5032,-1000,4,2,1,30,0,0
5092,-1000,4,2,1,5,0,0
6016,-1000,4,2,1,30,0,0
6076,-1000,4,2,1,5,0,0
6999,-1000,4,2,1,30,0,0
7983,963.855421686747,4,2,1,30,1,0
7983,-1000,4,2,1,30,0,0
8043,-1000,4,2,1,5,0,0
8946,-1000,4,2,1,30,0,0
9006,-1000,4,2,1,5,0,0
9910,-1000,4,2,1,30,0,0
9970,-1000,4,2,1,5,0,0
10874,-1000,4,2,1,30,0,0
11869,1008.40336134454,4,2,1,30,1,0
11869,-1000,4,2,1,30,0,0
11932,-1000,4,2,1,5,0,0
12877,-1000,4,2,1,30,0,0
12937,-1000,4,2,1,5,0,0
13885,-1000,4,2,1,30,0,0
13945,-1000,4,2,1,5,0,0
14894,-1000,4,2,1,30,0,0
15835,1000,4,2,1,30,1,0
15835,-666.666666666667,4,2,1,30,0,0
15897,-666.666666666667,4,2,1,5,0,0
16585,-666.666666666667,4,2,1,30,0,0
16835,1025.64102564103,4,2,1,30,1,0
17347,-100,4,2,2,30,0,0
17860,1004.18410041841,4,2,3,30,1,0
17860,-666.666666666667,4,2,3,30,0,0
17922,-666.666666666667,4,2,3,5,0,0
18613,-666.666666666667,4,2,3,30,0,0
18864,857.142857142855,4,2,1,30,1,0
19293,1034.48275862069,4,2,2,30,1,0
19850,963.855421686744,4,2,1,30,1,0
19850,-666.666666666667,4,2,1,30,0,0
19910,-666.666666666667,4,2,1,5,0,0
20813,-1000,4,2,1,30,0,0
20873,-1000,4,2,1,5,0,0
21777,-1000,4,2,1,30,0,0
21837,-1000,4,2,1,5,0,0
22741,905.660377358488,4,2,1,30,1,0
23193,975.609756097558,4,2,4,30,1,0
23194,-100,4,2,4,30,0,0
23684,971.659919028337,4,2,1,30,1,0
23684,-666.666666666667,4,2,1,30,0,0
23744,-666.666666666667,4,2,1,5,0,0
24412,-666.666666666667,4,2,1,30,0,0
24716,-666.666666666667,4,2,1,5,0,0
25384,-666.666666666667,4,2,1,30,0,0
25627,1021.27659574468,4,2,1,30,1,0
25627,-666.666666666667,4,2,3,30,0,0
26137,-666.666666666667,4,2,1,30,0,0
26648,-666.666666666667,4,2,2,30,0,0
27158,-666.666666666667,4,2,1,30,0,0
27414,991.73553719008,4,2,1,30,1,0
27414,-666.666666666658,4,2,3,30,0,0
27669,979.591836734691,4,2,5,30,1,0
27669,-666.666666666658,4,2,5,30,0,0
27730,-666.666666666658,4,2,5,5,0,0
28648,-1000,4,2,1,30,0,0
28708,-1000,4,2,1,5,0,0
29628,-1000,4,2,1,30,0,0
29688,-1000,4,2,1,5,0,0
30607,1030.04291845493,4,2,1,30,1,0
31122,933.852140077818,4,2,4,30,1,0
31587,983.606557377046,4,2,5,30,1,0
31587,-400,4,2,5,30,0,0
32078,-400,4,2,3,30,0,0
32570,-666.666666666667,4,2,3,30,0,0
32632,-666.666666666667,4,2,3,5,0,0
33308,-666.666666666667,4,2,3,30,0,0
33554,-666.666666666667,4,2,1,30,0,0
34046,-666.666666666667,4,2,2,30,0,0
34537,1038.96103896104,4,2,4,30,1,0
35056,1126.76056338028,4,2,6,30,1,0
35337,948.616600790511,4,2,1,30,1,0
35337,-100,4,2,4,30,0,0
35574,963.855421686744,4,2,1,30,1,0
35574,-666.666666666658,4,2,2,30,0,0
35634,-666.666666666658,4,2,2,5,0,0
36537,-666.666666666667,4,2,1,30,0,0
36597,-666.666666666667,4,2,1,5,0,0
37501,-666.666666666667,4,2,1,30,0,0
37561,-666.666666666667,4,2,1,5,0,0
38465,979.591836734691,4,2,1,30,1,0
39444,967.741935483868,4,2,1,30,1,0
39444,-666.666666666667,4,2,1,30,0,0
39504,-666.666666666667,4,2,1,5,0,0
40169,-666.666666666667,4,2,1,30,0,0
40411,987.654320987651,4,2,1,30,1,0
40411,-666.666666666667,4,2,1,30,0,0
40472,-666.666666666667,4,2,1,5,0,0
41151,-666.666666666667,4,2,1,30,0,0
41398,-666.666666666667,4,2,3,30,0,0
41892,-666.666666666667,4,2,1,30,0,0
42386,1200,4,2,1,30,1,0
42386,-666.666666666667,4,2,2,30,0,0
42686,930.232558139532,4,2,1,30,1,0
43151,-100,4,2,3,30,0,0
43386,999.999999999997,4,2,1,30,1,0
43386,-666.666666666658,4,2,5,30,0,0
43448,-666.666666666658,4,2,5,5,0,0
44386,-666.666666666667,4,2,1,30,0,0
44446,-666.666666666667,4,2,1,5,0,0
45385,-666.666666666667,4,2,1,30,0,0
45445,-666.666666666667,4,2,1,5,0,0
46385,923.07692307692,4,2,1,30,1,0
47308,963.855421686744,4,2,1,30,1,0
47308,-500,4,2,5,40,0,0
47368,-500,4,2,5,5,0,0
48030,-500,4,2,5,40,0,0
48271,975.609756097558,4,2,5,40,1,0
48752,-100,4,2,3,40,0,0
49234,-100,4,2,5,40,0,0
49731,983.606557377047,4,2,3,40,1,0
49731,-500,4,2,3,40,0,0
50222,-500,4,2,3,40,0,0
50284,-500,4,2,3,5,0,0
51206,983.606557377047,4,2,3,40,1,0
51206,-500,4,2,3,40,0,0
51268,-500,4,2,3,5,0,0
52195,916.030534351142,4,2,1,40,1,0
52882,1142.85714285714,4,2,4,40,1,0
53170,975.609756097558,4,2,5,40,1,0
53170,-500,4,2,5,40,0,0
53658,-500,4,2,3,40,0,0
54145,-500,4,2,1,40,0,0
54633,-500,4,2,2,40,0,0
55121,995.850622406636,4,2,1,40,1,0
55121,-500,4,2,1,40,0,0
55183,-500,4,2,1,5,0,0
56116,-500,4,2,3,40,0,0
56178,-500,4,2,3,5,0,0
57112,-500,4,2,3,40,0,0
57174,-500,4,2,3,5,0,0
58108,-500,4,2,3,40,0,0
58170,-500,4,2,3,5,0,0
59104,-500,4,2,3,40,0,0
59166,-500,4,2,3,5,0,0
60100,-500,4,2,3,40,0,0
60162,-500,4,2,3,5,0,0
61096,-500,4,2,3,40,0,0
61158,-500,4,2,3,5,0,0
62091,975.609756097558,4,2,1,40,1,0
63066,983.606557377046,4,2,1,40,1,0
63066,-500,4,2,5,40,0,0
63127,-500,4,2,5,5,0,0
63803,-500,4,2,5,40,0,0
64541,-500,4,2,3,40,0,0
65033,1008.40336134453,4,2,5,40,1,0
65537,-485.436893203883,4,2,3,40,0,0
66041,971.659919028337,4,2,1,40,1,0
66041,-500,4,2,3,40,0,0
66103,-500,4,2,3,5,0,0
67012,971.659919028337,4,2,3,40,1,0
67012,-500,4,2,3,40,0,0
67074,-500,4,2,3,5,0,0
67984,842.105263157893,4,2,1,40,1,0
68611,956.175298804778,4,2,4,40,1,0
68929,987.654320987651,4,2,5,40,1,0
68929,-500,4,2,5,40,0,0
69422,-500,4,2,3,40,0,0
69916,-500,4,2,1,40,0,0
70410,-500,4,2,2,40,0,0
70904,987.654320987651,4,2,1,40,1,0
70904,-500,4,2,1,40,0,0
70966,-500,4,2,1,5,0,0
71891,-500,4,2,3,40,0,0
71953,-500,4,2,3,5,0,0
72879,-500,4,2,3,40,0,0
72941,-500,4,2,3,5,0,0
73867,1004.18410041841,4,2,1,40,1,0
74369,-100,4,2,4,40,0,0
74871,1004.18410041841,4,2,1,40,1,0
74871,-400,4,2,1,40,0,0
74933,-400,4,2,1,5,0,0
75875,916.030534351143,4,2,1,40,1,0
76333,956.175298804778,4,2,3,40,1,0
76333,-399.999999999997,4,2,3,40,0,0
76811,956.175298804778,4,2,1,40,1,0
77289,1057.26872246696,4,2,1,40,1,0
77817,979.591836734691,4,2,1,40,1,0
78305,999.999999999995,4,2,1,40,1,0
78305,-500,4,2,2,40,0,0
78805,999.999999999995,4,2,3,40,1,0
78805,-500,4,2,3,40,0,0
78867,-500,4,2,3,5,0,0
79804,-500,4,2,3,40,0,0
79866,-500,4,2,3,5,0,0
80804,-500,4,2,3,40,0,0
80866,-500,4,2,3,5,0,0
81806,875.91240875912,4,2,3,40,1,0
81806,-500,4,2,3,40,0,0
82241,999.999999999995,4,2,4,40,1,0
82242,-500,4,2,4,40,0,0
82740,975.609756097558,4,2,1,40,1,0
82740,-500,4,2,1,40,0,0
82800,-500,4,2,1,5,0,0
83715,-500,4,2,1,40,0,0
84203,-500,4,2,2,40,0,0
85179,-500,4,2,2,40,0,0
85666,995.850622406636,4,2,1,40,1,0
86163,-200,4,2,3,40,0,0
86661,1004.18410041841,4,3,1,50,1,0
87665,1030.04291845493,4,3,1,50,1,0
87922,975.609756097558,4,3,1,50,1,0
88652,933.852140077818,4,3,1,50,1,0
88652,-500,4,3,1,50,0,0
88710,-500,4,3,1,10,0,0
89118,-500,4,3,1,50,0,0
89585,963.855421686744,4,3,1,50,1,0
90548,956.175298804778,4,3,1,50,1,0
91504,959.999999999997,4,3,1,50,1,0
92224,1121.4953271028,4,3,1,50,1,0
92499,919.540229885055,4,3,1,50,1,0
92499,-500,4,3,1,50,0,0
92958,-500,4,3,1,50,0,0
93416,963.855421686744,4,3,1,50,1,0
94379,983.606557377046,4,3,1,50,1,0
95362,952.38095238095,4,3,1,50,1,0
96314,941.176470588233,4,3,1,50,1,0
96314,-500,4,3,1,50,0,0
96784,-500,4,3,1,50,0,0
97255,-100,4,3,1,50,0,0
98196,959.999999999998,4,3,1,50,1,0
99156,888.888888888887,4,3,1,50,1,0
99822,1188.11881188118,4,3,1,50,1,0
100116,941.176470588233,4,3,1,50,1,0
100116,-500,4,3,1,50,0,0
100586,-500,4,3,1,50,0,0
101057,-100,4,3,1,50,0,0
101998,959.999999999998,4,3,1,50,1,0
102958,967.741935483869,4,3,1,50,1,0
103925,941.176470588233,4,3,1,50,1,0
103925,-500,4,3,1,50,0,0
104395,-500,4,3,1,50,0,0
104866,-100,4,3,1,50,0,0
105807,948.616600790512,4,3,1,50,1,0
107704,919.540229885056,4,3,1,50,1,0
107704,-500,4,3,1,50,0,0
108163,-500,4,3,1,50,0,0
108623,956.175298804779,4,3,1,50,1,0
109579,967.741935483869,4,3,1,50,1,0
110546,941.176470588233,4,3,1,50,1,0
111487,-500,4,3,1,50,0,0
111957,-500,4,3,1,50,0,0
112428,-100,4,3,1,50,0,0
113369,944.881889763777,4,3,1,50,1,0
115258,926.640926640925,4,3,1,50,1,0
115258,-500,4,3,1,50,0,0
115721,-500,4,3,1,50,0,0
117111,948.616600790512,4,3,1,50,1,0
117111,-83.3333333333333,4,3,1,50,0,0
119008,937.499999999998,4,3,1,50,1,0
120883,923.076923076921,4,3,1,50,1,0
120883,-83.3333333333333,4,3,1,50,0,0
121806,948.616600790512,4,3,1,50,1,0
121806,-83.3333333333333,4,3,1,50,0,0
122754,930.232558139533,4,3,1,50,1,0
122754,-333.333333333333,4,3,1,50,0,0
123219,-500,4,3,1,50,0,0
123684,941.176470588233,4,3,1,50,1,0
123684,-83.3333333333333,4,3,1,50,0,0
124625,926.640926640925,4,3,1,50,1,0
124625,-83.3333333333333,4,3,1,50,0,0
125551,941.176470588233,4,3,1,50,1,0
125551,-83.3333333333333,4,3,1,50,0,0
127433,930.232558139533,4,3,1,50,1,0
127898,-83.3333333333333,4,3,1,50,0,0
128363,937.499999999998,4,3,1,50,1,0
128363,-83.3333333333333,4,3,1,50,0,0
130238,919.540229885056,4,3,1,50,1,0
130238,-500,4,3,1,50,0,0
130697,-500,4,3,1,50,0,0
131617,-66.6666666666667,4,3,1,50,0,0
132077,952.380952380951,4,3,1,50,1,0
132077,-83.3333333333333,4,3,1,50,0,0
133981,933.852140077819,4,3,1,50,1,0
133981,-83.3333333333333,4,3,1,50,0,0
135848,959.999999999998,4,3,1,50,1,0
135848,-83.3333333333333,4,3,1,50,0,0
136808,930.232558139533,4,3,1,50,1,0
136808,-83.3333333333333,4,3,1,50,0,0
137738,-500,4,3,1,50,0,0
138203,-500,4,3,1,50,0,0
138668,916.030534351144,4,3,1,50,1,0
138668,-83.3333333333333,4,3,1,50,0,0
139584,963.855421686745,4,3,1,50,1,0
139584,-83.3333333333333,4,3,1,50,0,0
140547,898.876404494381,4,3,1,50,1,0
140547,-83.3333333333333,4,3,1,50,0,0
141221,1116.27906976744,4,3,1,50,1,0
141499,930.232558139533,4,3,1,50,1,0
141499,-83.3333333333333,4,3,1,50,0,0
142429,948.616600790512,4,3,1,50,1,0
143377,919.540229885056,4,3,1,50,1,0
143377,-83.3333333333333,4,3,1,50,0,0
145216,912.547528517109,4,3,1,50,1,0
145216,-500,4,3,1,50,0,0
145672,-500,4,3,1,50,0,0
147041,933.85214007782,4,3,1,50,1,0
147041,-83.3333333333333,4,3,1,50,0,0
147974,952.380952380951,4,3,1,50,1,0
147974,-83.3333333333333,4,3,1,50,0,0
148450,-166.666666666667,4,3,1,50,0,0
148926,926.640926640925,4,3,1,50,1,0
148926,-83.3333333333333,4,3,1,50,0,0
150779,912.547528517109,4,3,1,50,1,0
150779,-83.3333333333333,4,3,1,50,0,0
151691,941.176470588234,4,3,1,50,1,0
151691,-83.3333333333333,4,3,1,50,0,0
152632,-333.333333333333,4,3,1,50,0,0
153102,-500,4,3,1,50,0,0
153573,919.540229885056,4,3,1,50,1,0
153573,-83.3333333333333,4,3,1,50,0,0
154492,948.616600790513,4,3,1,50,1,0
154492,-83.3333333333333,4,3,1,50,0,0
155440,937.499999999999,4,3,1,50,1,0
155908,1008.40336134454,4,3,1,50,1,0
155908,-83.3333333333333,4,3,1,50,0,0
156411,919.540229885056,4,3,1,50,1,0
156411,-333.333333333333,4,3,1,50,0,0
156870,-333.333333333333,4,3,1,50,0,0
157330,-83.3333333333333,4,3,1,50,0,0
158250,905.660377358489,4,3,1,50,1,0
158250,-83.3333333333333,4,3,1,50,0,0
159155,930.232558139534,4,3,1,50,1,0
160085,916.030534351144,4,3,1,50,1,0
160085,-333.333333333333,4,3,1,50,0,0
160543,-500,4,3,1,50,0,0
161001,888.888888888888,4,3,1,50,1,0
161889,956.175298804779,4,3,1,50,1,0
161889,-83.3333333333333,4,3,1,50,0,0
162845,963.855421686746,4,3,1,50,1,0
162845,-83.3333333333333,4,3,1,50,0,0
163326,-166.666666666667,4,3,1,50,0,0
163808,898.876404494381,4,3,1,50,1,0
163808,-83.3333333333333,4,3,1,50,0,0
164706,923.076923076922,4,3,1,50,1,0
164706,-83.3333333333333,4,3,1,50,0,0
165629,912.547528517109,4,3,1,50,1,0
165629,-83.3333333333333,4,3,1,50,0,0
166541,930.232558139533,4,3,1,50,1,0
166541,-83.3333333333333,4,3,1,50,0,0
167471,948.616600790512,4,3,1,50,1,0
167471,-333.333333333333,4,3,1,50,0,0
167945,-500,4,3,1,50,0,0
168419,-83.3333333333333,4,3,1,50,0,0
169368,930.232558139533,4,3,1,50,1,0
169368,-83.3333333333333,4,3,1,50,0,0
171228,912.547528517109,4,3,1,50,1,0
171228,-333.333333333333,4,3,1,50,0,0
171684,-500,4,3,1,50,0,0
172140,-83.3333333333333,4,3,1,50,0,0
173053,937.499999999998,4,3,1,50,1,0
173053,-83.3333333333333,4,3,1,50,0,0
174459,-81.9672131147541,4,3,1,50,0,0
174928,923.076923076922,4,3,1,50,1,0
175851,895.5223880597,4,3,1,50,1,0
176746,916.030534351144,4,3,1,50,1,0
176746,-76.9230769230769,4,3,1,60,0,0
177433,-74.0740740740741,4,3,1,60,0,0
178578,-71.4285714285714,4,3,2,60,0,0
178635,-71.4285714285714,4,3,1,60,0,0
179494,866.425992779783,4,3,1,60,1,0
179494,-68.9655172413793,4,3,1,60,0,0
180144,999.999999999998,4,3,1,60,1,0
180393,916.030534351144,4,3,1,60,1,0
180393,-66.6666666666667,4,3,1,60,0,0
181309,895.5223880597,4,3,1,60,1,0
181309,-66.6666666666667,4,3,1,60,0,0
182204,909.090909090908,4,3,1,60,1,0
182204,-66.6666666666667,4,3,2,60,0,0
182260,-66.6666666666667,4,3,1,60,0,0
183567,-66.6666666666667,4,3,2,60,0,0
183794,-66.6666666666667,4,3,1,60,0,0
184030,919.540229885055,4,3,1,70,1,1
184030,-66.6666666666667,4,3,1,70,0,1
184949,-55.5555555555556,4,3,1,70,0,1
185869,892.193308550184,4,3,1,70,1,1
186315,-66.6666666666667,4,3,1,70,0,1
186761,933.852140077819,4,3,1,70,1,1
187694,895.522388059699,4,3,1,70,1,1
187694,-55.7103064066852,4,3,1,70,0,1
188589,919.540229885055,4,3,1,70,1,1
189048,-66.6666666666667,4,3,1,70,0,1
189508,-66.6666666666667,4,3,2,70,0,1
189566,-66.6666666666667,4,3,1,70,0,1
189968,-66.6666666666667,4,3,2,70,0,1
190026,-66.6666666666667,4,3,1,70,0,1
190428,879.120879120877,4,3,1,70,1,1
191307,905.660377358488,4,3,1,70,1,1
191307,-55.5555555555556,4,3,1,70,0,1
192212,933.852140077819,4,3,1,70,1,1
192212,-55.5555555555556,4,3,1,70,0,1
193145,905.660377358488,4,3,1,70,1,1
193597,-66.6666666666667,4,3,1,70,0,1
194956,930.232558139533,4,3,1,70,1,1
194956,-55.2486187845304,4,3,1,70,0,1
195886,912.547528517108,4,3,1,70,1,1
196798,-66.6666666666667,4,3,2,70,0,1
196855,-66.6666666666667,4,3,1,70,0,1
197254,-66.6666666666667,4,3,2,70,0,1
197312,-66.6666666666667,4,3,1,70,0,1
197711,821.917808219176,4,3,1,70,1,1
198121,999.999999999997,4,3,1,70,1,1
198615,926.640926640924,4,3,1,60,1,0
199541,930.232558139532,4,3,1,60,1,0
200238,1052.63157894736,4,3,1,60,1,0
200501,889.547813194959,4,3,1,60,1,0
200927,926.640926640924,4,3,1,60,1,0
201390,919.540229885054,4,3,1,60,1,0
202310,926.640926640924,4,3,1,60,1,0
203236,933.852140077818,4,3,1,60,1,0
204169,916.030534351142,4,3,1,60,1,0
206001,926.640926640924,4,3,1,60,1,0
209707,959.999999999997,4,3,1,60,1,0
210187,898.876404494379,4,3,1,60,1,0
210637,959.999999999997,4,3,1,60,1,0
211597,892.193308550184,4,3,1,60,1,0
212935,963.855421686745,4,3,1,60,1,0
213415,926.640926640925,4,3,1,60,1,0
214804,971.659919028338,4,3,1,60,1,0
215290,902.255639097742,4,3,1,60,1,0
216192,919.540229885055,4,3,1,60,1,0
217111,933.852140077818,4,3,1,60,1,0
218978,892.193308550183,4,3,1,60,1,0
219870,919.540229885055,4,3,1,60,1,0
220789,909.090909090907,4,3,1,60,1,0
221698,963.855421686744,4,3,1,60,1,0
222179,879.120879120877,4,3,1,60,1,0
222618,941.176470588232,4,3,1,60,1,0
223558,916.030534351143,4,3,1,60,1,0
224474,959.999999999997,4,3,1,60,1,0
224954,845.070422535209,4,3,1,60,1,0
225376,905.660377358488,4,3,1,60,1,0
226281,872.727272727271,4,3,1,60,1,0
227153,892.193308550184,4,3,1,60,1,0
228045,923.076923076921,4,3,1,60,1,0
228045,-66.6666666666667,4,3,1,60,0,0
230814,912.547528517108,4,3,1,60,1,0
231726,926.640926640924,4,3,1,60,1,0
232652,919.540229885055,4,3,1,60,1,0
233571,926.640926640924,4,3,1,60,1,0
234497,879.120879120877,4,3,1,60,1,0
235376,905.660377358488,4,3,1,60,1,0
236281,933.852140077818,4,3,1,60,1,0
237214,919.540229885055,4,3,1,60,1,0
238133,905.660377358488,4,3,1,60,1,0
239038,905.660377358488,4,3,1,60,1,0
239944,888.888888888887,4,3,1,60,1,0
240832,879.120879120877,4,3,1,60,1,0
241711,905.660377358488,4,3,1,60,1,0
242616,930.232558139532,4,3,1,65,1,0
242616,-55.5555555555556,4,3,1,65,0,0
243310,-56.0538116591928,4,3,1,65,0,0
243546,941.176470588233,4,3,1,65,1,0
244251,-57.4712643678161,4,3,1,65,0,0
244487,909.090909090907,4,3,1,65,1,0
245168,-55.5555555555556,4,3,1,65,0,0
246305,926.640926640924,4,3,1,65,1,0
246305,-55.5555555555556,4,3,1,65,0,0
248158,895.522388059699,4,3,1,65,1,0
248158,-55.5555555555556,4,3,1,65,0,0
249949,912.547528517108,4,3,1,65,1,0
249949,-55.5555555555556,4,3,1,65,0,0
251545,-54.6448087431694,4,3,1,65,0,0
251774,892.193308550183,4,3,1,65,1,0
252443,-56.1797752808989,4,3,1,65,0,0
252666,916.030534351142,4,3,1,65,1,0
253582,888.888888888886,4,3,1,65,1,0
253582,-62.5,4,3,1,65,0,0
254470,882.352941176468,4,3,1,65,1,0
254470,-62.5,4,3,1,65,0,0
255352,833.333333333331,4,3,1,65,1,0
255768,869.565217391302,4,3,1,65,1,0
256202,888.888888888886,4,3,1,65,1,0
257090,895.522388059699,4,3,1,65,1,0
257090,-55.5555555555556,4,3,1,65,0,0
258657,-56.4971751412429,4,3,1,65,0,0
258881,916.030534351142,4,3,1,65,1,0
259568,-55.5555555555556,4,3,1,65,0,0
259797,926.640926640924,4,3,1,65,1,0
260723,898.87640449438,4,3,1,65,1,0
260723,-58.8235294117647,4,3,1,65,0,0
261621,916.030534351142,4,3,1,65,1,0
261621,-58.8235294117647,4,3,1,65,0,0
263453,895.522388059699,4,3,1,65,1,0
263453,-58.8235294117647,4,3,1,65,0,0
264348,923.07692307692,4,3,1,65,1,0
264348,-55.5555555555556,4,3,1,65,0,0
265040,-54.7345374931582,4,3,1,65,0,0
265271,902.255639097742,4,3,1,65,1,0
265947,-55.5555555555556,4,3,1,65,0,0
266849,-56.4971751412429,4,3,1,65,0,0
267075,916.030534351142,4,3,1,65,1,0
267991,902.255639097742,4,3,1,65,1,0
267991,-52.6315789473684,4,3,1,65,0,0
268893,919.540229885055,4,3,1,65,1,0
268893,-52.6315789473684,4,3,2,65,0,0
268950,-52.6315789473684,4,3,1,65,0,0
269812,879.120879120877,4,3,1,65,1,0
269812,-52.6315789473684,4,3,2,65,0,0
269866,-52.6315789473684,4,3,1,65,0,0
270691,916.030534351142,4,3,1,65,1,0
271149,-100,4,3,2,65,0,0
271378,-100,4,3,1,65,0,0
271607,892.193308550183,4,3,1,75,1,1
271607,-50,4,3,1,75,0,1
272499,944.881889763777,4,3,1,75,1,1
272499,-50,4,3,1,75,0,1
273444,895.522388059699,4,3,1,75,1,1
273891,-50,4,3,1,75,0,1
274339,930.232558139532,4,3,1,75,1,1
274803,952.38095238095,4,3,1,75,1,1
275279,912.547528517108,4,3,1,75,1,1
275279,-55.5555555555556,4,3,1,75,0,1
277104,892.193308550183,4,3,1,75,1,1
277104,-55.5555555555556,4,3,2,75,0,1
277159,-55.5555555555556,4,3,1,75,0,1
277550,-55.5555555555556,4,3,2,75,0,1
277605,-55.5555555555556,4,3,1,75,0,1
278888,926.640926640924,4,3,1,75,1,1
278888,-50,4,3,1,75,0,1
280741,909.090909090907,4,3,1,75,1,1
281195,-50,4,3,1,75,0,1
281650,926.640926640924,4,3,1,75,1,1
282576,898.87640449438,4,3,1,75,1,1
282576,-55.5555555555556,4,3,1,75,0,1
284373,926.640926640924,4,3,1,75,1,1
284373,-55.5555555555556,4,3,2,75,0,1
284430,-55.5555555555556,4,3,1,75,0,1
284836,-55.5555555555556,4,3,2,75,0,1
284894,-55.5555555555556,4,3,1,75,0,1
285299,842.105263157892,4,3,1,75,1,1
286035,1218.27411167512,4,3,1,75,1,1
286169,882.352941176468,4,3,1,75,1,1
286169,-50,4,3,1,75,0,1
287051,-41.6666666666667,4,3,1,75,0,1
287490,885.608856088558,4,3,1,75,1,1
287932,919.540229885055,4,3,1,75,1,1
287932,-41.6666666666667,4,3,1,75,0,1
289771,933.852140077818,4,3,1,75,1,1
289771,-41.6666666666667,4,3,1,75,0,1
291638,919.540229885055,4,3,1,50,1,0
292557,866.425992779781,4,3,1,50,1,0
293423,952.38095238095,4,3,1,50,1,0
295327,898.87640449438,4,3,1,50,1,0
295327,-500,4,3,1,50,0,0
295776,-500,4,3,1,50,0,0
296225,-100,4,3,1,50,0,0
297124,930.232558139532,4,3,1,50,1,0
298054,926.640926640924,4,3,1,50,1,0
298980,-500,4,3,1,50,0,0
299443,-500,4,3,1,50,0,0
299907,-100,4,3,1,50,0,0
300833,933.852140077819,4,3,1,50,1,0
302700,909.090909090907,4,3,1,50,1,0
302700,-500,4,3,1,50,0,0
303154,-500,4,3,1,50,0,0
303609,923.076923076921,4,3,1,50,1,0
304532,933.852140077819,4,3,1,50,1,0
306399,905.660377358488,4,3,1,50,1,0
306399,-500,4,3,1,50,0,0
306851,-500,4,3,1,50,0,0
307304,952.38095238095,4,3,1,50,1,0
308256,926.640926640925,4,3,1,50,1,0
309182,916.030534351144,4,3,1,50,1,0
310098,923.076923076922,4,3,1,50,1,0
310098,-500,4,3,1,50,0,0
310559,-500,4,3,1,50,0,0
311021,-100,4,3,1,50,0,0
311944,923.076923076922,4,3,1,50,1,0
312867,937.499999999998,4,3,1,50,1,0
313804,-500,4,3,1,50,0,0
314273,902.255639097743,4,3,1,50,1,0
314724,919.540229885056,4,3,1,50,1,0
315643,926.640926640925,4,3,1,50,1,0
317496,916.030534351144,4,3,1,50,1,0
317496,-500,4,3,1,50,0,0
317954,-500,4,3,1,50,0,0
318412,-100,4,3,1,50,0,0
319328,898.87640449438,4,3,1,50,1,0
321125,926.640926640925,4,3,1,50,1,0
322978,919.540229885056,4,3,1,50,1,0
323897,930.232558139533,4,3,1,50,1,0
324827,912.547528517109,4,3,1,50,1,0
324827,-500,4,3,1,50,0,0
325283,-500,4,3,1,50,0,0
325739,923.076923076922,4,3,1,50,1,0
326662,930.232558139533,4,3,1,50,1,0
327592,919.540229885056,4,3,1,50,1,0
328511,-500,4,3,1,50,0,0
328971,-500,4,3,1,50,0,0
329890,948.616600790512,4,3,1,50,1,0
330364,909.090909090908,4,3,1,50,1,0
332182,-500,4,3,1,50,0,0
332636,-500,4,3,1,50,0,0
333091,-100,4,3,1,50,0,0
334000,895.5223880597,4,3,1,50,1,0
334895,905.660377358489,4,3,1,50,1,0
335800,882.352941176469,4,3,1,50,1,0
335800,-500,4,3,1,50,0,0
336241,-500,4,3,1,50,0,0
336682,-100,4,3,1,50,0,0
337123,923.076923076922,4,3,1,50,1,0
337584,930.232558139533,4,3,1,50,1,0
338514,919.540229885056,4,3,1,50,1,0
339433,905.660377358489,4,3,1,50,1,0
339433,-500,4,3,1,50,0,0
339885,-500,4,3,1,50,0,0
340338,-100,4,3,1,50,0,0
341244,-66.6666666666667,4,3,1,50,0,0
342149,933.852140077819,4,3,1,50,1,0
342149,-333.333333333333,4,3,1,50,0,0
342615,863.309352517984,4,3,1,50,1,0
343046,909.090909090907,4,3,1,50,1,0
343046,-200,4,3,1,50,0,0
343955,-335.570469798658,4,3,1,50,0,0
344409,930.232558139533,4,3,1,50,1,0
344874,909.090909090907,4,3,1,50,1,0
344874,-83.3333333333333,4,3,1,50,0,0
346692,888.888888888887,4,3,1,50,1,0
346692,-83.3333333333333,4,3,1,50,0,0
348025,923.076923076921,4,3,1,50,1,0
348486,888.888888888887,4,3,1,50,1,0
348486,-83.3333333333333,4,3,1,50,0,0
350263,-83.3333333333333,4,3,2,50,0,0
350319,-83.3333333333333,4,3,1,50,0,0
351597,916.030534351143,4,3,1,50,1,0
351597,-83.3333333333333,4,3,2,50,0,0
351654,-83.3333333333333,4,3,1,50,0,0
352055,937.499999999998,4,3,1,50,1,0
353930,909.090909090907,4,3,1,50,1,0
353930,-500,4,3,1,50,0,0
354384,-500,4,3,1,50,0,0
354839,-100,4,3,1,50,0,0
355293,875.912408759122,4,3,1,50,1,0
355730,916.030534351143,4,3,1,50,1,0
357562,888.888888888887,4,3,1,50,1,0
359339,912.547528517109,4,3,1,50,1,0
359339,-83.3333333333333,4,3,1,50,0,0
360251,926.640926640925,4,3,1,50,1,0
360251,-83.3333333333333,4,3,1,50,0,0
361177,898.87640449438,4,3,1,50,1,0
361177,-83.3333333333333,4,3,1,50,0,0
362075,909.090909090907,4,3,1,50,1,0
362075,-83.3333333333333,4,3,1,50,0,0
362984,902.255639097743,4,3,1,50,1,0
362984,-83.3333333333333,4,3,1,50,0,0
364788,892.193308550184,4,3,2,50,1,0
364843,-100,4,3,1,50,0,0
365234,-100,4,3,2,50,0,0
365289,-100,4,3,1,50,0,0
366126,933.852140077819,4,3,2,50,1,0
366184,-100,4,3,1,50,0,0
366592,919.540229885056,4,3,1,50,1,0
368431,902.255639097743,4,3,1,50,1,0
368431,-500,4,3,1,50,0,0
368882,-500,4,3,1,50,0,0
369333,-100,4,3,1,50,0,0
370235,888.888888888887,4,3,1,50,1,0
371123,902.255639097743,4,3,1,50,1,0
372025,882.352941176469,4,3,1,50,1,0
372025,-66.6666666666667,4,3,1,50,0,0
373348,909.090909090907,4,3,1,50,1,0
373802,898.87640449438,4,3,1,50,1,0
373802,-66.6666666666667,4,3,1,50,0,0
374700,905.660377358489,4,3,1,50,1,0
375605,885.608856088559,4,3,1,50,1,0
375605,-66.6666666666667,4,3,1,50,0,0
376933,869.565217391303,4,3,1,50,1,0
377367,892.193308550184,4,3,1,50,1,0
377367,-66.6666666666667,4,3,1,50,0,0
379151,866.425992779782,4,3,2,50,1,0
379205,-100,4,3,1,50,0,0
380017,905.660377358489,4,3,1,50,1,0
380922,916.030534351143,4,3,1,50,1,0
380922,-66.6666666666667,4,3,1,50,0,0
384586,905.660377358489,4,3,1,50,1,0
385491,916.030534351143,4,3,1,50,1,0
386407,888.888888888887,4,3,1,50,1,0
387295,905.660377358489,4,3,1,50,1,0
388200,892.193308550184,4,3,1,50,1,0
388200,-66.6666666666667,4,3,1,50,0,0
388869,-68.1663258350375,4,3,1,50,0,0
389092,926.640926640925,4,3,1,50,1,0
389786,-65.0618087182824,4,3,1,50,0,0
390018,892.193308550184,4,3,1,50,1,0
390687,-66.6666666666667,4,3,1,50,0,0
391802,905.660377358489,4,3,1,50,1,0
392707,879.120879120877,4,3,1,50,1,0
394465,902.255639097743,4,3,1,50,1,0
395367,930.232558139533,4,3,1,50,1,0
395367,-66.6666666666667,4,3,1,50,0,0
396064,-65.359477124183,4,3,1,50,0,0
396297,905.660377358489,4,3,1,50,1,0
396976,-66.6666666666667,4,3,1,50,0,0
399013,892.193308550184,4,3,1,50,1,0
399013,-83.3333333333333,4,3,1,50,0,0
400797,-66.6666666666667,4,3,1,50,0,0
402135,-66.6666666666667,4,3,2,50,0,0
402358,-66.6666666666667,4,3,1,50,0,0
402581,905.660377358489,4,3,1,50,1,0
402581,-50,4,3,1,50,0,0
403260,-49.5785820525533,4,3,1,50,0,0
403486,898.87640449438,4,3,1,50,1,0
404384,879.120879120877,4,3,1,50,1,0
404384,-50,4,3,1,50,0,0
406142,909.090909090907,4,3,1,50,1,0
406142,-50,4,3,1,50,0,0
406823,-48.5436893203883,4,3,1,50,0,0
407051,869.565217391303,4,3,1,50,1,0
408355,-66.6666666666667,4,3,1,50,0,0
408790,909.090909090907,4,3,1,50,1,0
409702,905.660377358488,4,3,1,50,1,0
412418,916.030534351143,4,3,1,50,1,0
413334,888.888888888887,4,3,1,50,1,0
414222,912.547528517108,4,3,1,50,1,0
416047,905.660377358488,4,3,1,50,1,0
416952,912.547528517108,4,3,1,50,1,0
418777,905.660377358488,4,3,1,50,1,0
420588,898.87640449438,4,3,1,50,1,0
422385,885.608856088559,4,3,1,50,1,0
423270,902.255639097742,4,3,1,50,1,0
424172,898.87640449438,4,3,1,50,1,0
427767,909.090909090907,4,3,1,50,1,0
429585,892.193308550184,4,3,1,50,1,0
431369,902.255639097742,4,3,1,50,1,0
434978,892.193308550184,4,3,1,50,1,0
436762,902.255639097742,4,3,1,50,1,0
438566,895.522388059699,4,3,1,50,1,0

[Colours]
Combo1 : 198,188,121
Combo2 : 137,143,58
Combo3 : 117,112,89
Combo4 : 168,167,133
SliderTrackOverride : 100,90,63
SliderBorder : 202,171,129

[HitObjects]
256,384,162,6,0,L|256:368,3,14
256,384,4049,2,0,L|256:368,3,14
256,384,7983,2,0,L|256:368,3,14
256,384,11869,2,0,L|256:368,3,14
256,384,15835,6,0,P|264:376|265:368,1,15.7499995193482,2|0,0:0|0:0,0:0:0:0:
264,341,16835,1,2,0:0:0:0:
296,331,17347,1,2,0:0:0:0:
301,306,17860,2,0,B|299:295|309:303|310:297,1,15.7499995193482,2|0,0:0|0:0,0:0:0:0:
319,280,18864,1,2,0:0:0:0:
342,277,19292,1,2,0:0:0:0:
356,256,19850,2,0,B|360:245|366:243|375:248|400:243|400:228|408:223,1,62.9999980773926,2|0,0:0|0:0,0:0:0:0:
256,384,23193,1,2,0:0:0:0:
256,384,23684,6,0,P|251:374|246:373,1,15.7499995193482,2|0,0:0|0:0,0:0:0:0:
232,374,24655,2,0,P|222:368|223:361,1,15.7499995193482,2|0,0:0|0:0,0:0:0:0:
221,342,25627,1,2,0:0:0:0:
200,331,26137,1,2,0:0:0:0:
196,317,26648,1,2,0:0:0:0:
183,311,27158,1,2,0:0:0:0:
179,303,27414,1,2,0:0:0:0:
169,300,27669,2,0,B|160:289|165:278|168:259|142:246,1,62.9999980773926,2|0,0:0|0:0,0:0:0:0:
256,384,31122,1,2,0:0:0:0:
263,381,31588,6,0,B|271:382|277:367|269:365,1,17.5,2|2,0:0|0:0,0:0:0:0:
269,351,32570,2,0,B|264:345|266:336|271:334,1,15.7499995193482,2|0,0:0|0:0,0:0:0:0:
285,322,33554,1,2,0:0:0:0:
277,302,34046,1,2,0:0:0:0:
284,289,34537,1,2,0:0:0:0:
281,267,35056,1,2,0:0:0:0:
285,263,35337,1,2,0:0:0:0:
285,255,35574,2,0,B|282:243|283:235|299:237|306:237|316:230|321:220|318:209,1,62.9999980773926,2|0,0:0|0:0,0:0:0:0:
256,384,39444,6,0,P|258:376|253:367,1,15.7499995193482,2|0,0:0|0:0,0:0:0:0:
241,364,40411,2,0,B|232:359|232:349,1,15.7499995193482,2|0,0:0|0:0,0:0:0:0:
246,325,41398,1,2,0:0:0:0:
235,308,41892,1,2,0:0:0:0:
239,292,42386,2,0,P|244:288|244:285,1,5.24999983978272,2|2,0:0|0:0,0:0:0:0:
238,268,43151,1,2,0:0:0:0:
230,262,43386,2,0,B|215:252|220:238|222:221|207:204,1,62.9999980773926,2|0,0:0|0:0,0:0:0:0:
256,384,47308,6,0,B|258:372|251:367|256:360,1,21,6|0,0:0|0:0,0:0:0:0:
265,337,48271,1,2,0:0:0:0:
256,323,48758,1,2,0:0:0:0:
268,297,49246,1,2,0:0:0:0:
254,283,49731,2,0,B|241:273|246:262|272:247|249:220,1,70,2|0,0:0|0:0,0:0:0:0:
261,207,52882,5,2,0:0:0:0:
251,189,53170,2,0,B|247:182|256:179|251:171,1,14,2|2,0:0|0:0,0:0:0:0:
269,162,54146,1,2,0:0:0:0:
260,145,54634,1,2,0:0:0:0:
261,137,54877,1,0,0:0:0:0:
253,126,55121,6,0,P|224:156|260:126,1,196,2|0,0:0|0:0,0:0:0:0:
257,157,63066,6,0,B|262:168|270:172|276:171,1,21,6|0,0:0|0:0,0:0:0:0:
298,171,64049,1,2,0:0:0:0:
316,180,64541,1,2,0:0:0:0:
335,161,65033,1,2,0:0:0:0:
338,137,65537,2,0,B|328:126|342:113|345:86|312:77,1,70,2|0,0:0|0:0,0:0:0:0:
256,153,68611,5,2,0:0:0:0:
246,167,68929,2,0,B|239:176|229:170,1,14,2|2,0:0|0:0,0:0:0:0:
211,168,69916,1,2,0:0:0:0:
188,147,70410,1,2,0:0:0:0:
186,137,70657,1,0,0:0:0:0:
172,135,70904,2,0,B|158:123|166:92|208:101|216:77,1,84,2|0,0:0|0:0,0:0:0:0:
255,154,74369,5,2,0:0:0:0:
266,164,74871,2,0,B|272:173|279:169|283:159|292:150|299:155,1,35,2|0,0:0|0:0,0:0:0:0:
309,154,76333,2,0,B|324:158|331:144|324:129|334:131,1,35,2|0,0:0|0:0,0:0:0:0:
346,126,77817,1,2,0:0:0:0:
348,109,78306,6,0,B|369:98|371:81|359:64|361:50|391:43|396:57|406:44,1,98,2|0,0:0|0:0,0:0:0:0:
256,155,82241,1,2,0:0:0:0:
248,164,82740,6,0,B|234:172|217:158,1,28,2|0,0:0|0:0,0:0:0:0:
223,148,84203,2,0,B|220:142|216:138|210:142|197:135,1,28,2|0,0:0|0:0,0:0:0:0:
187,125,85666,1,2,0:0:0:0:
186,100,86163,2,0,P|188:87|180:83,1,17.5,2|0,0:0|0:0,0:0:0:0:
99,44,86661,6,0,B|96:52|96:52|110:47|124:45,1,35,4|0,0:3|0:0,0:0:0:0:
167,7,87414,1,0,0:0:0:0:
171,6,87665,6,0,B|185:17|208:17,1,35,8|0,0:1|0:0,0:0:0:0:
255,68,88409,1,0,0:0:0:0:
261,68,88652,6,0,B|265:61|265:61|262:54,1,14,2|0,0:0|0:0,1:0:0:0:
306,8,89352,1,0,0:0:0:0:
308,13,89585,6,0,B|316:25|331:18|340:30,1,35,8|0,0:1|0:0,0:0:0:0:
411,92,90307,1,0,0:0:0:0:
415,97,90548,6,0,B|417:104|417:104|396:102|384:111,1,35,2|0,0:0|0:0,0:0:0:0:
334,147,91265,1,0,0:0:0:0:
329,151,91504,6,0,B|302:145|307:132|280:144,1,35,8|0,0:1|0:0,0:0:0:0:
251,83,92224,1,0,0:0:0:0:
245,84,92499,6,0,B|241:87|235:98|245:98,1,14,2|0,0:0|0:0,1:0:0:0:
201,150,93188,1,0,0:0:0:0:
196,148,93416,6,0,B|190:150|181:146|170:127|141:132,1,35,8|0,0:1|0:0,0:0:0:0:
69,192,94138,1,0,0:0:0:0:
63,197,94379,6,0,B|57:204|74:214|88:193|99:211,1,35,2|0,0:0|0:0,0:0:0:0:
149,251,95116,1,0,0:0:0:0:
157,256,95362,6,0,B|176:256|174:247|195:246,1,35,8|0,0:1|0:0,0:0:0:0:
240,188,96076,1,0,0:0:0:0:
247,190,96314,6,0,B|252:196|252:196|252:206,1,14,2|0,0:0|0:0,1:0:0:0:
294,258,97019,1,0,0:0:0:0:
298,261,97255,6,0,B|316:262|324:246|342:245,1,35,8|0,0:1|0:0,0:0:0:0:
420,274,97961,1,0,0:0:0:0:
424,278,98196,6,0,B|425:285|425:285|414:293|400:280|383:296,1,35,2|0,0:0|0:0,0:0:0:0:
339,329,98916,1,0,0:0:0:0:
332,336,99156,6,0,B|316:335|304:318|284:321,1,35,8|0,0:1|0:0,0:0:0:0:
235,276,99822,1,0,0:0:0:0:
231,279,100116,6,0,B|228:289|228:289|229:296,1,14,2|0,0:0|0:0,1:0:0:0:
177,340,100821,1,0,0:0:0:0:
171,345,101057,6,0,B|159:342|158:328|137:324,1,35,8|0,0:1|0:0,0:0:0:0:
133,329,101527,1,2,0:0:0:0:
89,251,101763,1,0,0:0:0:0:
41,366,101998,6,0,B|56:377|63:346|100:383,1,35,4|0,0:0|0:0,0:0:0:0:
138,323,102718,1,0,0:0:0:0:
139,317,102958,6,0,B|161:305|161:328|193:323,1,35,8|0,0:1|0:0,0:0:0:0:
240,365,103683,1,0,0:0:0:0:
247,363,103925,6,0,B|250:354|252:347,1,14,2|0,0:0|0:0,1:0:0:0:
316,310,104630,1,0,0:0:0:0:
322,306,104866,6,0,B|339:308|336:320|354:325,1,35,8|0,0:1|0:0,0:0:0:0:
436,276,105572,1,0,0:0:0:0:
439,271,105807,6,0,B|425:255|404:270|385:254,1,35,2|0,0:0|0:0,0:0:0:0:
348,221,106518,1,0,0:0:0:0:
341,215,106755,6,0,B|325:211|326:230|297:220,1,35,8|0,0:1|0:0,0:0:0:0:
236,190,107467,1,0,0:0:0:0:
232,193,107704,6,0,B|229:203|229:203|230:210,1,14,2|0,0:0|0:0,1:0:0:0:
175,258,108393,1,0,0:0:0:0:
170,262,108623,6,0,B|154:266|151:255|126:257,1,35,8|0,0:1|0:0,0:0:0:0:
72,190,109340,1,0,0:0:0:0:
67,190,109579,6,0,B|60:184|60:184|75:182|89:178,1,35,2|0,0:0|0:0,0:0:0:0:
143,129,110304,1,0,0:0:0:0:
147,129,110546,6,0,B|161:131|166:142|183:137,1,35,8|0,0:1|0:0,0:0:0:0:
236,198,111251,1,0,0:0:0:0:
243,196,111487,6,0,B|250:192|250:192|256:182,1,14,2|0,0:0|0:0,1:0:0:0:
302,130,112193,1,0,0:0:0:0:
306,126,112428,6,0,P|319:132|342:129,1,35,8|0,0:1|0:0,0:0:0:0:
407,81,113134,1,0,0:0:0:0:
407,77,113369,6,0,B|408:73|412:71|412:71|387:71|362:60,1,35,2|0,0:0|0:0,0:0:0:0:
323,23,114077,1,0,0:0:0:0:
318,18,114313,6,0,P|297:28|286:29,1,35,8|0,0:1|0:0,0:0:0:0:
243,93,115022,1,0,0:0:0:0:
236,95,115258,6,0,B|229:99|229:99|223:109,1,14,2|0,0:0|0:0,1:0:0:0:
170,61,115952,1,0,0:0:0:0:
167,57,116184,5,8,0:1:0:0:
113,82,116532,5,8,0:1:0:0:
113,82,116647,1,8,0:1:0:0:
41,44,116879,1,0,0:0:0:0:
24,166,117111,6,0,B|34:212|112:200|93:239|111:255,1,125.999996154785,4|0,0:0|0:0,0:0:0:0:
51,268,118059,2,0,B|52:277|37:283|27:251|92:208|87:162,1,125.999996154785,8|0,0:1|0:0,0:0:0:0:
135,120,119008,6,0,B|160:140|139:173|168:194,2,70,2|0|8,0:0|0:0|0:1,0:0:0:0:
207,232,120414,2,0,B|214:224|204:212|218:198,1,35
247,148,120883,6,0,B|261:147|273:156|262:166|301:165,1,41.9999987182618,2|0,0:0|0:0,0:0:0:0:
308,222,121575,1,0,0:0:0:0:
314,222,121806,6,0,B|336:227|334:206|364:213,1,41.9999987182618,8|0,0:1|0:0,0:0:0:0:
396,160,122517,1,0,0:0:0:0:
401,156,122754,6,0,B|406:170|411:173,1,20.9999993591309,2|0,0:0|0:0,1:0:0:0:
432,238,123451,1,0,0:0:0:0:
435,241,123684,6,0,B|460:246|454:226|492:243,1,41.9999987182618,8|0,0:1|0:0,0:0:0:0:
484,231,124154,1,0,0:0:0:0:
506,353,124625,6,0,B|515:360|497:374|470:366|451:337|434:308|412:293|388:333,1,125.999996154785,2|0,0:0|0:0,0:0:0:0:
436,382,125551,2,0,B|473:314|440:351|503:247,1,125.999996154785,8|0,0:1|0:0,0:0:0:0:
469,167,126492,6,0,B|458:168|450:185|451:197|463:215|433:243,2,83.9999974365235,2|0|8,0:0|0:0|0:1,0:0:0:0:
356,262,127898,2,0,B|361:246|374:241|383:212,1,41.9999987182618
350,150,128363,6,0,B|329:143|327:166|301:156,1,41.9999987182618,2|0,0:0|0:0,0:0:0:0:
262,208,129066,1,0,0:0:0:0:
257,211,129300,6,0,B|233:216|238:195|194:193,1,41.9999987182618,8|0,0:1|0:0,0:0:0:0:
151,148,130003,1,0,0:0:0:0:
148,151,130238,6,0,B|146:160|146:160|149:167,1,14,2|0,0:0|0:0,1:0:0:0:
105,233,130927,1,0,0:0:0:0:
100,239,131157,5,8,0:1:0:0:
72,173,131387,1,8,0:1:0:0:
45,105,131617,2,0,B|36:80|42:86|23:47,1,52.5000020027161,2|0,0:0|0:0,0:0:0:0:
73,2,132077,6,0,B|103:36|103:68|98:88|120:125,1,125.999996154785,4|0,0:0|0:0,0:0:0:0:
176,144,133029,2,0,B|179:151|181:148|184:131|166:79|163:42|168:16,1,125.999996154785,8|0,0:1|0:0,0:0:0:0:
233,3,133981,6,0,B|242:19|235:37|222:58|232:81|249:88,2,83.9999974365235,2|0|8,0:0|0:0|0:1,0:0:0:0:
300,121,135381,2,0,B|295:126|290:126|287:109|309:100|305:76,1,41.9999987182618
353,26,135848,6,0,B|361:36|354:61|374:84,1,41.9999987182618,2|0,0:0|0:0,0:0:0:0:
418,111,136568,1,0,0:0:0:0:
425,115,136808,6,0,B|439:127|423:147|444:158,1,41.9999987182618,8|0,0:1|0:0,0:0:0:0:
401,218,137505,1,0,0:0:0:0:
400,225,137738,6,0,P|398:232|403:243,1,14,2|0,0:0|0:0,1:0:0:0:
461,287,138435,1,0,0:0:0:0:
465,289,138668,6,0,B|477:309|454:312|469:352,1,41.9999987182618,8|0,0:1|0:0,0:0:0:0:
467,339,139126,1,0,0:0:0:0:
306,352,139584,6,0,B|305:364|313:365|331:350|339:319|340:294|359:283|373:278|391:285,1,125.999996154785,2|0,0:0|0:0,0:0:0:0:
302,214,140547,2,0,B|276:232|279:253|291:305|243:349,1,125.999996154785,8|0,0:1|0:0,0:0:0:0:
200,343,141499,6,0,B|186:316|205:288|217:273|201:249,2,83.9999974365235,2|0|8,0:0|0:0|0:1,0:0:0:0:
206,348,142666,1,0,0:0:0:0:
82,375,143140,1,0,0:0:0:0:
75,373,143377,6,0,B|63:353|79:338|68:311,1,41.9999987182618,2|0,0:0|0:0,0:0:0:0:
130,266,144066,1,0,0:0:0:0:
133,258,144296,6,0,B|135:230|125:239|123:214,1,41.9999987182618,8|0,0:1|0:0,0:0:0:0:
55,170,144986,1,0,0:0:0:0:
52,164,145216,6,0,B|52:157|52:157|57:150,1,14,2|0,0:0|0:0,1:0:0:0:
112,101,145900,1,0,0:0:0:0:
115,94,146128,5,8,0:1:0:0:
75,43,146470,5,8,0:1:0:0:
75,43,146584,1,8,0:1:0:0:
108,0,146812,1,0,0:0:0:0:
180,132,147041,6,0,B|183:176|132:183|146:248,1,125.999996154785,4|0,0:0|0:0,0:0:0:0:
201,298,147974,6,0,B|226:291|227:272|218:256,1,41.9999987182618,8|0,0:1|0:0,0:0:0:0:
222,249,148450,2,0,P|223:239|235:231,1,20.9999993591309
243,356,148926,6,0,B|271:362|295:318|330:331,1,83.9999974365235,2|0,0:0|0:0,0:0:0:0:
378,376,149620,1,0,0:0:0:0:
384,379,149852,6,0,B|402:373|408:357|419:351|429:368,1,41.9999987182618,8|0,0:1|0:0,0:0:0:0:
484,281,150547,1,0,0:0:0:0:
487,284,150779,6,0,B|490:290|491:293|491:293|471:285|458:283|454:285,1,41.9999987182618,2|0,0:0|0:0,0:0:0:0:
403,227,151463,1,0,0:0:0:0:
399,221,151691,6,0,B|371:219|379:236|346:232,1,41.9999987182618,8|0,0:1|0:0,0:0:0:0:
300,285,152396,1,0,0:0:0:0:
295,284,152632,6,0,B|288:281|285:279|279:270,1,20.9999993591309,2|0,0:0|0:0,1:0:0:0:
221,213,153338,1,0,0:0:0:0:
215,208,153573,6,0,B|195:203|187:237|139:238|139:211,1,83.9999974365235,8|2,0:1|0:0,0:0:0:0:
135,209,154262,1,0,0:0:0:0:
167,142,154492,6,0,B|206:229|159:234|204:316,1,167.999994873047,4|8,0:0|0:1,0:0:0:0:
204,308,155674,1,0,0:0:0:0:
249,245,155908,6,0,B|244:257|251:273|265:274|258:293,1,41.9999987182618
196,364,156411,6,0,B|185:366|184:363|174:359,1,20.9999993591309,2|0,0:0|0:0,1:0:0:0:
111,314,157100,1,0,0:0:0:0:
106,309,157330,6,0,B|92:307|83:311|76:326|57:311,1,41.9999987182618,8|0,0:1|0:0,0:0:0:0:
0,256,158020,1,0,0:0:0:0:
0,250,158250,6,0,B|12:234|25:245|41:242|48:230,1,41.9999987182618,2|0,0:0|0:0,0:0:0:0:
82,178,158929,1,0,0:0:0:0:
87,170,159155,6,0,B|108:167|116:164|129:159,1,35,8|0,0:1|0:0,0:0:0:0:
188,200,159852,1,0,0:0:0:0:
193,202,160085,6,0,B|206:201|209:192|217:194,1,20.9999993591309,2|0,0:0|0:0,1:0:0:0:
266,135,160772,1,0,0:0:0:0:
274,137,161001,5,8,0:1:0:0:
320,81,161334,5,8,0:1:0:0:
320,81,161445,1,8,0:1:0:0:
367,88,161667,1,0,0:0:0:0:
426,40,161889,6,0,B|424:37|422:39|413:51|406:103|458:106|429:162,1,125.999996154785,4|0,0:0|0:0,0:0:0:0:
372,198,162845,6,0,B|351:181|358:163|372:152,1,41.9999987182618,8|0,0:1|0:0,0:0:0:0:
375,146,163326,2,0,B|379:140|383:135|374:123,1,20.9999993591309
423,248,163808,6,0,B|401:276|357:245|341:266|342:279,1,83.9999974365235,2|0,0:0|0:0,0:0:0:0:
322,333,164482,1,0,0:0:0:0:
320,340,164706,6,0,B|303:352|290:337|275:350,1,41.9999987182618,8|0,0:1|0:0,0:0:0:0:
199,315,165398,1,0,0:0:0:0:
195,316,165629,6,0,B|187:309|187:309|201:304|218:293,1,41.9999987182618,2|0,0:0|0:0,0:0:0:0:
246,238,166313,1,0,0:0:0:0:
248,232,166541,6,0,B|270:226|270:239|291:230,1,41.9999987182618,8|0,0:1|0:0,0:0:0:0:
328,178,167238,1,0,0:0:0:0:
332,173,167471,6,0,B|346:173|352:182,1,20.9999993591309,2|0,0:0|0:0,1:0:0:0:
414,235,168182,1,0,0:0:0:0:
420,241,168419,2,0,B|446:248|484:224|467:184|440:201,1,83.9999974365235,8|2,0:1|0:0,0:0:0:0:
445,200,169131,1,0,0:0:0:0:
508,250,169368,6,0,B|390:260|466:299|345:313,1,167.999994873047,4|8,0:0|0:1,0:0:0:0:
351,308,170530,1,0,0:0:0:0:
363,242,170763,6,0,B|339:251|346:234|321:244,1,41.9999987182618
272,322,171228,6,0,B|267:329|255:326|252:316,1,20.9999993591309,2|0,0:0|0:0,1:0:0:0:
179,332,171912,1,0,0:0:0:0:
175,330,172140,6,0,B|170:325|158:322|131:330,1,41.9999987182618,8|0,0:1|0:0,0:0:0:0:
43,291,172824,1,0,0:0:0:0:
39,287,173053,6,0,B|40:247|65:241|156:192|107:99,1,209.999993591309,2|0,0:0|0:0,0:0:0:0:
56,141,174459,6,0,B|29:172|70:226|109:192|128:202|154:242|158:294|103:305|101:288|102:268|116:265,1,211.74999402256,2|0,0:0|0:0,0:0:0:0:
116,265,175851,1,8,0:1:0:0:
208,282,176298,5,2,0:0:0:0:
210,287,176522,1,0,0:0:0:0:
190,340,176746,6,0,B|183:347|182:358|192:374|180:390,1,45.4999979171754,4|0,0:0|0:0,0:0:0:0:
247,329,177433,1,0,0:0:0:0:
247,329,177662,6,0,B|255:348|237:358|246:388,1,47.2500001802444,8|0,0:1|0:0,0:0:0:0:
305,305,178349,1,0,0:0:0:0:
308,311,178578,6,0,B|312:337|302:347|310:376,1,48.9999985046387,2|0,0:0|0:0,0:0:0:0:
362,285,179265,1,0,0:0:0:0:
366,292,179494,6,0,B|371:314|363:325|372:357,1,50.7500015487671,8|0,0:1|0:0,0:0:0:0:
252,247,180144,1,0,0:0:0:0:
249,252,180393,6,0,B|240:265|231:274|244:300,1,52.5000020027161,4|0,0:0|0:0,0:0:0:0:
221,206,181080,1,0,0:0:0:0:
215,207,181309,6,0,B|189:221|187:238|192:250,1,52.5000020027161,8|0,0:1|0:0,0:0:0:0:
132,250,181980,1,0,0:0:0:0:
131,255,182204,6,0,B|128:284|141:295|153:302,1,52.5,2|0,0:0|0:0,0:0:0:0:
76,217,182885,1,0,0:0:0:0:
43,349,183113,5,8,0:1:0:0:
59,373,183340,1,8,0:1:0:0:
111,328,183567,1,2,0:0:0:0:
111,317,183794,1,0,0:0:0:0:
87,243,184030,6,0,B|62:215|47:254|95:308|122:255|178:251|181:330,1,157.500006008148,4|0,0:0|0:0,0:0:0:0:
133,339,184949,6,0,B|131:353|93:344|96:319|205:187|91:154,1,188.999994232178,8|0,0:1|0:0,0:0:0:0:
177,54,185869,5,2,0:3:0:0:
210,113,186092,1,2,0:3:0:0:
181,52,186315,6,0,B|206:40|214:68|244:50,1,52.5000020027161
362,22,186761,5,8,0:1:0:0:
336,121,186994,1,8,0:1:0:0:
345,210,187227,1,2,0:0:0:0:
366,266,187461,1,0,0:0:0:0:
330,310,187694,6,0,B|338:328|371:309|355:275|319:262|280:271|227:287|173:276|146:208|146:165|191:132,1,315.000012016297,4|0,0:0|2:0,0:0:0:0:
228,197,189048,6,0,B|228:212|221:228|195:241,1,52.5000020027161
123,327,189508,6,0,B|125:305|107:291|116:271,1,52.5000020027161,2|0,0:0|0:0,0:0:0:0:
75,225,189968,2,0,B|73:203|91:189|82:169,1,52.5000020027161,2|0,0:0|0:0,0:0:0:0:
115,117,190428,1,8,0:1:0:0:
90,57,190757,5,8,0:1:0:0:
90,57,190867,1,8,0:1:0:0:
113,7,191087,1,0,0:0:0:0:
194,92,191307,6,0,B|192:104|181:100|174:93|177:79|203:55|229:76|233:110|226:152|242:193|296:173|317:149|275:141,1,188.999994232178,4|0,0:0|0:0,0:0:0:0:
301,74,192212,6,0,B|203:136|274:106|141:187,1,188.999994232178,8|0,0:1|0:0,0:0:0:0:
66,308,193145,5,2,0:0:0:0:
127,273,193371,1,2,0:0:0:0:
59,306,193597,6,0,B|54:288|61:284|50:242,1,52.5000020027161
116,132,194050,5,8,0:1:0:0:
192,192,194277,1,8,0:1:0:0:
276,216,194503,1,2,0:0:0:0:
337,210,194729,1,0,0:0:0:0:
361,274,194956,6,0,B|378:305|353:316|313:289|316:245|378:234|412:208|403:172|371:139|307:239|265:149|264:119|284:42|326:40|429:101|340:149|375:167,1,377.999988464356,4|0,0:0|0:0,0:0:0:0:
374,168,196570,1,0,0:0:0:0:
438,74,196798,6,0,B|446:73|449:77|450:93|430:112|445:145,1,52.5000020027161,2|0,0:0|0:0,0:0:0:0:
484,173,197254,2,0,B|491:206|470:197|482:244,1,52.5000020027161,2|0,0:0|0:0,0:0:0:0:
458,285,197711,1,8,0:1:0:0:
480,333,198019,5,8,0:1:0:0:
480,333,198121,1,8,0:1:0:0:
425,384,198371,5,0,0:0:0:0:
425,384,198496,1,0,0:0:0:0:
425,384,198615,5,4,3:0:0:0:
431,363,198846,1,0,2:0:0:0:
413,329,199078,1,0,2:0:0:0:
432,294,199309,1,0,2:0:0:0:
490,374,199541,5,8,3:1:0:0:
494,356,199773,1,0,2:0:0:0:
474,333,200006,1,0,2:0:0:0:
488,302,200238,1,0,3:0:0:0:
379,377,200501,5,2,2:3:0:0:
365,362,200723,1,0,2:0:0:0:
375,334,200927,1,0,3:0:0:0:
357,307,201158,1,0,2:0:0:0:
428,382,201390,5,8,2:1:0:0:
434,361,201619,1,0,3:0:0:0:
422,338,201849,1,0,2:0:0:0:
434,305,202079,1,0,2:0:0:0:
314,376,202310,5,2,2:3:0:0:
304,359,202541,1,0,2:0:0:0:
314,329,202773,1,0,2:0:0:0:
291,303,203004,1,0,2:0:0:0:
375,382,203236,5,8,3:1:0:0:
383,366,203469,1,0,2:0:0:0:
371,338,203702,1,0,2:0:0:0:
389,306,203936,1,0,3:0:0:0:
259,382,204169,5,2,2:3:0:0:
266,367,204398,1,0,2:0:0:0:
246,344,204627,1,0,3:0:0:0:
257,315,204856,1,0,2:0:0:0:
323,377,205085,5,8,2:1:0:0:
334,359,205314,1,0,3:0:0:0:
320,336,205543,1,0,2:0:0:0:
335,306,205772,1,0,2:0:0:0:
200,380,206001,5,2,2:3:0:0:
211,365,206232,1,0,2:0:0:0:
189,333,206464,1,0,2:0:0:0:
205,300,206695,1,0,2:0:0:0:
272,378,206927,5,8,2:1:0:0:
261,357,207159,1,0,2:0:0:0:
282,328,207390,1,0,2:0:0:0:
266,296,207622,1,0,3:0:0:0:
139,377,207854,5,2,2:3:0:0:
149,358,208085,1,0,2:0:0:0:
132,335,208317,1,0,3:0:0:0:
151,301,208549,1,0,2:0:0:0:
217,383,208780,5,8,2:1:0:0:
225,369,209012,1,0,3:0:0:0:
205,342,209244,1,0,2:0:0:0:
218,306,209475,1,0,2:0:0:0:
94,379,209707,5,2,2:3:0:0:
84,360,209947,1,0,2:0:0:0:
100,337,210187,1,0,2:0:0:0:
83,303,210411,1,0,2:0:0:0:
158,383,210637,5,8,2:1:0:0:
151,362,210877,1,0,2:0:0:0:
171,338,211117,1,0,2:0:0:0:
150,304,211357,1,0,3:0:0:0:
34,380,211597,5,2,2:3:0:0:
48,363,211820,1,0,2:0:0:0:
30,335,212043,1,0,3:0:0:0:
46,299,212266,1,0,2:0:0:0:
107,379,212489,5,8,2:1:0:0:
96,361,212712,1,8,2:1:0:0:
117,331,212935,1,2,2:3:0:0:
97,296,213175,1,0,2:0:0:0:
90,212,213415,5,4,2:3:0:0:
179,294,213646,1,0,2:0:0:0:
166,271,213878,1,0,2:0:0:0:
180,248,214109,1,0,2:0:0:0:
161,204,214341,5,8,2:1:0:0:
105,300,214573,1,0,2:0:0:0:
94,277,214804,1,0,2:0:0:0:
114,253,215046,1,0,3:0:0:0:
91,211,215290,5,2,2:3:0:0:
240,291,215515,1,0,2:0:0:0:
248,269,215741,1,0,3:0:0:0:
228,241,215966,1,0,2:0:0:0:
248,200,216192,5,8,2:1:0:0:
174,298,216421,1,0,3:0:0:0:
181,279,216651,1,0,2:0:0:0:
158,247,216881,1,0,2:0:0:0:
177,203,217111,5,2,2:3:0:0:
319,298,217344,1,0,2:0:0:0:
310,275,217577,1,0,2:0:0:0:
329,246,217811,1,0,2:0:0:0:
306,205,218044,5,8,2:1:0:0:
246,301,218278,1,0,2:0:0:0:
232,281,218511,1,0,2:0:0:0:
253,249,218745,1,0,3:0:0:0:
232,208,218978,5,2,2:3:0:0:
398,299,219201,1,0,2:0:0:0:
410,278,219424,1,0,3:0:0:0:
390,248,219647,1,0,2:0:0:0:
409,204,219870,5,8,2:1:0:0:
325,302,220099,1,0,3:0:0:0:
311,282,220329,1,0,2:0:0:0:
327,245,220559,1,0,2:0:0:0:
426,117,220789,5,4,2:3:0:0:
405,75,221016,1,0,2:0:0:0:
331,170,221243,1,0,2:0:0:0:
343,146,221470,1,0,2:0:0:0:
320,103,221698,5,8,2:1:0:0:
339,59,221938,1,0,2:0:0:0:
411,170,222179,1,0,2:0:0:0:
427,147,222398,1,0,3:0:0:0:
407,104,222618,5,2,2:3:0:0:
431,62,222853,1,0,2:0:0:0:
257,174,223088,1,0,3:0:0:0:
243,147,223323,1,0,2:0:0:0:
265,105,223558,5,8,2:1:0:0:
242,62,223787,1,0,3:0:0:0:
333,172,224016,1,0,2:0:0:0:
344,144,224245,1,0,2:0:0:0:
323,101,224474,5,2,2:3:0:0:
343,56,224714,1,0,2:0:0:0:
179,168,224954,1,0,2:0:0:0:
193,141,225165,1,0,3:0:0:0:
169,100,225376,5,8,2:1:0:0:
186,55,225602,1,0,2:0:0:0:
260,168,225828,1,0,2:0:0:0:
270,142,226055,1,0,3:0:0:0:
247,101,226281,5,2,3:3:0:0:
273,56,226499,1,8,2:1:0:0:
273,56,226608,1,8,2:1:0:0:
273,56,226717,1,8,2:1:0:0:
112,166,226935,1,0,3:0:0:0:
91,121,227153,5,2,3:3:0:0:
125,85,227376,1,8,2:1:0:0:
125,85,227487,1,8,2:1:0:0:
125,85,227599,1,8,2:1:0:0:
88,35,227822,1,0,3:3:0:0:
208,0,228045,6,0,B|236:-5|264:13|209:38|236:97|260:116|319:113|291:-3|362:7|356:58|328:46,1,210.000008010865,4|8,2:3|2:1,2:0:0:0:
290,1,229198,1,0,2:0:0:0:
440,151,229429,5,0,2:0:0:0:
432,159,229660,1,0,3:0:0:0:
397,165,229891,1,2,2:3:0:0:
352,137,230121,1,0,2:0:0:0:
353,42,230352,5,0,3:0:0:0:
363,49,230583,1,0,2:0:0:0:
373,78,230814,1,8,2:1:0:0:
357,130,231042,1,0,3:0:0:0:
268,156,231270,5,0,2:0:0:0:
274,145,231498,1,0,2:0:0:0:
301,132,231726,1,2,2:3:0:0:
353,133,231957,1,0,2:0:0:0:
395,219,232189,5,0,2:0:0:0:
381,213,232420,1,0,2:0:0:0:
359,191,232652,1,8,2:1:0:0:
352,137,232881,1,0,2:0:0:0:
427,81,233111,5,0,2:0:0:0:
424,95,233341,1,0,3:0:0:0:
404,120,233571,1,2,2:3:0:0:
358,137,233802,1,0,2:0:0:0:
285,81,234034,5,0,3:0:0:0:
302,81,234265,1,0,2:0:0:0:
331,90,234497,1,8,2:1:0:0:
354,136,234716,1,0,3:0:0:0:
313,219,234936,5,0,2:0:0:0:
309,203,235156,1,0,2:0:0:0:
187,37,235376,1,4,2:3:0:0:
174,89,235602,1,0,2:0:0:0:
305,148,235828,5,0,2:0:0:0:
296,132,236055,1,0,2:0:0:0:
252,102,236281,1,8,2:1:0:0:
197,109,236514,1,0,2:0:0:0:
128,208,236747,5,0,2:0:0:0:
144,205,236981,1,0,3:0:0:0:
179,170,237214,1,2,2:3:0:0:
191,111,237443,1,0,2:0:0:0:
104,28,237673,5,0,3:0:0:0:
105,52,237903,1,0,2:0:0:0:
132,94,238133,1,8,2:1:0:0:
187,111,238359,1,0,3:0:0:0:
295,36,238585,5,0,2:0:0:0:
265,36,238812,1,0,2:0:0:0:
223,54,239038,1,2,2:3:0:0:
189,103,239265,1,0,2:0:0:0:
227,217,239491,5,0,2:0:0:0:
237,198,239717,1,0,2:0:0:0:
229,149,239944,1,8,2:1:0:0:
188,109,240166,1,0,2:0:0:0:
67,126,240388,5,0,2:0:0:0:
83,137,240610,1,0,3:0:0:0:
130,145,240832,1,2,2:3:0:0:
181,115,241051,1,0,2:0:0:0:
190,0,241271,5,0,3:0:0:0:
175,15,241491,1,0,2:0:0:0:
157,59,241711,1,8,2:1:0:0:
176,113,241937,1,8,2:1:0:0:
142,223,242163,5,2,2:3:0:0:
139,211,242390,1,0,2:0:0:0:
229,258,242616,6,0,B|237:257|239:259|236:269|221:303|176:292|138:356,1,125.999996154785,4|0,0:0|2:0,0:0:0:0:
53,308,243313,2,0,B|53:300|66:298|107:290|139:327|223:348|246:343|233:328,1,188.999994232178,2|0,0:0|2:0,0:0:0:0:
155,378,244251,6,0,B|144:382|136:377|139:362|139:362|176:292|221:303|236:269|239:259|237:257|229:258,1,178.500003404617,0|0,0:0|2:0,0:0:0:0:
233,336,245168,2,0,B|246:343|220:339|142:322|101:304,1,125.999996154785,2|0,0:0|2:0,0:0:0:0:
92,293,245850,1,0,2:0:0:0:
63,302,246077,1,0,2:0:0:0:
18,244,246305,6,0,B|25:224|45:206|33:180,1,62.9999980773926,2|0,0:0|0:0,0:0:0:0:
30,171,246768,1,0,2:0:0:0:
39,152,246999,1,0,2:0:0:0:
86,234,247231,6,0,B|86:209|99:194|96:171|110:135,1,62.9999980773926,8|0,0:1|2:0,2:0:0:0:
110,157,247694,1,0,2:0:0:0:
104,130,247926,1,0,0:0:0:0:
156,228,248158,6,0,B|156:205|165:196|179:177|169:133,1,62.9999980773926,2|0,0:0|2:0,2:0:0:0:
167,150,248605,1,0,2:0:0:0:
178,126,248829,1,0,0:0:0:0:
226,221,249053,6,0,B|230:207|227:194|225:174|231:148,1,62.9999980773926,8|0,0:1|2:0,2:0:0:0:
237,147,249501,1,0,2:0:0:0:
233,124,249725,1,0,0:0:0:0:
207,45,249949,6,0,B|205:24|230:27|264:51|273:91|321:88,1,125.999996154785,4|0,3:0|2:0,0:0:0:0:
381,33,250633,2,0,B|355:26|298:38|291:112|229:125|214:119|226:96,1,188.999994232178,2|0,0:0|2:0,0:0:0:0:
358,90,251545,6,0,B|372:98|359:112|280:108|264:51|230:27|205:24|207:45,1,188.999994232178,0|0,0:0|2:0,0:0:0:0:
223,104,252443,2,0,B|214:119|229:125|291:112|298:38|361:41,1,125.999996154785,2|0,0:0|2:0,0:0:0:0:
334,42,253124,1,0,2:0:0:0:
354,43,253353,1,0,2:0:0:0:
434,98,253582,6,0,B|446:118|433:131|452:175,1,56,2|0,0:0|2:0,2:0:0:0:
463,176,254026,1,0,2:0:0:0:
459,213,254248,1,2,2:3:0:0:
378,134,254470,6,0,B|374:147|373:174|395:201,1,56,8|0,0:1|2:0,2:0:0:0:
402,218,254911,1,0,2:0:0:0:
394,250,255131,1,2,2:3:0:0:
317,166,255352,5,2,0:3:0:0:
336,255,255560,1,8,0:1:0:0:
336,255,255664,1,8,0:1:0:0:
336,255,255768,1,8,0:1:0:0:
251,169,255985,5,0,0:0:0:0:
260,124,256202,1,0,0:0:0:0:
229,93,256424,1,0,0:0:0:0:
229,93,256535,1,0,0:0:0:0:
229,93,256646,1,0,0:0:0:0:
236,58,256868,1,0,0:0:0:0:
305,31,257090,6,0,B|322:27|341:49|378:90|421:93,1,125.999996154785,4|0,0:0|2:0,0:0:0:0:
428,0,257761,2,0,B|426:-11|425:-15|412:-8|396:16|411:124|362:159|355:154|357:133,1,188.999994232178,2|0,0:0|2:0,0:0:0:0:
464,88,258657,6,0,B|486:109|367:111|340:49|321:27|304:31,1,188.999994232178,0|0,0:0|2:0,0:0:0:0:
356,135,259568,2,0,B|354:153|361:158|389:111|407:42,1,125.999996154785,2|0,0:0|2:0,0:0:0:0:
405,20,260260,1,0,2:0:0:0:
431,0,260491,1,0,2:0:0:0:
465,86,260723,6,0,B|457:106|460:120|478:136|464:157,1,59.5000011348725,2|0,0:0|2:0,2:0:0:0:
460,167,261172,1,0,2:0:0:0:
478,208,261397,1,0,2:0:0:0:
400,119,261621,6,0,B|395:146|400:167|399:201,1,59.5000011348725,8|0,0:1|2:0,2:0:0:0:
392,199,262079,1,0,2:0:0:0:
411,237,262308,1,0,0:0:0:0:
346,274,262537,6,0,B|332:257|330:242|333:217|318:197,1,59.5000011348725,2|0,0:0|2:0,2:0:0:0:
315,195,262995,1,0,2:0:0:0:
327,155,263224,1,0,2:0:0:0:
272,272,263453,6,0,B|262:258|253:231|260:206,1,59.5000011348725,2|0,0:0|2:0,2:0:0:0:
266,191,263900,1,0,2:0:0:0:
249,151,264124,1,0,2:0:0:0:
156,76,264348,6,0,B|145:59|113:71|117:108|158:137|141:184,1,125.999996154785,4|0,0:0|2:0,0:0:0:0:
79,222,265040,2,0,B|65:203|89:131|197:162|219:96|195:108,1,188.999994232178,2|0,0:0|2:0,0:0:0:0:
132,218,265947,6,0,B|124:224|145:243|170:226|158:137|117:108|113:71|145:59|156:76,1,188.999994232178,0|0,0:0|2:0,0:0:0:0:
195,108,266849,2,0,B|219:96|197:162|111:142|96:182,1,124.600000095062,2|0,0:0|2:0,0:0:0:0:
100,188,267533,1,0,2:0:0:0:
68,191,267762,1,0,2:0:0:0:
10,256,267991,6,0,B|0:254|-3:284|34:293|32:350,1,66.4999982242585,4|0,0:0|2:0,2:0:0:0:
20,342,268442,1,0,2:0:0:0:
52,382,268667,1,0,2:0:0:0:
69,247,268893,6,0,B|88:268|78:277|86:304|101:321,1,66.4999982242585,2|0,0:0|2:0,2:0:0:0:
114,329,269352,1,0,2:0:0:0:
115,380,269582,1,0,2:0:0:0:
185,384,269812,6,0,B|201:382|205:360|182:325|186:301,1,66.4999982242585,2|0,0:0|2:0,2:0:0:0:
199,300,270251,1,0,2:0:0:0:
172,249,270471,1,0,2:0:0:0:
214,152,270691,5,8,0:1:0:0:
244,218,270920,1,8,0:1:0:0:
122,162,271149,1,2,0:0:0:0:
138,132,271378,1,0,0:0:0:0:
71,56,271607,6,0,B|56:37|37:61|46:83|64:85|135:66|127:204|73:212,1,210,4|0,0:0|0:0,0:0:0:0:
21,171,272499,2,0,B|16:136|43:123|91:116|186:103|151:21,1,210,8|0,0:1|0:0,0:0:0:0:
278,11,273444,5,2,0:0:0:0:
304,95,273667,1,2,0:0:0:0:
269,8,273891,6,0,B|264:0|273:-3|291:0|321:9|349:33,1,70
425,99,274339,5,8,0:1:0:0:
372,198,274571,1,8,0:1:0:0:
381,281,274804,1,2,0:0:0:0:
423,335,275041,1,0,0:0:0:0:
437,267,275279,6,0,B|394:238|351:248|338:350|271:343|228:334|215:248|318:246|354:294,1,314.999990386963,4|0,0:0|2:0,0:0:0:0:
232,384,276647,6,0,B|232:364|218:338|199:324,1,62.9999980773926
61,260,277104,6,0,B|85:258|96:225|138:231,1,62.9999980773926,2|0,0:0|0:0,0:0:0:0:
181,260,277550,2,0,B|210:257|219:241|259:238,1,62.9999980773926,2|0,0:0|0:0,0:0:0:0:
292,183,277996,1,8,0:1:0:0:
388,239,278330,5,8,0:1:0:0:
388,239,278442,1,8,0:1:0:0:
436,201,278665,1,0,0:0:0:0:
366,90,278888,6,0,B|380:74|408:73|440:94|427:139|305:147|306:43|272:63|227:85,1,210,4|0,0:0|0:0,0:0:0:0:
322,2,279814,2,0,B|342:38|310:85|312:126|290:167|310:211,1,210,8|0,0:1|0:0,0:0:0:0:
411,328,280741,5,2,0:0:0:0:
401,237,280968,1,2,0:0:0:0:
417,334,281195,6,0,B|425:347|416:358|381:341|351:359,1,70
256,303,281650,5,8,0:1:0:0:
292,203,281881,1,8,0:1:0:0:
279,109,282113,1,2,0:0:0:0:
236,49,282344,1,0,0:0:0:0:
210,114,282576,6,0,B|197:125|202:154|251:172|285:119|347:92|394:93|414:93|463:101|488:165|417:216|366:131,1,377.999988464356,4|0,0:0|0:0,0:0:0:0:
370,130,284149,1,0,0:0:0:0:
345,239,284373,6,0,B|335:248|322:253|304:233|269:249,1,62.9999980773926,2|0,0:0|0:0,0:0:0:0:
215,204,284836,2,0,B|193:202|178:218|136:234,1,62.9999980773926,2|0,0:0|0:0,0:0:0:0:
120,284,285299,1,8,0:1:0:0:
48,278,285614,5,8,0:1:0:0:
48,278,285720,1,8,0:1:0:0:
13,361,285930,5,0,0:0:0:0:
13,361,286035,1,0,0:0:0:0:
22,371,286169,6,0,B|22:383|50:386|64:371|59:343|106:282|26:219|102:192,1,210,4|0,0:0|0:0,0:0:0:0:
21,275,287051,2,0,B|30:300|81:281|119:303,1,83.9999974365235,8|0,0:1|0:0,0:0:0:0:
240,357,287490,5,8,0:1:0:0:
227,364,287600,1,8,0:1:0:0:
195,346,287711,1,8,0:1:0:0:
206,311,287822,1,8,0:1:0:0:
240,313,287932,6,0,B|251:322|277:308|272:267|245:257|203:244|137:207|119:142|121:102,1,251.999992309571,4|0,0:0|0:0,0:0:0:0:
161,23,288851,6,0,B|164:60|200:67|206:130,1,83.9999974365235,8|0,0:1|0:0,0:0:0:0:
199,109,289196,1,8,0:1:0:0:
199,109,289311,1,8,0:1:0:0:
70,0,289541,1,0,0:0:0:0:
24,150,289771,6,0,B|13:165|16:249|107:264|149:156|241:159|298:197|392:383|173:397|127:265|168:175|218:183,1,503.999984619141,4|0,0:0|2:0,0:0:0:0:
483,25,293423,6,0,B|480:38|492:51|480:63,1,35,4|0,0:0|0:0,0:0:0:0:
439,112,294137,1,0,0:0:0:0:
436,116,294375,6,0,B|433:128|436:144|445:156,1,35,8|0,0:1|0:0,0:0:0:0:
497,204,295089,1,0,0:0:0:0:
498,209,295327,6,0,B|492:214|492:214|491:221,1,14,2|0,0:0|0:0,1:0:0:0:
443,267,296001,1,0,0:0:0:0:
441,274,296225,6,0,B|438:286|454:291|450:314,1,35,8|0,0:1|0:0,0:0:0:0:
350,381,296900,1,0,0:0:0:0:
344,381,297124,6,0,B|332:368|340:360|343:348|339:320,1,35,2|0,0:0|0:0,0:0:0:0:
314,278,297821,1,0,0:0:0:0:
311,272,298054,6,0,B|318:253|323:240|321:220,1,35,8|0,0:1|0:0,0:0:0:0:
369,188,298748,1,0,0:0:0:0:
371,182,298980,6,0,P|366:176|365:167,1,14,2|0,0:0|0:0,1:0:0:0:
310,113,299675,1,0,0:0:0:0:
306,108,299907,6,0,B|302:97|316:88|305:61,1,35,8|0,0:1|0:0,0:0:0:0:
228,11,300602,1,0,0:0:0:0:
224,9,300833,6,0,B|219:3|213:16|225:35|217:57,1,35,2|0,0:0|0:0,0:0:0:0:
175,99,301533,1,0,0:0:0:0:
171,102,301766,6,0,B|164:120|176:128|169:146,1,35,8|0,0:1|0:0,0:0:0:0:
220,214,302467,1,0,0:0:0:0:
221,220,302700,6,0,P|214:228|210:235,1,14,2|0,0:0|0:0,1:0:0:0:
161,280,303381,1,0,0:0:0:0:
160,284,303609,6,0,B|162:303|176:303|176:334,1,35,8|0,0:1|0:0,0:0:0:0:
69,372,304301,1,0,0:0:0:0:
63,368,304532,6,0,B|58:352|72:349|69:325,1,35,2|0,0:0|0:0,0:0:0:0:
40,268,305232,1,0,0:0:0:0:
37,263,305465,6,0,B|37:242|47:230|57:219,1,35,8|0,0:1|0:0,0:0:0:0:
99,188,306166,1,0,0:0:0:0:
100,181,306399,6,0,P|94:171|92:163,1,14,2|0,0:0|0:0,1:0:0:0:
45,126,307078,1,0,0:0:0:0:
81,68,307304,5,8,0:1:0:0:
5,11,307542,1,8,0:1:0:0:
91,27,307780,2,0,B|91:45|74:46|71:72,1,35,2|0,0:0|0:0,0:0:0:0:
32,133,308256,5,2,0:0:0:0:
126,95,308950,1,0,0:0:0:0:
135,99,309182,6,0,B|136:111|127:124|129:141,1,35,8|0,0:1|0:0,0:0:0:0:
67,205,309869,1,0,0:0:0:0:
61,207,310098,6,0,P|63:217|70:221,1,14,2|0,0:0|0:0,1:0:0:0:
102,279,310790,1,0,0:0:0:0:
106,286,311021,6,0,B|109:296|93:310|97:321,1,35,8|0,0:1|0:0,0:0:0:0:
181,371,311713,1,0,0:0:0:0:
187,368,311944,6,0,P|186:345|194:324,1,35,2|0,0:0|0:0,0:0:0:0:
231,275,312636,1,0,0:0:0:0:
236,269,312867,6,0,B|238:249|223:242|227:210,1,35,8|0,0:1|0:0,0:0:0:0:
179,166,313570,1,0,0:0:0:0:
175,160,313804,6,0,L|180:146,1,14,2|0,0:0|0:0,1:0:0:0:
232,103,314498,1,0,0:0:0:0:
234,98,314724,6,0,B|232:78|222:70|225:56,1,35,8|0,0:1|0:0,0:0:0:0:
315,14,315413,1,0,0:0:0:0:
317,9,315643,6,0,B|323:3|330:16|327:26|315:44|325:60,1,35,2|0,0:0|0:0,0:0:0:0:
360,102,316337,1,0,0:0:0:0:
363,107,316569,6,0,B|369:126|355:128|354:170,1,35,8|0,0:1|0:0,0:0:0:0:
313,195,317264,5,0,0:0:0:0:
316,200,317496,6,0,P|319:207|321:218,1,14,2|0,0:0|0:0,1:0:0:0:
357,272,318183,1,0,0:0:0:0:
352,277,318412,6,0,B|359:295|335:324|349:364,1,70,8|2,0:1|0:0,0:0:0:0:
472,370,319328,6,0,B|479:373|479:373|472:355|468:334,1,35,2|0,0:0|0:0,0:0:0:0:
431,282,320002,1,0,0:0:0:0:
427,280,320226,6,0,B|424:260|435:257|437:227,1,35,8|0,0:1|0:0,0:0:0:0:
486,186,320676,5,2,0:0:0:0:
481,175,320826,5,2,0:0:0:0:
485,156,320975,5,2,0:0:0:0:
478,142,321125,6,0,B|470:113|452:109|441:68,1,70,2|2,0:0|0:0,0:0:0:0:
447,68,321819,1,0,0:0:0:0:
380,20,322051,6,0,B|381:38|376:46|377:68,1,35,8|0,0:1|0:0,0:0:0:0:
351,103,322514,2,0,B|352:119|362:131|364:150,1,35,2|0,0:0|0:0,0:0:0:0:
362,147,322978,5,2,0:0:0:0:
321,39,323667,1,0,0:0:0:0:
316,32,323897,6,0,B|306:30|296:49|264:49,1,35,8|0,0:1|0:0,0:0:0:0:
213,45,324594,1,0,0:0:0:0:
208,44,324827,6,0,B|202:30,1,14,2|0,0:0|0:0,1:0:0:0:
167,108,325511,1,0,0:0:0:0:
164,114,325739,6,0,B|145:116|145:126|113:120,1,35,8|0,0:1|0:0,0:0:0:0:
58,66,326431,1,0,0:0:0:0:
54,61,326662,6,0,B|55:53|74:55|93:81|111:69,1,35,2|0,0:0|0:0,0:0:0:0:
136,132,327359,1,0,0:0:0:0:
141,139,327592,6,0,B|152:146|162:141|184:159,1,35,8|0,0:1|0:0,0:0:0:0:
260,135,328281,1,0,0:0:0:0:
264,131,328511,6,0,P|271:137|280:142,1,14,2|0,0:0|0:0,1:0:0:0:
315,193,329201,1,0,0:0:0:0:
390,163,329431,5,8,0:1:0:0:
451,234,329660,1,8,0:1:0:0:
430,143,329890,2,0,B|422:151|412:144|386:163,1,35,2|0,0:0|0:0,0:0:0:0:
313,199,330364,5,2,0:0:0:0:
377,259,331045,1,0,0:0:0:0:
380,267,331273,6,0,B|363:282|360:270|321:293,1,35,8|0,0:1|0:0,0:0:0:0:
248,261,331954,1,0,0:0:0:0:
243,256,332182,6,0,P|231:260|227:265,1,14,2|0,0:0|0:0,1:0:0:0:
185,328,332864,1,0,0:0:0:0:
186,336,333091,6,0,B|178:342|171:337|152:347,1,35,8|0,0:1|0:0,0:0:0:0:
79,293,333773,1,0,0:0:0:0:
74,289,334000,6,0,B|74:280|85:272|119:289,1,35,2|0,0:0|0:0,0:0:0:0:
174,329,334671,1,0,0:0:0:0:
178,340,334895,6,0,B|194:353|219:339|234:351,1,35,8|0,0:1|0:0,0:0:0:0:
292,323,335574,1,0,0:0:0:0:
297,317,335800,6,0,P|303:312|304:303,1,14,2|0,0:0|0:0,1:0:0:0:
340,372,336461,1,0,0:0:0:0:
345,377,336682,6,0,B|375:386|401:373|439:380,1,70,8|2,0:1|0:0,0:0:0:0:
496,290,337353,1,0,0:0:0:0:
498,284,337584,6,0,B|499:276|499:276|480:287|456:292,1,35,4|0,0:0|0:0,0:0:0:0:
388,278,338281,1,0,0:0:0:0:
384,276,338514,6,0,B|366:276|367:290|339:292,1,35,8|0,0:1|0:0,0:0:0:0:
288,345,339203,1,0,0:0:0:0:
280,344,339433,6,0,P|278:337|273:333,1,14,2|0,0:0|0:0,1:0:0:0:
206,317,340112,1,0,0:0:0:0:
200,315,340338,5,8,0:1:0:0:
125,341,340640,5,0,0:0:0:0:
116,331,340791,5,2,0:0:0:0:
88,330,340942,5,2,0:0:0:0:
70,301,341093,5,2,0:0:0:0:
32,303,341244,6,0,B|17:280|21:264|56:247|57:200,1,105.000004005432,2|2,0:0|0:0,0:0:0:0:
15,124,342149,6,0,B|15:136|11:140|11:149,1,20.9999993591309,8|0,0:1|0:0,0:0:0:0:
101,112,343046,6,0,B|110:98|95:80|108:57,1,52.5,2|0,0:0|0:0,0:0:0:0:
36,8,343955,6,0,B|30:16|38:24|34:32,1,20.8600002928345,8|0,0:1|0:0,0:0:0:0:
70,156,344874,6,0,B|99:167|145:158|170:97|217:128,1,125.999996154785,2|0,0:0|0:0,0:0:0:0:
191,125,345783,2,0,B|181:141|160:135|150:124|134:103|89:124,1,83.9999974365235,8|0,0:1|0:0,0:0:0:0:
110,109,346464,1,0,0:0:0:0:
183,200,346692,6,0,B|206:227|292:237|285:174|272:163,1,125.999996154785,2|0,0:0|0:0,0:0:0:0:
268,168,347580,2,0,B|249:199|271:222|315:237,1,83.9999974365235,8|0,0:1|0:0,0:0:0:0:
308,230,348255,1,0,0:0:0:0:
226,318,348486,6,0,B|184:347|151:305|109:300|94:322,1,125.999996154785,2|0,0:0|0:0,0:0:0:0:
97,321,349374,2,0,B|103:332|133:337|148:301|117:255,1,83.9999974365235,8|2,0:1|0:0,0:0:0:0:
71,104,350263,6,0,B|71:120|51:129|53:163,1,41.9999987182618,2|0,0:0|0:0,0:0:0:0:
58,163,350708,1,0,0:0:0:0:
39,190,350930,1,0,0:0:0:0:
79,266,351152,6,0,B|100:261|90:233|117:214,1,41.9999987182618,8|0,0:1|0:0,0:0:0:0:
155,192,351597,2,0,B|148:172|176:163|160:129,1,41.9999987182618,2|0,0:0|0:0,0:0:0:0:
160,42,352055,6,0,B|159:37|171:32|175:47|180:62|189:69,1,35,4|0,0:0|0:0,0:0:0:0:
252,92,352758,1,0,0:0:0:0:
259,92,352992,6,0,B|275:101|271:114|285:119,1,35,8|0,0:1|0:0,0:0:0:0:
286,192,353695,1,0,0:0:0:0:
289,197,353930,6,0,P|292:207|300:212,1,14,2|0,0:0|0:0,1:0:0:0:
374,231,354611,1,0,0:0:0:0:
380,232,354839,6,0,B|391:236|390:253|403:266,1,35,8|0,0:1|0:0,0:0:0:0:
426,345,355511,1,0,0:0:0:0:
422,350,355730,6,0,B|415:342|393:347|378:325,1,35,2|0,0:0|0:0,0:0:0:0:
306,350,356417,1,0,0:0:0:0:
302,347,356646,6,0,B|290:344|288:325|258:322,1,35,8|0,0:1|0:0,0:0:0:0:
243,235,357333,1,0,0:0:0:0:
240,229,357562,6,0,B|218:217|192:220|176:242|133:231|132:187,1,105,2|0,0:0|0:0,0:0:0:0:
107,154,358450,1,8,0:1:0:0:
206,92,358895,5,2,0:0:0:0:
208,86,359117,1,2,0:0:0:0:
247,127,359339,6,0,B|250:136|336:153|356:96|311:68,1,125.999996154785,2|0,0:0|0:0,0:0:0:0:
319,79,360251,2,0,B|306:99|336:134|373:124,1,83.9999974365235,8|0,0:1|0:0,0:0:0:0:
375,118,360945,1,0,0:0:0:0:
437,194,361177,6,0,B|412:216|357:190|336:190|307:207,1,125.999996154785,2|0,0:0|0:0,0:0:0:0:
309,209,362075,2,0,B|315:221|338:219|352:177|396:171,1,83.9999974365235,8|0,0:1|0:0,0:0:0:0:
386,175,362756,1,0,0:0:0:0:
353,286,362984,6,0,B|339:320|295:330|260:300|262:264,1,125.999996154785,2|0,0:0|0:0,0:0:0:0:
269,263,363886,2,0,B|301:280|258:310|244:328|252:354,1,83.9999974365235,8|0,0:1|0:0,0:0:0:0:
252,341,364562,1,0,0:0:0:0:
340,388,364788,6,0,B|357:388|359:368|394:361,1,35,2|0,0:0|0:0,0:0:0:0:
407,301,365234,2,0,B|417:288|429:295|456:276,1,35,2|0,0:0|0:0,0:0:0:0:
446,287,365680,5,8,0:1:0:0:
370,374,366126,6,0,B|358:377|344:378|336:385,1,35,2|0,0:3|0:0,0:0:0:0:
249,344,366592,6,0,B|239:350|237:351|240:341|261:327|270:305,1,35,4|0,0:0|0:0,0:0:0:0:
312,278,367281,1,0,0:0:0:0:
319,275,367511,6,0,B|327:261|326:250|341:221,1,35,8|0,0:1|0:0,0:0:0:0:
291,175,368201,1,0,0:0:0:0:
296,171,368431,6,0,B|298:167|300:161|301:152,1,14,2|0,0:0|0:0,1:0:0:0:
378,130,369107,1,0,0:0:0:0:
383,128,369333,6,0,B|411:106|397:75|440:53,1,70,8|2,0:1|0:0,0:0:0:0:
288,51,370235,6,0,B|286:62|311:77|310:100,1,35,2|0,0:0|0:0,0:0:0:0:
299,158,370901,1,0,0:0:0:0:
300,164,371123,6,0,B|306:186|332:182|341:205,1,35,8|0,0:1|0:0,0:0:0:0:
419,204,371799,1,0,0:0:0:0:
427,205,372025,6,0,B|451:228|448:258|393:283|410:353|451:365,1,157.500006008148,2|0,0:0|0:0,0:0:0:0:
511,352,372907,6,0,B|511:338|510:312|487:297|484:316,1,52.5000020027161,8|0,0:1|0:0,0:0:0:0:
484,307,373348,1,2,0:0:0:0:
321,354,373802,6,0,B|285:367|255:340|248:299|225:273|161:317,1,157.500006008148,4|0,0:0|0:0,0:0:0:0:
183,307,374700,1,8,0:1:0:0:
372,272,375152,5,0,0:0:0:0:
341,282,375379,1,0,0:0:0:0:
329,301,375605,2,0,B|293:284|314:228|293:193|226:183,1,157.500006008148,2|0,0:0|0:0,0:0:0:0:
289,11,376490,5,8,0:1:0:0:
322,48,376712,1,8,0:1:0:0:
317,93,376933,6,0,B|330:98|324:121|337:129,1,35,2|0,0:0|0:0,0:0:0:0:
370,253,377367,6,0,B|359:235|382:213|421:199|431:157|406:97,1,157.500006008148,6|0,0:0|0:0,0:0:0:0:
408,106,378259,1,8,0:1:0:0:
348,26,378705,5,2,0:0:0:0:
320,44,378928,1,0,0:0:0:0:
255,0,379151,5,2,0:0:0:0:
225,91,379584,5,0,0:1:0:0:
282,140,379800,5,0,0:3:0:0:
285,149,379909,1,0,0:0:0:0:
281,159,380017,1,2,0:0:0:0:
224,222,380243,5,0,0:0:0:0:
215,245,380356,1,0,0:0:0:0:
225,265,380469,1,2,0:0:0:0:
299,325,380696,5,0,0:0:0:0:
203,376,380922,6,0,B|191:375|161:363|121:296,1,105.000004005432,4|0,0:0|2:0,0:0:0:0:
77,367,381609,2,0,B|97:369|131:357|165:330|199:314|242:329,1,157.500006008148,2|0,0:0|2:0,0:0:0:0:
82,282,382525,6,0,B|132:286|157:366|191:375|203:376,1,157.500006008148,0|0,0:0|2:0,0:0:0:0:
226,325,383441,2,0,B|198:318|165:330|128:354,1,105.000004005432,2|0,0:0|2:0,0:0:0:0:
126,358,384128,1,0,2:0:0:0:
282,367,384586,6,0,B|288:363|282:343|299:324,1,35,2|0,0:0|0:0,0:0:0:0:
340,355,385265,1,0,0:0:0:0:
342,358,385491,6,0,B|352:343|347:332|354:311,1,35,8|0,0:1|0:0,0:0:0:0:
403,354,386178,1,0,0:0:0:0:
402,350,386407,6,0,B|400:341|409:333|410:313,1,35,2|0,0:0|0:0,0:0:0:0:
467,341,387073,1,0,0:0:0:0:
486,323,387295,5,8,0:1:0:0:
476,299,387521,1,8,0:1:0:0:
489,288,387747,6,0,B|499:275|491:260|503:252,1,35,2|0,0:0|0:0,0:0:0:0:
480,189,388200,6,0,B|472:179|449:177|433:227|374:227,1,105.000004005432,4|0,0:0|2:0,0:0:0:0:
333,174,388869,2,0,B|376:159|416:199|431:242|491:248,1,157.500006008148,2|0,0:0|2:0,0:0:0:0:
338,230,389786,6,0,B|409:263|449:177|472:179|480:189,1,157.500006008148,0|0,0:0|2:0,0:0:0:0:
484,247,390687,2,0,B|431:242|416:195|381:181,1,105.000004005432,2|0,0:0|2:0,0:0:0:0:
391,190,391356,1,0,2:0:0:0:
336,268,391802,6,0,B|338:254|327:248|331:229,1,35,4|0,0:0|0:0,0:0:0:0:
281,259,392481,1,0,0:0:0:0:
277,254,392707,6,0,B|271:237|284:214|279:178,1,70,8|0,0:1|0:0,0:0:0:0:
218,231,393586,6,0,B|228:219|217:207|230:189,1,35,2|0,0:0|0:0,0:0:0:0:
164,211,394245,1,0,0:0:0:0:
162,202,394465,6,0,B|163:186|176:178|181:164,1,35,8|8,0:1|0:1,0:1:0:0:
175,154,394916,1,2,0:0:0:0:
187,136,395141,1,0,0:0:0:0:
183,73,395367,6,0,B|169:59|145:81|111:114|69:97,1,105.000004005432,4|0,0:0|2:0,0:0:0:0:
25,43,396064,2,0,B|42:38|84:45|118:126|171:122,1,157.500006008148,2|0,0:0|2:0,0:0:0:0:
33,102,396976,6,0,B|111:114|145:81|169:59|183:73,1,157.500006008148,0|0,0:0|2:0,0:0:0:0:
157,120,397881,2,0,B|118:126|97:77|68:58,1,105.000004005432,2|0,0:0|2:0,0:0:0:0:
61,65,398561,1,0,0:0:0:0:
48,57,398787,1,0,0:0:0:0:
42,175,399013,6,0,B|52:163|49:150|60:134,1,41.9999987182618,4|0,0:0|0:0,0:0:0:0:
111,219,399682,1,0,0:0:0:0:
117,216,399905,6,0,B|123:202|104:182|120:164,1,41.9999987182618,8|0,0:1|0:0,0:0:0:0:
196,239,400574,1,0,0:0:0:0:
200,233,400797,6,0,B|176:206|176:163|206:143|212:111|191:76,1,157.500006008148,2|0,0:0|0:0,0:0:0:0:
93,7,401689,5,8,0:1:0:0:
72,153,401912,1,8,0:1:0:0:
123,104,402135,5,2,0:0:0:0:
46,58,402358,1,0,0:0:0:0:
177,28,402581,6,0,B|192:14|283:28|282:98|333:65,1,140,4|0,0:0|0:0,0:0:0:0:
408,106,403260,2,0,B|433:125|437:95|410:68|388:101|368:135|293:183|231:102,1,210
251,120,404160,1,0,0:0:0:0:
322,22,404384,6,0,B|356:117|296:156|360:228,1,210,4|0,0:0|0:0,0:0:0:0:
429,280,405263,5,8,0:1:0:0:
413,350,405482,1,8,0:1:0:0:
510,291,405702,1,2,0:0:0:0:
476,230,405922,1,0,0:0:0:0:
340,317,406142,6,0,B|318:348|261:340|248:256|206:284,1,140,4|0,0:0|0:0,0:0:0:0:
114,237,406823,2,0,B|101:237|82:261|114:302|152:250|173:211|226:181|288:220|302:232,1,210
279,224,407703,1,0,0:0:0:0:
256,384,407920,5,2,0:0:0:0:
185,263,408355,6,0,B|176:231|193:239|186:211,1,52.5000020027161,8|8,0:1|0:1,0:0:0:0:
168,177,408681,1,2,0:0:0:0:
187,137,408790,1,0,0:0:0:0:
315,326,409244,6,0,B|332:311|324:293|319:281,1,35
316,277,409585,1,0,0:0:0:0:
335,248,409699,5,4,0:0:0:0:
