osu file format v14

[General]
AudioFilename: audio.mp3
AudioLeadIn: 0
PreviewTime: 2240
Countdown: 0
SampleSet: Soft
StackLeniency: 0.3
Mode: 0
LetterboxInBreaks: 0
WidescreenStoryboard: 1

[Editor]
Bookmarks: 75586
DistanceSpacing: 0.3
BeatDivisor: 4
GridSize: 4
TimelineZoom: 1.5

[Metadata]
Title:GCN Yoshi Circuit (Cut Ver.)
TitleUnicode:GC ヨッシーサーキット (Cut Ver.)
Artist:Atsuko Asahi
ArtistUnicode:朝日温子
Creator:Pache Knowledge
Version:Phynta's Insane
Source:マリオカート8
Tags:phynta down ascended -ascended- -_ascended_- mario kart mariokart deluxe 8 mk8d mk8dx mk8 nintendo wii u switch instrumental jazz racing video game roda totsuki roda_totsuki reiSevia
BeatmapID:3269972
BeatmapSetID:1587739

[Difficulty]
HPDrainRate:5
CircleSize:3.7
OverallDifficulty:8
ApproachRate:8.8
SliderMultiplier:1.7
SliderTickRate:1

[Events]
//Background and Video events
0,0,"yoshis.jpg",0,0
//Break Periods
//Storyboard Layer 0 (Background)
//Storyboard Layer 1 (Fail)
//Storyboard Layer 2 (Pass)
//Storyboard Layer 3 (Foreground)
//Storyboard Layer 4 (Overlay)
//Storyboard Sound Samples

[TimingPoints]
640,416.666666666667,4,2,1,65,1,0
1473,-66.6666666666667,4,2,1,65,0,0
2306,416.666666666667,4,2,1,65,1,0
2306,-66.6666666666667,4,2,1,65,0,0
3035,-50,4,2,1,65,0,0
3347,-66.6666666666667,4,2,1,65,0,0
4701,-50,4,2,1,65,0,0
5118,-66.6666666666667,4,2,1,65,0,0
6368,-50,4,2,1,65,0,0
6681,-66.6666666666667,4,2,1,65,0,0
7306,-50,4,2,1,65,0,0
8972,-66.6666666666667,4,2,1,65,0,0
9701,-50,4,2,1,65,0,0
10431,-66.6666666666667,4,2,1,65,0,0
11368,-50,4,2,1,65,0,0
13972,-57.1428571428571,4,2,1,65,0,0
15431,-80,4,2,1,65,0,0
15639,-100,4,2,1,65,0,0
17306,-50,4,2,1,65,0,0
18347,-80,4,2,1,65,0,0
18972,-50,4,2,1,65,0,0
19597,-66.6666666666667,4,2,1,65,0,0
19806,-133.333333333333,4,2,1,65,0,0
20222,-100,4,2,1,65,0,0
21368,-66.6666666666667,4,2,1,65,0,0
23035,-50,4,2,1,65,0,0
23764,-66.6666666666667,4,2,1,65,0,0
24701,-50,4,2,1,65,0,0
27306,-57.1428571428571,4,2,1,65,0,0
28972,-83.3333333333333,4,2,1,65,0,0
31472,-50,4,2,1,65,0,0
32306,-71.4285714285714,4,2,1,65,0,0
35014,-62.5,4,2,1,65,0,0
35639,-71.4285714285714,4,2,1,65,0,0
36681,-62.5,4,2,1,65,0,0
37306,-71.4285714285714,4,2,1,65,0,0
38972,-62.5,4,2,1,65,0,0
42306,-71.4285714285714,4,2,1,65,0,0
48347,-62.5,4,2,1,65,0,0
48972,-71.4285714285714,4,2,1,65,0,0
50014,-62.5,4,2,1,65,0,0
50639,-71.4285714285714,4,2,1,65,0,0
52306,-62.5,4,2,1,65,0,0
55639,-71.4285714285714,4,2,1,65,0,0
58035,-62.5,4,2,1,65,0,0
58972,-66.6666666666667,4,2,1,65,0,0
63972,-55.5555555555556,4,2,1,65,0,0
65639,-66.6666666666667,4,2,1,65,0,0

[Colours]
Combo1 : 176,255,255
Combo2 : 255,196,225
Combo3 : 79,79,255
Combo4 : 255,255,147
Combo5 : 215,215,215
Combo6 : 255,53,53
Combo7 : 255,157,111

[HitObjects]
12,263,640,6,0,L|55:256,1,42.5,8|0,0:0|0:0,0:0:0:0:
94,166,848,1,2,3:2:0:0:
201,233,1056,1,10,0:0:0:0:
201,233,1160,2,0,L|244:227,1,42.5,2|0,0:0|0:0,0:0:0:0:
120,330,1369,5,0,0:0:0:0:
120,330,1473,1,10,0:0:0:0:
175,74,1681,5,0,3:2:0:0:
175,74,1785,1,14,0:0:0:0:
431,128,2098,5,6,0:0:0:0:
308,319,2306,6,0,P|327:296|364:278,1,63.7500024318696,2|0,3:2|0:0,0:0:0:0:
405,213,2514,2,0,P|434:217|468:240,1,63.7500024318696,2|0,0:0|0:0,0:0:0:0:
512,348,2722,1,10,0:0:0:0:
512,348,2826,2,0,P|478:338|468:299,1,63.7500024318696,2|0,0:0|0:0,0:0:0:0:
512,91,3035,2,0,P|461:45|367:66,1,170,2|0,0:0|0:0,0:0:0:0:
251,131,3347,1,2,0:0:0:0:
258,130,3451,1,0,0:0:0:0:
293,104,3556,1,8,0:0:0:0:
299,108,3660,1,0,0:0:0:0:
333,143,3764,2,0,P|322:194|319:215,1,63.7500024318696,2|0,3:2|0:0,0:0:0:0:
212,364,3972,6,0,P|207:321|182:238,1,127.500004863739,2|2,3:2|0:0,0:0:0:0:
128,154,4285,1,2,3:2:0:0:
84,192,4389,1,10,0:0:0:0:
82,249,4493,1,2,0:0:0:0:
33,91,4701,6,0,B|28:72|0:60|0:60|211:16,1,255,2|2,3:2|3:2,0:0:0:0:
228,51,5118,1,2,0:0:0:0:
220,104,5222,1,10,0:0:0:0:
207,107,5326,1,2,0:0:0:0:
195,112,5431,2,0,P|218:142|246:158,1,63.7500024318696,2|0,0:0|0:0,0:0:0:0:
342,14,5639,6,0,B|327:29|327:29|344:75,1,63.7500024318696,2|0,3:1|0:0,0:0:0:0:
421,147,5847,2,0,B|436:162|436:162|419:208,1,63.7500024318696,2|0,0:1|3:0,0:0:0:0:
482,28,6056,1,10,0:1:0:0:
482,28,6160,2,0,P|446:45|426:73,1,63.7500024318696,2|0,0:1|0:0,0:0:0:0:
345,253,6368,2,2,B|357:289|398:292|398:292|498:276,1,170,2|0,3:1|0:0,0:1:0:0:
512,189,6681,1,2,0:0:0:0:
341,176,6889,2,0,P|323:213|318:243,1,63.7500024318696,10|0,0:0|0:0,0:0:0:0:
306,374,7097,2,0,P|298:343|283:315,1,63.7500024318696,2|0,3:1|0:0,0:0:0:0:
160,249,7306,6,0,L|75:263,1,85,2|0,3:1|0:0,0:0:0:0:
2,368,7514,5,2,0:1:0:0:
15,361,7618,1,2,3:1:0:0:
96,343,7722,1,10,0:1:0:0:
116,348,7826,1,2,0:1:0:0:
31,69,8035,6,2,P|85:9|165:24,1,170,2|0,3:1|0:0,0:1:0:0:
245,16,8347,2,0,P|277:47|289:87,1,85,2|0,3:1|0:0,0:0:0:0:
160,171,8556,2,0,P|170:127|199:96,1,85,10|0,0:1|0:0,0:0:0:0:
336,167,8764,2,0,P|292:179|251:169,1,85,2|0,3:1|0:0,0:0:0:0:
377,16,8972,6,0,L|385:79,1,63.7500024318696,6|0,3:2|0:0,0:0:0:0:
483,86,9181,2,0,L|475:149,1,63.7500024318696,2|0,0:0|3:2,0:0:0:0:
420,221,9389,1,10,0:0:0:0:
420,221,9493,2,0,P|446:238|479:241,1,63.7500024318696,2|0,0:0|0:0,0:0:0:0:
319,364,9701,2,0,B|304:343|278:335|278:335|257:210,1,170,2|0,3:2|0:0,0:0:0:0:
238,111,10014,1,2,0:0:0:0:
233,124,10118,1,0,0:0:0:0:
190,98,10222,1,8,0:0:0:0:
190,111,10326,1,2,0:0:0:0:
152,128,10431,2,0,P|130:158|123:191,1,63.7500024318696,2|0,3:2|0:0,0:0:0:0:
88,369,10639,6,0,P|74:315|46:244,1,127.500004863739,2|2,3:2|0:0,0:0:0:0:
36,132,10951,1,2,3:2:0:0:
0,177,11056,1,10,0:0:0:0:
15,232,11160,1,2,0:0:0:0:
149,300,11368,6,0,B|250:317|235:213|328:234|328:234|358:282,1,255,2|2,3:2|3:2,0:0:0:0:
373,303,11785,1,0,0:0:0:0:
373,303,11889,1,8,0:0:0:0:
258,371,12097,1,0,3:2:0:0:
409,182,12306,6,2,L|381:9,1,170,2|0,3:1|0:0,0:1:0:0:
512,9,12618,2,0,L|497:178,1,170,2|0,3:1|0:0,0:0:0:0:
460,261,12931,1,2,0:1:0:0:
312,114,13139,6,2,P|242:58|164:58,1,170,2|0,0:1|3:2,0:1:0:0:
125,173,13451,2,0,P|194:228|272:228,1,170,2|0,0:1|0:0,0:0:0:0:
218,142,13764,1,2,0:1:0:0:
30,320,13972,6,2,B|97:353|97:353|148:299,1,148.750001418591,2|0,3:1|0:0,0:1:0:0:
125,173,14285,2,2,B|58:140|58:140|7:194,1,148.750001418591,10|0,3:3|0:0,0:1:0:0:
77,246,14597,1,6,3:0:0:0:
43,51,14806,5,10,0:1:0:0:
36,12,14910,1,10,0:1:0:0:
97,353,15118,6,0,B|147:299|147:299|302:312,1,223.125002127886,10|0,0:0|3:2,0:0:0:0:
488,368,15639,6,0,L|403:363,1,85,6|2,3:2|0:0,0:0:0:0:
494,284,16056,1,10,0:0:0:0:
494,284,16160,2,0,L|451:281,1,42.5,2|0,0:0|0:0,0:0:0:0:
366,276,16368,2,0,L|281:271,1,85,2|2,3:2|0:0,0:0:0:0:
372,192,16681,2,0,L|329:189,1,42.5,2|0,3:2|0:0,0:0:0:0:
244,184,16889,2,0,L|159:179,1,85,10|2,0:0|3:2,0:0:0:0:
250,100,17306,6,0,P|256:52|287:20,1,85,2|0,3:1|0:0,0:0:0:0:
359,0,17514,2,0,P|407:5|439:37,1,85,2|0,0:1|3:2,0:0:0:0:
485,96,17722,1,10,0:1:0:0:
485,96,17826,2,0,P|448:114|405:108,1,85,2|0,0:1|0:0,0:0:0:0:
278,25,18035,2,2,P|205:10|122:56,1,170,2|0,3:1|0:0,0:1:0:0:
6,136,18347,2,0,L|14:194,1,53.125,0|0,3:2|0:0,0:0:0:0:
93,179,18556,2,0,L|85:126,1,53.125,10|0,0:0|0:0,0:0:0:0:
29,30,18764,1,2,3:2:0:0:
68,271,18972,6,0,B|155:301|147:207|228:230,1,170,2|0,3:1|0:0,0:0:0:0:
331,331,19285,2,0,B|288:330|259:370|259:370|247:321|207:305,1,170,2|0,3:1|0:0,0:0:0:0:
222,228,19597,1,2,0:0:0:0:
146,360,19806,6,0,B|124:355|124:355|107:368|107:368|87:364,1,63.7500024318696,2|0,0:0|3:2,0:0:0:0:
55,358,20118,1,2,0:0:0:0:
55,358,20222,1,8,0:0:0:0:
68,271,20431,1,2,3:2:0:0:
166,74,20639,5,2,3:2:0:0:
183,98,20743,1,0,0:0:0:0:
193,125,20847,1,2,0:1:0:0:
91,20,21056,1,10,0:1:0:0:
66,12,21160,1,2,0:1:0:0:
221,212,21368,6,2,P|311:244|377:178,1,191.250007295609,2|0,3:1|3:2,0:1:0:0:
385,164,21785,1,0,0:0:0:0:
385,164,21889,1,8,0:0:0:0:
289,144,22097,1,0,3:2:0:0:
505,370,22306,6,0,B|491:340|491:340|462:330,1,63.7500024318696,2|0,3:2|0:0,0:0:0:0:
427,258,22514,2,0,B|394:255|394:255|370:275,1,63.7500024318696,2|0,0:0|3:2,0:0:0:0:
313,335,22722,1,10,0:0:0:0:
313,335,22826,2,0,P|341:356|379:355,1,63.7500024318696,2|0,0:0|0:0,0:0:0:0:
494,185,23035,2,0,B|471:165|467:133|467:133|472:78|484:18,1,170,2|0,0:0|0:0,0:0:0:0:
439,1,23347,1,0,3:2:0:0:
420,11,23451,1,0,0:0:0:0:
408,27,23556,1,8,0:0:0:0:
389,166,23764,2,0,P|378:136|362:108,1,63.7500024318696,2|0,0:0|0:0,0:0:0:0:
139,61,23972,6,0,B|156:47|157:28|157:28|247:17,1,127.500004863739,2|2,3:2|0:0,0:0:0:0:
321,42,24285,1,2,3:2:0:0:
286,89,24389,1,10,0:0:0:0:
227,99,24493,1,2,0:0:0:0:
61,303,24701,6,0,P|19:247|141:223,1,255,2|0,3:2|3:2,0:0:0:0:
146,305,25118,1,0,0:0:0:0:
144,313,25222,1,10,0:0:0:0:
238,221,25431,1,0,3:2:0:0:
395,368,25639,6,2,P|437:322|433:217,1,170,2|0,3:1|0:0,0:1:0:0:
386,154,25951,2,0,P|375:71|425:5,1,170,2|0,0:1|0:0,0:0:0:0:
508,16,26264,1,2,0:1:0:0:
386,154,26472,6,2,B|336:184|336:184|227:158,1,170,2|0,0:1|3:2,0:1:0:0:
160,97,26785,2,0,B|210:67|210:67|319:93,1,170,2|0,0:1|0:0,0:0:0:0:
386,154,27097,1,2,0:1:0:0:
280,346,27306,6,2,L|110:327,1,148.750001418591,2|0,3:1|0:0,0:1:0:0:
32,201,27618,2,2,L|180:217,1,148.750001418591,10|0,0:3|0:0,0:1:0:0:
298,231,27931,1,6,0:3:0:0:
36,356,28139,5,10,0:1:0:0:
25,306,28243,1,10,0:1:0:0:
132,127,28451,6,0,B|153:56|153:56|81:34,1,148.750001418591,12|0,0:0|0:0,0:0:0:0:
72,31,28764,1,0,3:2:0:0:
179,216,28972,6,0,L|281:200,1,101.999996887207,6|0,3:2|0:0,0:0:0:0:
363,166,29285,1,0,3:2:0:0:
434,219,29389,2,0,L|487:227,2,50.9999984436036,10|0|0,0:0|0:0|0:0,0:0:0:0:
356,256,29701,1,0,0:0:0:0:
356,256,29806,5,2,0:0:0:0:
289,107,30014,1,0,3:2:0:0:
422,3,30222,5,10,0:0:0:0:
489,152,30431,1,0,0:0:0:0:
328,21,30639,6,0,P|272:12|218:40,1,101.999996887207,2|2,3:2|0:0,0:0:0:0:
149,196,31056,5,10,0:0:0:0:
149,196,31160,2,0,P|174:179|179:82,1,101.999996887207,2|0,0:0|0:0,0:0:0:0:
98,29,31472,6,0,B|77:25|56:7|56:7|111:136,1,170,10|0,0:0|3:2,0:0:0:0:
53,281,31785,2,0,B|32:285|11:303|11:303|66:174,1,170,10|0,0:3|3:2,0:0:0:0:
152,295,32097,2,0,P|196:289|227:258,1,85,14|0,0:0|0:0,0:0:0:0:
297,175,32306,6,2,B|383:143|383:247|465:220,1,178.499994552612,2|0,3:1|0:0,0:1:0:0:
326,369,32722,2,0,P|303:335|319:250,1,118.999996368408,8|2,0:0|0:0,0:0:0:0:
380,214,33035,2,0,P|392:182|353:104,1,118.999996368408
217,19,33347,6,2,B|255:49|260:96|260:96|268:50|308:25,1,178.499994552612,2|0,3:1|0:0,0:1:0:0:
404,25,33764,1,2,0:1:0:0:
297,175,33972,2,2,P|245:182|188:149,1,118.999996368408,2|0,3:1|0:0,0:1:0:0:
143,76,34285,2,0,L|84:87,1,59.4999981842042,2|8,3:1|0:0,0:0:0:0:
51,177,34493,1,0,0:0:0:0:
51,177,34597,2,0,L|109:165,1,59.4999981842042,2|0,0:0|0:0,0:0:0:0:
10,47,34806,1,0,0:0:0:0:
7,313,35014,6,2,B|94:295|94:295|136:318|136:318|164:282|164:282|252:265,1,272,2|0,3:1|0:0,0:1:0:0:
372,106,35639,5,2,3:2:0:0:
322,194,35847,1,2,0:0:0:0:
330,209,35951,1,2,3:2:0:0:
338,224,36056,1,10,0:0:0:0:
347,239,36160,1,2,0:0:0:0:
270,106,36368,2,0,P|286:49|349:11,1,118.999996368408,2|0,3:2|0:0,0:0:0:0:
493,129,36681,6,0,B|448:65|356:94|356:94|429:90|421:157|486:134,1,272,2|0,3:2|0:0,0:0:0:0:
425,313,37306,6,0,P|362:273|363:166,1,178.499994552612,2|2,3:2|3:1,0:0:0:0:
449,220,37722,1,8,0:0:0:0:
449,220,37826,1,2,0:1:0:0:
347,374,38035,2,2,P|303:332|247:317,1,118.999996368408,2|0,0:1|0:0,0:1:0:0:
154,308,38347,2,0,L|165:367,1,59.4999981842042,2|0,3:2|0:0,0:0:0:0:
217,236,38556,2,0,L|205:178,1,59.4999981842042,10|0,0:0|0:0,0:0:0:0:
73,265,38764,1,2,0:0:0:0:
40,17,38972,6,0,B|133:39|133:39|129:44|129:44|235:70,1,204,2|0,3:2|0:0,0:0:0:0:
458,17,39389,2,0,P|396:5|342:48,1,136,8|0,0:0|0:0,0:0:0:0:
300,109,39701,2,0,P|249:150|184:139,1,136,0|0,3:2|0:0,0:0:0:0:
32,11,40014,6,0,B|12:57|12:57|59:209,1,204,2|0,3:2|0:0,0:0:0:0:
103,318,40431,1,2,0:0:0:0:
184,92,40639,2,0,P|172:156|211:222,1,136,2|0,3:2|0:0,0:0:0:0:
195,303,40951,2,0,P|244:345|321:344,1,136,2|0,3:2|0:0,0:0:0:0:
396,369,41264,1,2,0:0:0:0:
396,369,41368,1,0,0:0:0:0:
396,369,41472,1,0,0:0:0:0:
485,102,41681,6,0,B|463:152|425:112|400:147|400:147|391:160|390:180|390:180|383:162|370:153|370:153|335:128|313:178|275:138,1,272,2|0,3:2|0:0,0:0:0:0:
174,1,42306,6,0,P|204:3|228:19,1,59.4999981842042,2|0,3:1|0:0,0:0:0:0:
202,96,42514,2,0,P|171:93|147:77,1,59.4999981842042,2|0,0:1|3:2,0:0:0:0:
26,15,42722,1,10,0:1:0:0:
26,15,42826,2,0,P|13:57|11:76,1,59.4999981842042,2|0,0:1|0:0,0:0:0:0:
90,183,43035,2,0,P|112:241|127:298,2,118.999996368408,2|2|2,0:1|0:1|0:1,0:0:0:0:
7,158,43556,1,10,0:1:0:0:
190,194,43764,1,2,0:1:0:0:
11,362,43972,5,2,3:2:0:0:
25,347,44111,5,10,0:0:0:0:
32,368,44250,5,10,0:3:0:0:
131,274,44389,5,6,0:3:0:0:
117,259,44528,5,2,3:2:0:0:
110,280,44667,5,6,0:3:0:0:
198,358,44806,5,2,3:2:0:0:
467,373,45118,5,8,0:0:0:0:
467,373,45222,1,8,0:0:0:0:
345,330,45431,1,8,0:0:0:0:
437,248,45639,6,2,B|416:120|416:120|446:72,1,178.499994552612,6|0,3:1|0:0,0:1:0:0:
302,16,46056,2,0,B|289:73|289:73|343:100,1,118.999996368408,8|2,0:0|0:0,0:0:0:0:
381,30,46368,1,0,0:0:0:0:
381,30,46472,1,0,3:2:0:0:
253,186,46681,6,2,B|257:197|268:204|268:204|259:115|161:114,1,178.499994552612,2|0,0:1|0:0,0:1:0:0:
109,179,47097,1,2,0:1:0:0:
1,28,47306,2,2,P|54:50|76:103,1,118.999996368408,2|0,3:1|0:0,0:1:0:0:
26,166,47618,2,0,P|25:198|45:235,1,59.4999981842042,2|8,3:1|0:0,0:0:0:0:
113,321,47826,1,0,0:0:0:0:
113,321,47931,2,0,P|113:288|94:252,1,59.4999981842042,2|8,0:0|0:0,0:0:0:0:
30,306,48139,1,0,0:0:0:0:
328,357,48347,6,2,B|325:365|325:365|350:349|350:349|336:316|336:316|362:114,1,272,2|0,0:1|0:0,0:1:0:0:
260,125,48972,5,2,3:1:0:0:
394,45,49181,1,2,0:1:0:0:
410,53,49285,1,2,3:1:0:0:
423,65,49389,1,10,0:1:0:0:
431,79,49493,1,2,0:1:0:0:
318,13,49701,1,2,3:1:0:0:
497,169,50014,6,2,B|444:217|373:197|351:142|351:142|361:120|361:120|385:156|422:159,1,272,2|0,3:1|0:0,0:1:0:0:
498,341,50639,5,0,3:2:0:0:
436,297,50743,1,2,0:1:0:0:
440,286,50847,1,2,0:1:0:0:
442,275,50951,1,2,3:1:0:0:
348,371,51160,1,2,0:1:0:0:
264,308,51368,2,2,P|234:262|232:186,1,118.999996368408,10|0,0:1|0:0,0:1:0:0:
291,147,51681,1,0,3:2:0:0:
133,263,51889,1,8,0:0:0:0:
130,241,51993,1,0,0:0:0:0:
105,181,52097,1,8,0:0:0:0:
91,168,52201,1,8,0:0:0:0:
35,135,52306,6,2,P|11:64|117:29,1,204,2|0,3:1|0:0,0:1:0:0:
226,117,52722,2,0,P|199:122|221:53,1,136,8|0,0:0|3:0,0:0:0:0:
311,97,53035,2,0,P|347:50|292:29,1,136,8|0,0:0|0:0,0:0:0:0:
288,184,53347,6,2,P|321:272|343:384,1,204,2|0,3:1|0:0,0:1:0:0:
230,310,53764,1,2,0:1:0:0:
510,364,53972,6,2,L|368:341,1,136,2|0,3:1|0:0,0:1:0:0:
343,255,54285,2,0,L|477:276,1,136,2|0,3:1|0:0,0:0:0:0:
512,196,54597,1,2,0:1:0:0:
512,196,54701,1,0,3:2:0:0:
397,146,54910,1,0,0:0:0:0:
397,146,55014,1,2,3:2:0:0:
494,56,55222,1,10,0:0:0:0:
379,6,55431,1,2,0:0:0:0:
242,94,55639,6,0,L|260:213,1,118.999996368408,2|2,3:1|0:1,0:0:0:0:
159,58,56056,1,10,0:1:0:0:
159,58,56160,2,0,L|150:0,1,59.4999981842042,2|0,0:1|0:0,0:0:0:0:
98,125,56368,2,0,L|116:244,2,118.999996368408,2|2|2,0:1|0:1|0:1,0:0:0:0:
15,89,56889,2,0,L|6:31,2,59.4999981842042,10|0|2,0:1|0:0|0:1,0:0:0:0:
45,285,57306,5,0,3:2:0:0:
45,285,57410,2,0,P|106:283|147:323,1,118.999996368408,10|0,0:3|3:2,0:0:0:0:
220,368,57722,1,8,0:0:0:0:
220,368,57826,2,0,P|227:347|257:317,1,59.4999981842042,10|0,0:0|3:2,0:0:0:0:
347,188,58035,2,0,L|416:199,1,68,6|0,0:0|0:0,0:0:0:0:
405,282,58243,2,0,L|474:293,1,68,8|0,0:0|0:0,0:0:0:0:
293,96,58451,6,0,L|158:117,1,136,14|0,0:0|0:0,0:0:0:0:
104,203,58764,1,0,3:2:0:0:
359,14,58972,5,6,3:2:0:0:
450,63,59181,1,2,0:0:0:0:
490,157,59389,1,10,0:0:0:0:
490,157,59493,1,2,0:0:0:0:
360,33,59701,5,2,0:0:0:0:
388,130,59910,1,2,0:0:0:0:
388,130,60014,1,2,0:0:0:0:
339,218,60222,1,10,0:0:0:0:
242,245,60431,1,2,0:0:0:0:
440,254,60639,6,2,P|487:302|511:363,1,127.500004863739,2|0,3:1|0:0,0:1:0:0:
498,367,60951,2,2,P|473:308|429:264,1,127.500004863739,2|0,3:1|0:0,0:1:0:0:
358,314,61264,1,2,0:1:0:0:
256,160,61472,6,2,B|233:100|233:100|244:38,1,127.500004863739,2|0,3:1|0:0,0:1:0:0:
258,37,61785,2,2,B|247:99|247:99|270:159,1,127.500004863739,2|0,3:1|0:0,0:1:0:0:
339,218,62097,1,2,0:1:0:0:
138,171,62306,5,2,3:1:0:0:
61,120,62514,1,2,0:1:0:0:
21,35,62722,1,10,0:1:0:0:
21,35,62826,1,2,0:1:0:0:
162,163,63035,5,2,0:1:0:0:
182,256,63243,1,2,0:1:0:0:
182,256,63347,1,2,0:1:0:0:
111,321,63556,1,10,0:1:0:0:
19,290,63764,1,2,3:1:0:0:
206,355,63972,6,0,B|276:368|258:280|333:288,1,152.999995330811,10|0,0:3|0:0,0:0:0:0:
458,231,64285,2,0,P|413:269|428:354,1,152.999995330811,6|4,0:3|0:3,0:0:0:0:
510,359,64597,1,6,0:3:0:0:
353,208,64806,6,0,P|335:130|311:60,1,152.999995330811,2|8,3:2|0:0,0:0:0:0:
468,7,65118,2,0,P|443:79|426:153,1,152.999995330811,10|8,0:0|0:0,0:0:0:0:
512,159,65431,1,10,0:3:0:0:
299,122,65639,6,0,P|261:128|241:148,1,63.7500024318696,6|0,3:1|0:0,0:0:0:0:
165,147,65847,2,0,P|151:182|158:210,1,63.7500024318696,2|0,0:1|3:2,0:0:0:0:
202,277,66056,1,10,0:1:0:0:
202,277,66160,2,0,P|223:259|239:225,1,63.7500024318696,2|0,0:1|0:0,0:0:0:0:
60,160,66368,2,0,P|36:103|39:24,1,127.500004863739,2|10,0:1|0:1,0:0:0:0:
118,24,66681,1,2,3:1:0:0:
1,243,66889,1,10,0:1:0:0:
220,360,67097,1,2,0:1:0:0:
220,360,67201,1,2,0:0:0:0:
220,360,67306,6,2,P|185:334|98:332,1,127.500004863739,2|0,3:1|0:0,0:1:0:0:
19,364,67618,2,2,P|7:313|60:246,1,127.500004863739,2|0,3:1|0:0,0:1:0:0:
128,244,67931,1,2,0:1:0:0:
254,18,68139,6,2,P|220:69|230:135,1,127.500004863739,2|0,0:1|3:2,0:1:0:0:
208,211,68451,2,2,P|259:245|325:235,1,127.500004863739,2|0,0:1|0:0,0:1:0:0:
389,184,68764,1,2,0:1:0:0:
491,371,68972,5,2,3:1:0:0:
478,356,69076,1,2,0:1:0:0:
472,337,69181,1,2,0:1:0:0:
471,317,69285,1,2,3:1:0:0:
479,300,69389,2,0,B|481:253|539:202|487:117,1,191.250007295609,10|0,0:1|0:0,0:0:0:0:
400,94,69806,1,0,0:0:0:0:
400,94,69910,1,0,0:0:0:0:
400,94,70014,1,0,3:2:0:0:
463,27,70222,1,8,0:0:0:0:
487,117,70431,1,0,0:0:0:0:
366,4,70639,6,0,L|234:19,1,127.500004863739,2|2,3:2|0:0,0:0:0:0:
176,113,70951,1,0,3:2:0:0:
176,113,71056,2,0,L|242:120,1,63.7500024318696,10|0,0:0|0:0,0:0:0:0:
162,29,71264,2,0,L|96:36,1,63.7500024318696,2|0,0:0|3:2,0:0:0:0:
33,112,71472,2,0,P|59:178|76:248,1,127.500004863739,2|0,0:0|3:2,0:0:0:0:
183,228,71785,2,0,P|157:294|140:364,1,127.500004863739,2|0,0:0|0:0,0:0:0:0:
141,367,72097,1,2,0:0:0:0:
13,323,72306,1,0,3:2:0:0:
13,323,72410,1,0,0:0:0:0:
13,323,72514,1,0,3:2:0:0:
141,367,72722,6,0,B|237:376|214:273|316:293,1,191.250007295609,14|2,0:0|0:0,0:0:0:0:
331,297,73139,2,0,L|316:366,1,63.7500024318696
345,302,73347,2,0,L|330:371,1,63.7500024318696,2|0,3:2|0:0,0:0:0:0:
359,307,73556,2,0,L|344:376,1,63.7500024318696,10|0,0:0|0:0,0:0:0:0:
453,244,73764,1,2,0:0:0:0:
502,347,73972,5,2,3:2:0:0:
352,188,74181,1,10,0:0:0:0:
510,37,74389,1,10,0:0:0:0:
510,37,74493,1,2,0:0:0:0:
510,37,74597,1,2,3:2:0:0:
447,140,74806,6,0,P|405:91|338:78,1,127.500004863739,2|0,3:2|0:0,0:0:0:0:
244,154,75118,2,0,B|263:129|263:129|237:32,1,127.500004863739,6|0,3:2|0:0,0:0:0:0:
116,13,75431,2,0,P|133:43|174:59,1,63.7500024318696,6|0,3:2|0:0,0:0:0:0:
312,3,75639,5,2,3:2:0:0:
