osu file format v14

[General]
AudioFilename: audio.mp3
AudioLeadIn: 0
PreviewTime: 2240
Countdown: 0
SampleSet: Soft
StackLeniency: 0.3
Mode: 0
LetterboxInBreaks: 0
WidescreenStoryboard: 1

[Editor]
Bookmarks: 75586
DistanceSpacing: 1
BeatDivisor: 4
GridSize: 4
TimelineZoom: 1.5

[Metadata]
Title:GCN Yoshi Circuit (Cut Ver.)
TitleUnicode:GC ヨッシーサーキット (Cut Ver.)
Artist:Atsuko Asahi
ArtistUnicode:朝日温子
Creator:Pache Knowledge
Version:Down's Hard
Source:マリオカート8
Tags:phynta down ascended -ascended- -_ascended_- mario kart mariokart deluxe 8 mk8d mk8dx mk8 nintendo wii u switch instrumental jazz racing video game roda totsuki roda_totsuki reiSevia
BeatmapID:3697172
BeatmapSetID:1587739

[Difficulty]
HPDrainRate:5
CircleSize:3.5
OverallDifficulty:7
ApproachRate:8
SliderMultiplier:1.65
SliderTickRate:1

[Events]
//Background and Video events
0,0,"yoshis.jpg",0,0
//Break Periods
//Storyboard Layer 0 (Background)
//Storyboard Layer 1 (Fail)
//Storyboard Layer 2 (Pass)
//Storyboard Layer 3 (Foreground)
//Storyboard Layer 4 (Overlay)
//Storyboard Sound Samples

[TimingPoints]
640,416.666666666667,4,2,1,65,1,0
640,-100,4,2,1,65,0,0
2306,416.666666666667,4,2,1,65,1,0
28972,-111.111111111111,4,2,1,65,0,0
30639,-100,4,2,1,65,0,0

[Colours]
Combo1 : 176,255,255
Combo2 : 255,196,225
Combo3 : 79,79,255
Combo4 : 255,255,147
Combo5 : 215,215,215
Combo6 : 255,53,53
Combo7 : 255,157,111

[HitObjects]
243,91,640,5,8,0:0:0:0:
314,131,848,1,2,3:2:0:0:
371,71,1056,1,8,0:0:0:0:
371,71,1160,1,2,0:0:0:0:
371,71,1265,1,0,0:0:0:0:
444,109,1473,2,0,B|481:130|481:130|477:200,1,82.5,10|0,0:0|3:2,0:0:0:0:
507,199,1785,2,0,P|464:213|409:235,1,82.5,14|0,0:0|0:0,0:0:0:0:
405,260,2098,1,6,0:0:0:0:
303,317,2306,5,2,3:2:0:0:
223,293,2514,1,2,0:0:0:0:
209,216,2722,1,10,0:0:0:0:
209,216,2826,2,0,P|202:190|180:152,1,41.25,2|0,0:0|0:0,0:0:0:0:
161,154,3035,2,0,P|233:133|285:111,1,123.75,2|0,0:0|0:0,0:0:0:0:
310,38,3556,2,0,P|361:50|415:62,1,82.5,8|2,0:0|3:2,0:0:0:0:
446,156,3972,5,2,3:2:0:0:
402,227,4181,1,2,0:0:0:0:
402,227,4285,1,2,3:2:0:0:
402,227,4389,2,0,L|397:300,2,41.25,10|2|0,0:0|0:0|0:0,0:0:0:0:
365,208,4701,2,0,P|308:194|274:141,1,123.75,2|2,3:2|3:2,0:0:0:0:
270,59,5222,2,0,P|223:54|179:41,1,82.5,10|2,0:0|0:0,0:0:0:0:
62,95,5639,5,2,3:1:0:0:
132,138,5847,1,2,0:1:0:0:
101,214,6056,1,10,0:1:0:0:
101,214,6160,2,0,L|89:280,1,41.25,2|0,0:1|0:0,0:0:0:0:
59,277,6368,2,0,P|127:299|185:325,1,123.75,2|2,3:1|0:0,0:0:0:0:
243,366,6889,2,0,P|289:351|344:341,1,82.5,10|2,0:0|3:1,0:0:0:0:
442,274,7306,5,2,3:1:0:0:
360,258,7514,1,2,0:1:0:0:
360,258,7618,1,2,3:1:0:0:
360,258,7722,2,0,P|371:217|380:194,2,41.25,10|2|0,0:1|0:1|0:0,0:0:0:0:
318,263,8035,2,0,P|255:230|255:153,1,123.75,2|2,3:1|3:1,0:0:0:0:
279,109,8556,1,10,0:1:0:0:
207,68,8764,1,2,3:1:0:0:
88,128,8972,5,6,3:2:0:0:
159,168,9181,1,2,0:0:0:0:
126,244,9389,1,10,0:0:0:0:
126,244,9493,2,0,P|114:276|115:311,1,41.25,2|0,0:0|0:0,0:0:0:0:
88,316,9701,1,2,3:2:0:0:
88,316,9806,2,0,P|131:327|177:345,1,82.5,2|2,0:0|0:0,0:0:0:0:
243,310,10222,2,0,B|270:279|270:279|250:220,1,82.5,8|2,0:0|3:2,0:0:0:0:
237,126,10639,5,2,3:2:0:0:
315,184,10847,1,2,0:0:0:0:
315,184,10951,1,2,3:2:0:0:
315,184,11056,1,10,0:0:0:0:
315,184,11160,2,0,P|347:176|376:171,1,41.25,2|0,0:0|0:0,0:0:0:0:
394,187,11368,2,0,P|406:107|420:63,1,123.75,2|2,3:2|3:2,0:0:0:0:
352,16,11889,2,0,P|315:27|258:41,1,82.5,8|0,0:0|3:2,0:0:0:0:
175,119,12306,6,0,B|119:103|119:103|93:28,2,123.75,2|2|2,3:1|3:1|0:1,0:0:0:0:
232,178,13139,2,0,L|210:318,2,123.75,2|2|2,0:1|0:1|0:1,0:0:0:0:
305,141,13972,6,0,P|356:119|439:92,2,123.75,2|10|6,3:1|3:3|3:0,0:0:0:0:
247,81,14806,1,10,0:1:0:0:
247,81,14910,1,10,0:1:0:0:
187,138,15118,2,0,P|209:206|220:260,1,123.75,10|0,0:0|3:2,0:0:0:0:
247,362,15639,6,0,P|212:341|149:320,1,82.5,6|2,3:2|0:0,0:0:0:0:
93,347,16056,1,10,0:0:0:0:
93,347,16160,1,2,0:0:0:0:
47,278,16368,1,2,3:2:0:0:
95,211,16576,1,2,0:0:0:0:
95,211,16681,2,0,P|146:206|179:200,1,82.5,2|10,3:2|0:0,0:0:0:0:
234,141,17097,1,2,3:2:0:0:
188,40,17306,6,0,P|242:60|282:72,1,82.5,2|2,3:1|0:1,0:0:0:0:
345,38,17722,1,10,0:1:0:0:
345,38,17826,1,2,0:1:0:0:
411,86,18035,2,0,P|429:148|454:236,1,123.75,2|0,3:1|3:2,0:0:0:0:
512,252,18556,2,0,P|497:292|480:351,1,82.5,10|2,0:0|3:2,0:0:0:0:
380,368,18972,6,0,P|326:333|327:268,1,123.75,2|2,3:1|3:1,0:0:0:0:
342,242,19389,1,8,0:0:0:0:
406,190,19597,2,0,P|427:200|458:206,2,41.25,2|8|2,0:0|0:0|0:0,0:0:0:0:
367,116,20014,1,0,3:2:0:0:
286,134,20222,2,0,P|251:98|246:31,1,82.5,8|2,0:0|3:2,0:0:0:0:
106,14,20639,5,2,3:2:0:0:
158,78,20847,1,2,0:1:0:0:
97,133,21056,1,10,0:1:0:0:
97,133,21160,1,2,0:1:0:0:
158,188,21368,2,0,P|183:249|193:310,1,123.75,2|0,3:1|3:2,0:0:0:0:
130,360,21889,2,0,P|77:356|54:299,1,82.5,8|0,0:0|3:2,0:0:0:0:
0,239,22306,5,2,3:2:0:0:
80,258,22514,1,2,0:0:0:0:
130,192,22722,1,10,0:0:0:0:
130,192,22826,2,0,P|136:162|151:124,1,41.25,2|0,0:0|0:0,0:0:0:0:
127,112,23035,2,0,P|199:136|264:155,1,123.75,2|0,0:0|3:2,0:0:0:0:
287,220,23556,2,0,P|324:210|367:179,1,82.5,8|2,0:0|0:0,0:0:0:0:
422,82,23972,5,2,3:2:0:0:
340,73,24181,1,2,0:0:0:0:
340,73,24285,1,2,3:2:0:0:
340,73,24389,2,0,L|320:143,2,41.25,10|2|0,0:0|0:0|0:0,0:0:0:0:
315,39,24701,2,0,P|257:58|172:75,1,123.75,2|0,0:0|3:2,0:0:0:0:
139,131,25222,2,0,P|147:175|194:204,1,82.5,10|0,0:0|0:0,0:0:0:0:
316,271,25639,6,0,P|383:283|467:294,2,123.75,2|2|2,3:1|0:1|0:1,0:0:0:0:
257,212,26472,2,0,B|248:170|248:170|305:90,2,123.75,2|2|2,0:1|0:1|0:1,0:0:0:0:
202,273,27306,6,0,P|150:287|68:316,2,123.75,2|10|6,3:1|0:3|0:3,0:0:0:0:
268,330,28139,1,10,0:1:0:0:
268,330,28243,1,10,0:1:0:0:
347,307,28451,2,0,P|367:244|396:166,1,123.75,12|0,0:0|3:2,0:0:0:0:
512,93,28972,6,0,P|447:101|348:114,1,148.49999546814,6|10,3:2|0:0,0:0:0:0:
290,74,29597,1,0,0:0:0:0:
290,74,29701,1,0,0:0:0:0:
290,74,29806,1,2,0:0:0:0:
227,127,30014,1,0,3:2:0:0:
148,100,30222,2,0,P|123:63|111:14,1,74.2499977340699,10|0,0:0|0:0,0:0:0:0:
20,118,30639,5,2,3:2:0:0:
88,164,30847,1,2,0:0:0:0:
38,230,31056,1,10,0:0:0:0:
38,230,31160,1,2,0:0:0:0:
38,230,31264,1,2,0:0:0:0:
83,299,31472,2,0,P|121:302|187:323,1,82.5,10|0,0:0|3:2,0:0:0:0:
201,295,31785,2,0,B|227:263|227:263|227:211,1,82.5,10|0,0:3|3:2,0:0:0:0:
198,191,32097,1,14,0:0:0:0:
206,80,32306,6,0,P|301:103|376:114,1,165,2|8,3:1|0:0,0:0:0:0:
346,193,32931,2,0,L|292:212,2,41.25,2|0|0,0:0|0:0|0:0,0:0:0:0:
415,237,33347,1,2,3:1:0:0:
482,188,33556,2,0,P|492:143|502:86,1,82.5,8|2,0:0|0:1,0:0:0:0:
417,24,33972,6,0,P|376:40|334:52,1,82.5,2|0,3:1|0:0,0:0:0:0:
302,30,34285,2,0,P|298:94|283:176,1,123.75,2|0,3:1|0:0,0:0:0:0:
231,212,34806,1,0,0:0:0:0:
280,278,35014,2,0,P|332:296|385:313,1,82.5,2|8,3:1|0:0,0:0:0:0:
417,362,35431,1,0,0:0:0:0:
485,257,35639,5,2,3:2:0:0:
453,180,35847,1,2,0:0:0:0:
453,180,35951,1,2,3:2:0:0:
453,180,36056,2,0,L|494:170,2,41.25,10|2|0,0:0|0:0|0:0,0:0:0:0:
412,169,36368,2,0,P|382:128|377:58,1,82.5,2|0,3:2|0:0,0:0:0:0:
392,60,36681,2,0,P|357:54|293:38,1,82.5,2|8,3:2|0:0,0:0:0:0:
248,97,37097,1,0,0:0:0:0:
327,202,37306,6,0,P|241:178|156:153,2,165,0|8|0,3:2|0:0|0:0,0:0:0:0:
372,271,38347,1,0,3:2:0:0:
446,235,38556,2,0,B|462:202|462:202|424:138,1,82.5,8|0,0:0|0:0,0:0:0:0:
365,45,38972,6,0,P|296:72|262:165,1,165,2|8,3:2|0:0,0:0:0:0:
207,214,39597,2,0,P|216:242|227:269,2,41.25,0|0|0,0:0|3:2|0:0,0:0:0:0:
124,203,40014,1,2,3:2:0:0:
85,129,40222,2,0,P|96:85|113:33,1,82.5,8|2,0:0|0:0,0:0:0:0:
238,17,40639,6,0,P|271:31|306:97,1,82.5,2|0,3:2|0:0,0:0:0:0:
334,88,40951,2,0,P|265:111|197:146,1,123.75,2|0,3:2|0:0,0:0:0:0:
186,208,41472,1,0,0:0:0:0:
258,247,41681,2,0,P|279:284|282:343,1,82.5,2|8,3:2|0:0,0:0:0:0:
217,371,42097,1,0,0:0:0:0:
80,348,42306,5,2,3:1:0:0:
156,317,42514,1,2,0:1:0:0:
164,235,42722,1,10,0:1:0:0:
164,235,42826,2,0,P|172:201|178:176,1,41.25,2|0,0:1|0:0,0:0:0:0:
202,166,43035,1,2,0:1:0:0:
146,105,43243,1,2,0:1:0:0:
215,59,43451,1,2,0:1:0:0:
215,59,43556,2,0,P|261:74|313:79,1,82.5,10|2,0:1|0:1,0:0:0:0:
439,58,43972,6,0,B|451:36|451:36|440:-8,2,55,2|10|10,3:2|0:0|0:3,0:0:0:0:
419,109,44389,2,0,P|384:116|346:130,2,55,6|2|6,0:3|3:2|0:3,0:0:0:0:
467,136,44806,1,2,3:2:0:0:
441,256,45118,5,8,0:0:0:0:
441,256,45222,1,8,0:0:0:0:
364,224,45431,1,8,0:0:0:0:
308,335,45639,6,0,P|294:271|250:162,1,165,6|8,3:1|0:0,0:0:0:0:
298,106,46264,2,0,L|362:96,2,41.25,0|0|0,0:0|0:0|3:2,0:0:0:0:
259,32,46681,1,2,0:1:0:0:
177,43,46889,2,0,P|161:70|145:141,1,82.5,8|2,0:0|0:1,0:0:0:0:
22,152,47306,6,0,P|70:172|104:193,1,82.5,2|0,3:1|0:0,0:0:0:0:
113,225,47618,2,0,P|186:212|248:203,1,123.75,2|0,3:1|0:0,0:0:0:0:
306,246,48139,1,0,0:0:0:0:
296,327,48347,1,2,0:1:0:0:
217,352,48556,2,0,P|175:340|122:327,1,82.5,8|0,0:0|0:0,0:0:0:0:
3,273,48972,5,2,3:1:0:0:
92,260,49181,1,2,0:1:0:0:
92,260,49285,1,2,3:1:0:0:
92,260,49389,2,0,P|105:232|112:213,2,41.25,10|2|0,0:1|0:1|0:0,0:0:0:0:
95,301,49701,2,0,P|139:318|190:338,1,82.5,2|0,3:1|0:0,0:0:0:0:
212,321,50014,2,0,P|231:268|246:226,1,82.5,2|8,3:1|0:0,0:0:0:0:
186,181,50431,1,0,0:0:0:0:
263,85,50639,5,0,3:2:0:0:
263,85,50743,2,0,L|275:34,2,41.25,2|2|2,0:1|0:1|3:1,0:0:0:0:
229,110,51056,2,0,P|195:100|131:85,1,82.5,8|0,0:0|0:0,0:0:0:0:
121,58,51368,1,10,0:1:0:0:
48,98,51576,1,0,0:0:0:0:
48,98,51681,1,0,3:2:0:0:
87,170,51889,2,0,P|96:214|99:264,1,82.5,8|8,0:0|0:0,0:0:0:0:
50,355,52306,6,0,P|138:324|222:295,1,165,2|8,3:1|0:0,0:0:0:0:
283,328,52931,2,0,P|276:351|261:379,2,41.25,0|8|0,3:0|0:0|0:0,0:0:0:0:
359,296,53347,1,2,3:1:0:0:
331,217,53556,2,0,P|377:204|436:189,1,82.5,8|2,0:0|0:1,0:0:0:0:
512,107,53972,6,0,P|465:99|406:86,1,82.5,2|0,3:1|0:0,0:0:0:0:
397,116,54285,2,0,P|348:72|354:-3,1,123.75,2|2,0:1|0:1,0:0:0:0:
434,12,54806,1,0,0:0:0:0:
434,12,54910,1,0,0:0:0:0:
434,12,55014,1,2,3:2:0:0:
497,65,55222,2,0,P|484:119|470:171,1,82.5,10|2,0:0|0:0,0:0:0:0:
485,252,55639,5,2,3:1:0:0:
419,204,55847,1,2,0:1:0:0:
350,249,56056,1,10,0:1:0:0:
350,249,56160,2,0,P|306:239|259:231,1,82.5,2|2,0:1|0:1,0:0:0:0:
208,176,56576,1,2,0:1:0:0:
265,116,56785,1,2,0:1:0:0:
265,116,56889,2,0,P|257:64|251:22,1,82.5,10|2,0:1|0:1,0:0:0:0:
82,15,57306,6,0,P|94:65|100:117,1,82.5,0|2,3:2|0:0,0:0:0:0:
41,156,57722,1,8,0:0:0:0:
41,156,57826,1,10,0:0:0:0:
114,193,58035,1,6,0:0:0:0:
92,272,58243,1,8,0:0:0:0:
157,322,58451,2,0,P|223:327|284:343,1,123.75,14|0,0:0|3:2,0:0:0:0:
410,290,58972,5,6,3:2:0:0:
338,248,59181,1,2,0:0:0:0:
360,168,59389,1,10,0:0:0:0:
360,168,59493,2,0,L|369:108,1,41.25,2|0,0:0|0:0,0:0:0:0:
394,96,59701,2,0,P|351:74|305:47,1,82.5,2|2,0:0|0:0,0:0:0:0:
292,27,60014,1,2,0:0:0:0:
214,56,60222,2,0,P|181:90|180:137,1,82.5,10|2,0:0|0:0,0:0:0:0:
209,231,60639,6,0,P|167:207|77:185,2,123.75,2|2|2,3:1|3:1|0:1,0:0:0:0:
261,295,61472,2,0,P|303:271|393:249,2,123.75,2|2|2,3:1|3:1|0:1,0:0:0:0:
285,187,62306,5,2,3:1:0:0:
337,123,62514,1,2,0:1:0:0:
265,88,62722,1,10,0:1:0:0:
265,88,62826,2,0,P|248:71|238:51,1,41.25,2|0,0:1|0:0,0:0:0:0:
205,32,63035,2,0,P|159:54|98:78,1,82.5,2|2,0:1|0:1,0:0:0:0:
91,50,63347,1,2,0:1:0:0:
29,105,63556,2,0,P|60:139|93:181,1,82.5,10|2,0:1|3:1,0:0:0:0:
31,232,63972,6,0,P|52:281|76:340,1,82.5,10|0,0:3|0:0,0:0:0:0:
63,307,64285,1,6,0:3:0:0:
63,307,64389,1,0,0:0:0:0:
151,332,64597,1,6,0:3:0:0:
208,272,64806,2,0,P|229:223|253:164,1,82.5,2|8,3:2|0:0,0:0:0:0:
240,196,65118,1,10,0:0:0:0:
240,196,65222,1,8,0:0:0:0:
326,174,65431,1,10,0:3:0:0:
392,286,65639,5,6,3:1:0:0:
443,221,65847,1,2,0:1:0:0:
411,149,66056,1,10,0:1:0:0:
411,149,66160,2,0,L|423:77,1,41.25,2|0,0:1|0:0,0:0:0:0:
448,80,66368,2,0,P|379:54|338:33,1,82.5,2|10,0:1|0:1,0:0:0:0:
345,17,66681,1,2,3:1:0:0:
270,53,66889,2,0,P|256:96|247:147,1,82.5,10|2,0:1|0:1,0:0:0:0:
184,231,67306,6,0,P|249:215|312:196,2,123.75,2|2|2,3:1|3:1|0:1,0:0:0:0:
110,192,68139,1,2,0:1:0:0:
110,192,68243,2,0,B|90:169|90:169|99:95,1,82.5,0|2,0:0|0:1,0:0:0:0:
133,98,68556,1,8,0:0:0:0:
92,26,68764,1,2,0:1:0:0:
213,69,68972,6,0,L|261:49,3,41.25,2|2|2|2,3:1|0:1|0:1|3:1,0:0:0:0:
283,27,69389,2,0,P|365:63|380:132,1,165,10|0,0:1|0:0,0:0:0:0:
309,174,70014,1,0,3:2:0:0:
341,249,70222,2,0,P|389:258|455:268,1,82.5,8|0,0:0|0:0,0:0:0:0:
325,346,70639,5,2,3:2:0:0:
267,287,70847,1,2,0:0:0:0:
192,324,71056,1,10,0:0:0:0:
137,261,71264,1,2,0:0:0:0:
61,293,71472,2,0,P|48:246|23:181,1,82.5,2|0,0:0|3:2,0:0:0:0:
8,184,71785,2,0,P|85:159|143:137,1,123.75,2|2,0:0|0:0,0:0:0:0:
138,36,72306,6,0,P|176:60|192:99,1,82.5,0|0,3:2|3:2,0:0:0:0:
271,114,72722,2,0,P|249:184|221:265,1,123.75,14|2,0:0|0:0,0:0:0:0:
197,253,73139,1,0,0:0:0:0:
235,325,73347,1,2,3:2:0:0:
314,301,73556,2,0,P|373:290|412:279,1,82.5,10|2,0:0|0:0,0:0:0:0:
489,175,73972,5,2,3:2:0:0:
411,204,74181,1,10,0:0:0:0:
349,148,74389,1,10,0:0:0:0:
349,148,74493,1,2,0:0:0:0:
349,148,74597,1,2,0:0:0:0:
352,65,74806,2,0,P|295:52|243:31,1,82.5,2|0,3:2|0:0,0:0:0:0:
233,59,75118,2,0,B|197:92|197:92|215:154,1,82.5,6|0,3:2|0:0,0:0:0:0:
228,158,75431,1,6,3:2:0:0:
291,210,75639,5,2,3:2:0:0:
