osu file format v14

[General]
AudioFilename: audio.mp3
AudioLeadIn: 0
PreviewTime: 29383
Countdown: 0
SampleSet: Normal
StackLeniency: 0.4
Mode: 0
LetterboxInBreaks: 0
WidescreenStoryboard: 1

[Editor]
Bookmarks: 29383,32716,59383,62716
DistanceSpacing: 1
BeatDivisor: 3
GridSize: 8
TimelineZoom: 1

[Metadata]
Title:Animal Crossing Result Screen
TitleUnicode:Animal Crossing Result Screen
Artist:Atsuko Asahi
ArtistUnicode:朝日 温子
Creator:freedomdiver
Version:Hard
Source:Mario Kart 8
Tags:mario kart 8
BeatmapID:1328599
BeatmapSetID:629299

[Difficulty]
HPDrainRate:6.1
CircleSize:3.1
OverallDifficulty:5.1
ApproachRate:6.1
SliderMultiplier:2.8
SliderTickRate:1

[Events]
//Background and Video events
0,0,"bg.png",0,0
//Break Periods
//Storyboard Layer 0 (Background)
//Storyboard Layer 1 (Fail)
//Storyboard Layer 2 (Pass)
//Storyboard Layer 3 (Foreground)
//Storyboard Sound Samples

[TimingPoints]
217,850.460666194189,4,1,0,10,1,0
2717,833.333333333333,4,1,0,10,1,0
2717,-133.333333333333,4,1,0,10,0,0
3551,-100,4,1,0,10,0,0
29385,-200,4,1,0,10,0,0
32717,-133.333333333333,4,1,0,10,0,0
33551,-100,4,1,0,10,0,0

[HitObjects]
470,51,216,5,0,2:0:0:0:
474,92,1067,5,0,2:0:0:0:
464,132,1917,5,0,2:0:0:0:
443,166,2717,6,6,P|388:205|302:203,1,140.000005340576,6|6,1:0|1:0,1:0:0:0:
303,114,3550,5,0,3:0:0:0:
231,174,3828,2,0,P|226:223|249:270,1,93.3333333333334,0|0,1:0|1:0,1:0:0:0:
329,282,4383,1,0,3:0:0:0:
264,353,4662,2,0,P|207:348|162:305,1,93.3333333333333,0|0,1:0|1:0,1:0:0:0:
155,241,5217,1,0,3:0:0:0:
288,103,5495,5,0,2:0:0:0:
140,146,5772,1,0,2:0:0:0:
249,254,6051,2,0,P|304:260|358:233,1,93.3333333333333,0|0,1:0|1:0,1:0:0:0:
319,62,6606,2,0,P|285:108|283:162,1,93.3333333333333,0|0,1:0|1:0,1:0:0:0:
306,232,7162,1,0,3:0:0:0:
262,314,7439,1,0,1:0:0:0:
123,236,7717,6,0,P|176:222|229:245,1,93.3333333333333,0|0,1:0|1:0,1:0:0:0:
262,314,8273,1,0,3:0:0:0:
168,314,8551,1,0,1:0:0:0:
204,137,8828,5,0,2:0:0:0:
340,257,9106,1,0,2:0:0:0:
377,81,9383,1,4,3:0:0:0:
301,136,9662,1,0,1:0:0:0:
248,215,9939,2,0,P|216:184|204:137,1,93.3333333333333
143,67,10495,5,0,1:0:0:0:
119,157,10772,1,0,1:0:0:0:
50,220,11050,1,0,3:0:0:0:
138,247,11328,2,0,B|193:269|194:322,1,93.3333333333333,0|0,1:0|1:0,1:0:0:0:
107,329,11884,5,0,3:0:0:0:
280,255,12162,1,0,3:0:0:0:
152,177,12439,1,0,3:0:0:0:
325,103,12716,2,2,P|277:78|215:79,1,93.3333333333333,2|2,1:0|1:0,1:0:0:0:
144,85,13273,1,0,2:0:0:0:
66,136,13551,1,0,3:0:0:0:
153,268,13828,5,0,2:0:0:0:
227,123,14105,1,0,2:0:0:0:
73,226,14384,1,2,3:3:0:0:
235,217,14662,1,0,1:3:0:0:
144,85,14939,1,2,1:3:0:0:
304,72,15217,1,0,3:3:0:0:
152,177,15495,1,2,1:3:0:0:
318,253,15773,1,0,1:3:0:0:
219,28,16051,5,4,3:0:0:0:
144,85,16328,2,0,P|94:96|29:76,1,93.3333333333333,0|0,2:0|2:0,2:0:0:0:
38,182,16883,1,0,3:0:0:0:
116,235,17161,5,0,2:0:0:0:
244,142,17439,1,0,3:0:0:0:
394,183,17717,2,0,P|370:225|375:278,1,93.3333333333333,0|0,1:0|1:0,1:0:0:0:
463,247,18273,1,0,1:0:0:0:
348,357,18551,1,0,1:0:0:0:
438,334,18828,1,0,1:0:0:0:
372,269,19106,1,0,1:0:0:0:
260,379,19384,6,0,P|214:372|164:328,1,93.3333333333333,0|0,1:0|1:0,1:0:0:0:
159,252,19939,1,0,2:0:0:0:
301,133,20217,5,2,3:0:0:0:
318,224,20495,1,0,1:0:0:0:
247,284,20773,1,0,1:0:0:0:
143,160,21051,5,2,3:0:0:0:
214,100,21329,1,0,1:0:0:0:
301,133,21606,1,0,1:0:0:0:
247,284,21884,5,2,3:0:0:0:
159,252,22162,1,0,1:0:0:0:
143,160,22439,1,0,1:0:0:0:
301,133,22717,6,2,P|381:114|417:6,1,186.666666666667,2|2,1:0|1:0,1:0:0:0:
318,36,23551,2,0,P|264:41|221:79,1,93.3333333333333,0|0,1:0|1:0,1:0:0:0:
301,133,24106,1,0,3:0:0:0:
392,101,24384,6,0,P|397:150|376:193,1,93.3333333333333,0|0,2:0|2:0,2:0:0:0:
457,240,24939,2,0,P|420:271|372:281,1,93.3333333333333,0|0,2:0|2:0,2:0:0:0:
370,376,25495,1,0,1:0:0:0:
291,327,25772,1,0,1:0:0:0:
153,341,26051,6,2,P|192:317|223:262,1,93.3333333333333,2|2,1:0|1:0,1:0:0:0:
207,185,26606,1,0,2:0:0:0:
132,127,26884,2,0,P|178:93|231:92,1,93.3333333333333,0|0,1:0|1:0,1:0:0:0:
303,122,27439,1,0,3:0:0:0:
239,229,27716,5,0,3:0:0:0:
239,82,27994,1,0,1:0:0:0:
368,156,28272,1,0,1:0:0:0:
301,273,28551,5,0,3:0:0:0:
373,63,28828,1,0,1:0:0:0:
440,217,29105,1,0,1:0:0:0:
179,187,29384,1,4,3:0:0:0:
169,330,30217,5,0,2:0:0:0:
158,290,31050,5,0,2:0:0:0:
251,247,31328,2,0,L|243:305,1,46.6666666666667,0|0,3:0|3:0,3:0:0:0:
147,250,31883,5,0,2:0:0:0:
244,293,32161,2,0,L|251:247,1,46.6666666666667,0|0,3:0|3:0,3:0:0:0:
136,210,32717,6,0,P|201:176|237:107,1,140.000005340576,0|0,1:0|1:0,1:0:0:0:
165,55,33550,1,0,3:0:0:0:
254,29,33828,2,0,P|298:52|324:95,1,93.3333333333333,0|0,1:0|1:0,1:0:0:0:
414,100,34383,5,0,3:0:0:0:
358,175,34661,2,0,P|344:229|368:282,1,93.3333333333333,0|0,1:0|1:0,1:0:0:0:
406,341,35216,1,0,3:0:0:0:
446,221,35494,5,0,2:0:0:0:
316,344,35772,1,0,2:0:0:0:
145,290,36050,2,0,P|110:257|99:210,1,93.3333333333333,0|0,1:0|1:0,1:0:0:0:
251,136,36605,2,0,P|224:187|173:216,1,93.3333333333333,0|0,1:0|1:0,1:0:0:0:
150,125,37161,1,0,1:0:0:0:
213,47,37439,1,0,3:0:0:0:
342,141,37716,6,0,P|295:148|236:128,1,93.3333333333333,0|0,1:0|1:0,1:0:0:0:
305,52,38272,1,0,3:0:0:0:
396,58,38550,1,0,0:0:0:0:
293,213,38828,5,0,2:0:0:0:
111,201,39105,1,0,2:0:0:0:
213,47,39383,1,4,3:0:0:0:
253,131,39661,1,0,1:0:0:0:
201,210,39939,2,0,P|211:260|244:294,1,93.3333333333333,0|0,1:0|1:0,1:0:0:0:
384,189,40494,5,0,3:0:0:0:
293,213,40772,1,0,1:0:0:0:
238,290,41050,2,0,P|193:318|140:315,1,93.3333333333333,0|0,1:0|1:0,1:0:0:0:
71,274,41605,1,0,0:0:0:0:
72,367,41883,5,0,3:0:0:0:
201,210,42161,1,0,1:0:0:0:
201,335,42439,1,0,1:0:0:0:
72,178,42716,2,2,P|119:160|152:116,1,93.3333333333333
223,74,43272,1,0,1:0:0:0:
315,61,43550,1,0,3:0:0:0:
422,183,43828,5,0,2:0:0:0:
263,215,44105,1,0,2:0:0:0:
403,91,44383,1,2,3:0:0:0:
244,122,44661,1,0,1:0:0:0:
350,244,44939,1,2,1:0:0:0:
173,183,45216,1,0,3:0:0:0:
332,152,45494,1,2,1:0:0:0:
191,275,45772,1,0,1:0:0:0:
315,61,46050,5,4,3:0:0:0:
224,36,46328,2,0,P|174:46|133:79,1,93.3333333333333,0|0,2:0|2:0,2:0:0:0:
96,151,46883,1,0,3:0:0:0:
258,199,47161,5,0,2:0:0:0:
224,36,47439,1,0,3:0:0:0:
166,227,47716,2,0,P|192:269|231:291,1,93.3333333333333,0|0,1:0|1:0,1:0:0:0:
327,262,48272,1,0,1:0:0:0:
276,108,48550,1,0,1:0:0:0:
347,171,48828,1,0,1:0:0:0:
258,199,49105,1,0,1:0:0:0:
229,290,49383,2,0,P|189:266|166:227,1,93.3333333333333,0|0,1:0|1:0,1:0:0:0:
188,137,49939,1,0,2:0:0:0:
327,262,50216,5,2,3:0:0:0:
166,227,50494,1,0,1:0:0:0:
276,108,50772,1,0,1:0:0:0:
238,292,51050,5,2,3:0:0:0:
188,137,51328,1,0,1:0:0:0:
347,171,51605,1,0,1:0:0:0:
166,227,51883,5,2,3:0:0:0:
276,108,52161,1,0,1:0:0:0:
117,74,52439,1,0,1:0:0:0:
258,199,52716,6,2,P|347:167|363:80,1,186.666666666667,2|2,1:0|1:0,1:0:0:0:
299,18,53550,1,0,3:0:0:0:
276,108,53828,1,0,1:0:0:0:
187,77,54105,1,0,0:0:0:0:
104,121,54383,6,0,B|88:169|117:209,1,93.3333333333333,0|0,2:0|2:0,2:0:0:0:
47,271,54939,2,0,B|80:308|129:303,1,93.3333333333333,0|0,2:0|2:0,2:0:0:0:
204,246,55494,1,0,1:0:0:0:
291,278,55772,1,0,1:0:0:0:
376,166,56050,6,2,B|335:203|278:191,1,93.3333333333333,2|2,1:0|1:0,1:0:0:0:
219,131,56605,1,0,1:0:0:0:
181,45,56883,2,0,P|135:84|122:132,1,93.3333333333333,0|0,1:0|1:0,1:0:0:0:
153,201,57439,1,0,3:0:0:0:
276,131,57716,5,0,3:0:0:0:
170,150,57994,1,0,1:0:0:0:
164,255,58272,1,0,1:0:0:0:
221,70,58550,5,0,3:0:0:0:
121,199,58828,1,0,1:0:0:0:
261,282,59105,1,0,1:0:0:0:
122,12,59383,1,2,3:0:0:0:
280,200,60216,5,0,2:0:0:0:
249,168,61050,5,0,2:0:0:0:
240,211,61883,5,0,2:0:0:0:
256,192,62716,12,0,69383,2:0:0:0:
