osu file format v14

[General]
AudioFilename: audio.mp3
AudioLeadIn: 0
PreviewTime: 1985
Countdown: 0
SampleSet: Soft
StackLeniency: 0.7
Mode: 0
LetterboxInBreaks: 0
WidescreenStoryboard: 1

[Editor]
Bookmarks: 2151,12783,13364,23431,34099,44759,55455
DistanceSpacing: 0.8
BeatDivisor: 16
GridSize: 32
TimelineZoom: 4.299998

[Metadata]
Title:Halloween
TitleUnicode:Halloween
Artist:Atsuko Asahi & Manaka Kataoka
ArtistUnicode:朝日 温子 & 片岡 真央
Creator:Veridian
Version:October 31st (Insane)
Source:とびだせ どうぶつの森
Tags:Animal Crossing: Crossing New Leaf Autumn Fall Festive Spooky Theme Background VGM BGM
BeatmapID:1806879
BeatmapSetID:857738

[Difficulty]
HPDrainRate:6
CircleSize:5.6
OverallDifficulty:7
ApproachRate:8.6
SliderMultiplier:2.6
SliderTickRate:1

[Events]
//Background and Video events
0,0,"22802846_148227619121513_846462664480653312_n.jpg",0,0
//Break Periods
//Storyboard Layer 0 (Background)
//Storyboard Layer 1 (Fail)
//Storyboard Layer 2 (Pass)
//Storyboard Layer 3 (Foreground)
//Storyboard Sound Samples

[TimingPoints]
1499,652.173913043478,4,2,0,35,1,0
2151,718.562874251497,4,2,0,35,1,0
2869,685.714285714286,4,2,0,35,1,0
3553,674.157303370787,4,2,0,35,1,0
4156,674.157303370787,4,2,0,35,1,0
4837,659.340659340659,4,2,0,35,1,0
7154,659.340659340659,4,2,0,35,1,0
7155,-66.6666666666667,4,2,0,35,0,0
7483,659.340659340659,4,2,0,35,1,0
7487,-100,4,2,0,35,0,0
8803,659.340659340659,4,2,0,35,1,0
9480,659.340659340659,4,2,0,35,1,0
10149,674.157303370787,4,2,0,35,1,0
11507,674.157303370787,4,2,0,35,1,0
11507,-125,4,2,0,35,0,0
11801,674.157303370787,4,2,0,35,1,0
11801,-66.6666666666667,4,2,0,35,0,0
12808,666.666666666667,4,2,0,35,1,0
12808,-90.9090909090909,4,2,0,35,0,0
14474,-100,4,2,0,35,0,0
14808,-125,4,2,0,35,0,0
15141,-166.666666666667,4,2,0,35,0,0
15474,-90.9090909090909,4,2,0,35,0,0
16159,666.666666666667,4,2,0,35,1,0
16159,-90.9090909090909,4,2,0,35,0,0
18492,-90.9090909090909,4,2,0,35,0,0
18815,666.666666666667,4,2,0,35,1,0
18815,-76.9230769230769,4,2,0,35,0,0
19148,-66.6666666666667,4,2,0,35,0,0
19471,666.666666666667,4,2,0,35,1,0
19471,-58.8235294117647,4,2,0,35,0,0
19804,-76.9230769230769,4,2,0,35,0,0
20137,-111.111111111111,4,2,0,35,0,0
20471,-142.857142857143,4,2,0,35,0,0
21117,666.666666666667,4,2,0,35,1,0
21494,681.818181818182,4,2,0,35,1,0
21494,-100,4,2,0,35,0,0
22187,666.666666666667,4,2,0,35,1,0
22510,666.666666666667,4,2,0,35,1,0
23470,666.666666666667,4,2,0,35,1,0
24146,674.157303370787,4,2,0,35,1,0
24614,674.157303370787,4,2,0,35,1,0
24813,666.666666666667,4,2,0,35,1,0
25642,714.285714285714,4,2,0,35,1,0
26142,666.666666666667,4,2,0,35,1,0
29475,674.157303370787,4,2,0,35,1,0
30145,666.666666666667,4,2,0,35,1,0
30819,666.666666666667,4,2,0,35,1,0
31819,-50,4,2,0,35,0,0
32193,-50,4,2,0,35,0,0
32234,-1000,4,2,0,35,0,0
34152,666.666666666667,4,2,0,35,1,0
34152,-100,4,2,0,35,0,0
38152,674.157303370787,4,2,0,35,1,0
38455,674.157303370787,4,2,0,35,1,0
38802,674.157303370787,4,2,0,35,1,0
38980,674.157303370787,4,2,0,35,1,0
39485,645.161290322581,4,2,0,35,1,0
40110,645.161290322581,4,2,0,35,1,0
40343,645.161290322581,4,2,0,35,1,0
40463,645.161290322581,4,2,0,35,1,0
40785,-76.9230769230769,4,2,0,35,0,0
41108,674.157303370787,4,2,0,35,1,0
41108,-90.9090909090909,4,2,0,35,0,0
41487,674.157303370787,4,2,0,35,1,0
41487,-90.9090909090909,4,2,0,35,0,0
42161,-76.9230769230769,4,2,0,35,0,0
42456,-100,4,2,0,35,0,0
42835,-125,4,2,0,35,0,0
43834,674.157303370787,4,2,0,35,1,0
43834,-76.9230769230769,4,2,0,35,0,0
44144,674.157303370787,4,2,0,35,1,0
44144,-76.9230769230769,4,2,0,35,0,0
44818,666.666666666667,4,2,0,35,1,1
44818,-83.3333333333333,4,2,0,35,0,1
46151,-111.111111111111,4,2,0,35,0,1
46484,-71.4285714285714,4,2,0,35,0,1
47486,-83.3333333333333,4,2,0,35,0,1
49842,659.340659340659,4,2,0,35,1,1
50161,662.983425414365,4,2,0,35,1,1
50161,-100,4,2,0,35,0,1
50823,-71.4285714285714,4,2,0,35,0,1
51155,-55.5555555555556,4,2,0,35,0,1
51486,-45.4545454545455,4,2,0,35,0,1
51818,-71.4285714285714,4,2,0,35,0,1
52149,-83.3333333333333,4,2,0,35,0,1
53505,662.983425414365,4,2,0,35,1,0
54499,-125,4,2,0,35,0,0
55497,652.173913043478,4,2,0,35,1,0
57137,681.818181818182,4,2,0,35,1,0
57137,-76.9230769230769,4,2,0,35,0,0
58159,681.818181818182,4,2,0,35,1,0
58159,-100,4,2,0,35,0,0
58840,681.818181818182,4,2,0,35,1,0
59280,681.818181818182,4,2,0,35,1,0
59450,681.818181818182,4,2,0,35,1,0
59790,-76.9230769230769,4,2,0,35,0,0
60813,674.157303370787,4,2,0,35,1,0
60813,-100,4,2,0,35,0,0
61824,555.555555555556,4,2,0,35,1,0
62419,666.666666666667,4,2,0,35,1,0
62419,-76.9230769230769,4,2,0,35,0,0
62771,666.666666666667,4,2,0,35,1,0
62975,697.674418604651,4,2,0,35,1,0
63659,666.666666666667,4,2,0,35,1,0

[Colours]
Combo1 : 255,79,255
Combo2 : 98,82,239
Combo3 : 247,91,53
SliderTrackOverride : 32,32,32
SliderBorder : 255,214,51

[HitObjects]
256,192,194,12,0,1988,0:0:0:0:
28,196,2151,6,0,B|128:148|128:256|236:192,1,216.666666666667
296,224,2869,2,0,P|304:192|285:149,1,65
224,116,3211,1,0,0:0:0:0:
268,292,3554,2,0,P|300:300|343:281,1,65
376,220,3890,1,0,0:0:0:0:
267,45,4837,6,0,B|160:-1|160:92|57:47,1,216.666666666667
2,18,5496,2,0,P|-6:50|13:93,1,65
74,126,5826,1,0,0:0:0:0:
31,288,6155,1,0,0:0:0:0:
31,288,6238,1,0,0:0:0:0:
31,288,6320,1,0,0:0:0:0:
31,288,6402,1,0,0:0:0:0:
31,288,6485,2,0,L|6:150,1,130
164,216,7155,6,0,P|151:194|130:259,1,146.250005578995
120,260,7483,6,0,B|220:212|220:300|306:260,1,195
380,292,8142,2,0,P|388:260|369:217,1,65
316,180,8472,1,0,0:0:0:0:
352,360,8719,1,0,0:0:0:0:
355,370,8803,2,0,L|425:357,1,65
500,384,9132,1,0,0:0:0:0:
479,242,9480,2,0,P|487:272|479:304,1,65
407,272,9809,1,0,0:0:0:0:
512,178,10149,6,0,B|449:140|449:212|372:166,1,130
328,116,10654,1,0,0:0:0:0:
264,196,10823,1,0,0:0:0:0:
236,160,10935,1,0,0:0:0:0:
212,188,11047,1,0,0:0:0:0:
196,176,11160,1,0,0:0:0:0:
136,176,11328,1,0,0:0:0:0:
72,176,11507,6,0,L|1:176,1,52
28,44,11801,6,0,P|45:77|121:84,1,97.50000371933
100,261,12138,2,0,P|53:269|27:309,1,97.50000371933
256,360,12808,5,0,0:0:0:0:
296,244,12974,1,0,0:0:0:0:
192,316,13141,1,0,0:0:0:0:
320,316,13308,1,0,0:0:0:0:
216,244,13474,2,0,L|238:114,1,107.25000327301
240,120,13808,1,0,0:0:0:0:
152,176,13974,1,0,0:0:0:0:
312,168,14141,6,0,P|329:133|301:55,1,107.25000327301
304,56,14474,2,0,L|229:42,1,65
180,96,14808,2,0,L|105:109,1,52
64,64,15141,2,0,L|18:55,1,38.9999988098145
64,140,15474,6,0,P|47:190|66:239,1,107.25000327301
76,248,15808,1,0,0:0:0:0:
136,192,15974,1,0,0:0:0:0:
44,312,16159,2,0,P|78:322|123:303,1,71.5000021820069
172,372,16492,1,0,0:0:0:0:
308,272,16659,1,0,0:0:0:0:
336,332,16825,6,0,B|280:356|280:304|212:340,1,107.25000327301
216,316,17159,1,0,0:0:0:0:
376,240,17325,1,0,0:0:0:0:
304,196,17492,2,0,B|288:164|288:164|312:84,1,107.25000327301
313,82,17825,2,0,P|334:73|389:89,1,71.5000021820069
304,212,18159,1,0,0:0:0:0:
228,104,18325,1,0,0:0:0:0:
164,164,18492,6,0,L|69:147,1,71.5000021820069
32,220,18815,2,0,L|116:234,1,84.4999961318971
140,84,19148,2,0,L|17:62,1,97.50000371933
68,308,19471,2,0,L|261:342,1,165.75000316143
248,340,19804,6,0,P|278:302|337:302,1,84.4999961318971
248,180,20137,2,0,P|261:214|239:253,1,58.4999982147217
372,236,20471,2,0,P|345:232|328:203,1,45.4999986114502
464,112,20804,1,0,0:0:0:0:
388,164,20971,1,0,0:0:0:0:
476,104,21117,1,0,0:0:0:0:
376,172,21283,1,0,0:0:0:0:
452,264,21494,6,0,L|465:185,1,65
400,34,22187,2,0,L|386:112,1,65
376,172,22510,1,0,0:0:0:0:
52,44,22843,1,0,0:0:0:0:
52,44,23470,5,0,0:0:0:0:
196,152,23803,1,0,0:0:0:0:
132,136,24146,1,0,0:0:0:0:
128,144,24258,1,0,0:0:0:0:
127,152,24370,1,0,0:0:0:0:
128,160,24483,1,0,0:0:0:0:
131,168,24614,1,0,0:0:0:0:
180,84,24813,5,0,0:0:0:0:
56,168,25146,1,0,0:0:0:0:
176,280,25479,1,0,0:0:0:0:
176,208,25642,5,0,0:0:0:0:
104,316,25820,1,0,0:0:0:0:
244,316,26142,5,0,0:0:0:0:
88,232,26475,1,0,0:0:0:0:
176,372,26808,1,0,0:0:0:0:
260,232,27142,5,0,0:0:0:0:
176,180,27308,1,0,0:0:0:0:
312,84,27475,1,0,0:0:0:0:
204,84,27808,1,0,0:0:0:0:
336,180,28142,1,0,0:0:0:0:
408,124,28308,5,0,0:0:0:0:
260,232,28475,1,0,0:0:0:0:
408,340,28808,5,0,0:0:0:0:
476,272,29142,1,0,0:0:0:0:
336,328,29475,1,0,0:0:0:0:
332,336,29587,1,0,0:0:0:0:
331,344,29699,1,0,0:0:0:0:
334,352,29812,1,0,0:0:0:0:
384,272,29980,1,0,0:0:0:0:
256,380,30145,5,0,0:0:0:0:
128,272,30478,1,0,0:0:0:0:
192,208,30819,1,0,0:0:0:0:
128,344,30985,5,0,0:0:0:0:
64,208,31152,1,0,0:0:0:0:
84,56,31819,6,0,B|144:136|231:175|340:145|229:-6|124:150,1,357.5
129,144,32319,2,0,L|135:181,1,39
152,284,33485,1,0,0:0:0:0:
288,192,33652,1,0,0:0:0:0:
48,284,33819,1,0,0:0:0:0:
240,360,33985,1,0,0:0:0:0:
0,336,34152,6,0,B|-28:292|-28:292|12:176,1,162.5
16,172,34652,1,0,0:0:0:0:
100,136,34818,2,0,P|106:179|87:215,1,65
32,88,35152,1,0,0:0:0:0:
100,216,35318,1,0,0:0:0:0:
188,168,35485,2,0,L|290:186,1,97.5
296,176,35818,2,0,P|338:169|374:187,1,65
328,244,36152,1,0,0:0:0:0:
328,96,36318,1,0,0:0:0:0:
428,176,36485,1,0,0:0:0:0:
213,301,36818,6,0,B|297:269|297:341|369:301,1,162.5
383,301,37318,1,0,0:0:0:0:
472,332,37485,2,0,B|480:300|480:300|468:252,1,65
332,128,37818,1,0,0:0:0:0:
384,232,37985,1,0,0:0:0:0:
463,148,38152,5,0,0:0:0:0:
463,148,38236,1,0,0:0:0:0:
463,148,38320,1,0,0:0:0:0:
463,148,38404,1,0,0:0:0:0:
463,148,38455,2,0,L|440:32,1,97.5
449,44,38802,1,0,0:0:0:0:
368,140,38980,1,0,0:0:0:0:
284,44,39148,1,0,0:0:0:0:
108,128,39485,6,0,B|212:99|212:99|278:140,1,162.5
267,134,39968,1,0,0:0:0:0:
216,268,40110,1,0,0:0:0:0:
214,260,40217,1,0,0:0:0:0:
213,252,40343,1,0,0:0:0:0:
211,244,40463,2,0,L|198:173,1,65
336,108,40785,6,0,P|344:148|276:208,1,126.749994197846
280,208,41108,2,0,P|320:228|332:264,1,71.5000021820069
472,220,41487,2,0,L|397:206,1,71.5000021820069
332,96,41824,2,0,L|402:108,1,71.5000021820069
428,316,42161,6,0,B|368:280|368:336|307:316,1,126.749994197846
298,309,42498,1,0,0:0:0:0:
136,308,42666,1,0,0:0:0:0:
212,292,42835,2,0,B|212:308|224:312|224:312|212:320|212:352,1,52
160,232,43172,2,0,B|160:216|148:212|148:212|160:204|160:172,1,52
208,136,43509,1,0,0:0:0:0:
160,48,43834,6,0,L|53:66,1,84.4999961318971
232,204,44144,2,0,L|338:185,1,84.4999961318971
324,196,44818,5,0,0:0:0:0:
392,96,44984,1,0,0:0:0:0:
324,280,45151,1,0,0:0:0:0:
256,64,45318,1,0,0:0:0:0:
456,112,45484,2,0,L|326:134,1,116.999996429443
280,144,45818,1,0,0:0:0:0:
452,240,45984,1,0,0:0:0:0:
396,280,46151,6,0,P|383:254|409:187,1,87.7499973220826
404,292,46484,2,0,P|356:268|264:320,1,136.499995834351
240,340,46818,2,0,P|192:364|100:312,1,136.499995834351
108,328,47151,2,0,L|125:229,1,90.9999972229005
212,172,47484,5,0,0:0:0:0:
88,104,47651,1,0,0:0:0:0:
292,172,47818,1,0,0:0:0:0:
123,238,47984,1,0,0:0:0:0:
240,112,48152,5,0,0:0:0:0:
272,88,48262,1,0,0:0:0:0:
312,88,48373,1,0,0:0:0:0:
348,112,48484,1,0,0:0:0:0:
292,244,48651,1,0,0:0:0:0:
392,60,48818,2,0,P|417:114|381:169,1,116.999996429443
347,205,49151,1,0,0:0:0:0:
484,308,49318,1,0,0:0:0:0:
424,356,49484,2,0,B|400:320|400:320|436:228,1,116.999996429443
436,232,49842,1,0,0:0:0:0:
256,356,50161,5,0,0:0:0:0:
256,288,50326,1,0,0:0:0:0:
328,384,50492,1,0,0:0:0:0:
184,384,50658,1,0,0:0:0:0:
352,216,50823,6,0,L|332:326,1,90.9999972229005
176,304,51155,2,0,L|150:158,1,116.999996429443
256,0,51486,2,0,L|256:240,1,214.500006546021
256,284,51818,1,0,0:0:0:0:
136,188,51984,1,0,0:0:0:0:
180,52,52149,2,0,P|152:104|88:104,1,116.999996429443
84,100,52481,2,0,P|52:88|0:110,1,77.999997619629
180,264,52812,5,0,0:0:0:0:
48,160,52978,1,0,0:0:0:0:
256,264,53144,1,0,0:0:0:0:
88,360,53310,1,0,0:0:0:0:
332,264,53505,5,0,0:0:0:0:
292,204,54167,1,0,0:0:0:0:
328,336,54499,2,0,L|352:320,3,26
256,104,55493,5,0,0:0:0:0:
192,168,55823,2,0,L|204:238,1,65
288,248,56149,1,0,0:0:0:0:
291,240,56257,1,0,0:0:0:0:
292,232,56366,1,0,0:0:0:0:
291,224,56475,1,0,0:0:0:0:
287,216,56638,1,0,0:0:0:0:
228,316,56801,1,0,0:0:0:0:
240,332,57137,6,0,P|296:324|400:344,1,126.749994197846
372,340,57477,1,0,0:0:0:0:
412,260,57648,1,0,0:0:0:0:
476,380,57818,1,0,0:0:0:0:
412,184,58159,5,0,0:0:0:0:
356,128,58499,2,0,L|281:141,1,65
208,184,58840,1,0,0:0:0:0:
240,88,59010,1,0,0:0:0:0:
208,200,59138,1,0,0:0:0:0:
144,132,59280,1,0,0:0:0:0:
208,216,59407,1,0,0:0:0:0:
208,232,59790,6,0,P|152:224|68:240,1,126.749994197846
76,244,60131,1,0,0:0:0:0:
36,316,60302,1,0,0:0:0:0:
0,180,60472,1,0,0:0:0:0:
36,384,60813,5,0,0:0:0:0:
104,352,61150,2,0,L|194:367,1,65
264,304,61487,1,0,0:0:0:0:
256,301,61599,1,0,0:0:0:0:
248,300,61711,1,0,0:0:0:0:
240,301,61824,1,0,0:0:0:0:
232,305,61962,1,0,0:0:0:0:
248,384,62101,1,0,0:0:0:0:
336,352,62419,6,0,P|328:296|344:200,1,126.749994197846
344,212,62771,1,0,0:0:0:0:
464,144,62975,1,0,0:0:0:0:
356,56,63149,2,0,L|372:132,1,65
356,56,63659,6,0,L|376:147,2,65
256,192,64325,12,0,66325,0:0:0:0:
