osu file format v14

[General]
AudioFilename: audio.mp3
AudioLeadIn: 0
PreviewTime: 1985
Countdown: 0
SampleSet: Soft
StackLeniency: 0.7
Mode: 0
LetterboxInBreaks: 0
WidescreenStoryboard: 1

[Editor]
Bookmarks: 2151,12783,23431,34099,44759,55455
DistanceSpacing: 1.1
BeatDivisor: 4
GridSize: 32
TimelineZoom: 2.1

[Metadata]
Title:Halloween
TitleUnicode:Halloween
Artist:Atsuko Asahi & Manaka Kataoka
ArtistUnicode:朝日 温子 & 片岡 真央
Creator:Veridian
Version:October 29th (Normal)
Source:とびだせ どうぶつの森
Tags:Animal Crossing: Crossing New Leaf Autumn Fall Festive Spooky Theme Background VGM BGM
BeatmapID:1806877
BeatmapSetID:857738

[Difficulty]
HPDrainRate:4
CircleSize:3
OverallDifficulty:4
ApproachRate:4
SliderMultiplier:1.5
SliderTickRate:1

[Events]
//Background and Video events
0,0,"22802846_148227619121513_846462664480653312_n.jpg",0,0
//Break Periods
//Storyboard Layer 0 (Background)
//Storyboard Layer 1 (Fail)
//Storyboard Layer 2 (Pass)
//Storyboard Layer 3 (Foreground)
//Storyboard Sound Samples

[TimingPoints]
0,500,4,2,0,35,1,0
2151,674.157303370787,4,2,0,35,1,0
3533,674.157303370787,4,2,0,35,1,0
4156,674.157303370787,4,2,0,35,1,0
4837,659.340659340659,4,2,0,35,1,0
7154,659.340659340659,4,2,0,35,1,0
7483,659.340659340659,4,2,0,35,1,0
8803,659.340659340659,4,2,0,35,1,0
9480,659.340659340659,4,2,0,35,1,0
10149,674.157303370787,4,2,0,35,1,0
11507,674.157303370787,4,2,0,35,1,0
11801,674.157303370787,4,2,0,35,1,0
12783,-100,4,2,0,35,0,0
12808,666.666666666667,4,2,0,35,1,0
16159,666.666666666667,4,2,0,35,1,0
18815,666.666666666667,4,2,0,35,1,0
19471,666.666666666667,4,2,0,35,1,0
21117,681.818181818182,4,2,0,35,1,0
21494,681.818181818182,4,2,0,35,1,0
22187,666.666666666667,4,2,0,35,1,0
22510,666.666666666667,4,2,0,35,1,0
23470,666.666666666667,4,2,0,35,1,0
24146,674.157303370787,4,2,0,35,1,0
24614,674.157303370787,4,2,0,35,1,0
24813,666.666666666667,4,2,0,35,1,0
25642,714.285714285714,4,2,0,35,1,0
26142,666.666666666667,4,2,0,35,1,0
29475,674.157303370787,4,2,0,35,1,0
30145,666.666666666667,4,2,0,35,1,0
30819,666.666666666667,4,2,0,35,1,0
34152,666.666666666667,4,2,0,35,1,0
38152,674.157303370787,4,2,0,35,1,0
38455,674.157303370787,4,2,0,35,1,0
38802,674.157303370787,4,2,0,35,1,0
38980,674.157303370787,4,2,0,35,1,0
39485,645.161290322581,4,2,0,35,1,0
40110,645.161290322581,4,2,0,35,1,0
40343,645.161290322581,4,2,0,35,1,0
40463,645.161290322581,4,2,0,35,1,0
41150,674.157303370787,4,2,0,35,1,0
43834,674.157303370787,4,2,0,35,1,0
44144,674.157303370787,4,2,0,35,1,0
44818,666.666666666667,4,2,0,35,1,1
49842,659.340659340659,4,2,0,35,1,1
50161,662.983425414365,4,2,0,35,1,1
53505,662.983425414365,4,2,0,35,1,0
55497,652.173913043478,4,2,0,35,1,0
57137,681.818181818182,4,2,0,35,1,0
58159,681.818181818182,4,2,0,35,1,0
58840,681.818181818182,4,2,0,35,1,0
59280,681.818181818182,4,2,0,35,1,0
59450,681.818181818182,4,2,0,35,1,0
60813,674.157303370787,4,2,0,35,1,0
61824,555.555555555556,4,2,0,35,1,0
62419,666.666666666667,4,2,0,35,1,0
62771,666.666666666667,4,2,0,35,1,0
62975,697.674418604651,4,2,0,35,1,0

[Colours]
Combo1 : 255,79,255
Combo2 : 98,82,239
Combo3 : 247,91,53
SliderTrackOverride : 32,32,32
SliderBorder : 255,214,51

[HitObjects]
0,168,2151,6,0,L|132:168,1,112.5
141,197,2825,1,0,0:0:0:0:
257,80,3533,1,0,0:0:0:0:
512,288,4837,2,0,L|380:288,1,112.5
371,317,5496,1,0,0:0:0:0:
255,200,6155,2,0,P|212:192|165:213,1,75
65,317,7154,1,0,0:0:0:0:
16,248,7483,6,0,L|40:108,1,112.5
5,107,8142,1,0,0:0:0:0:
168,84,8803,2,0,L|266:66,2,75
140,248,10149,2,0,P|196:224|295:264,2,150
81,306,11801,1,0,0:0:0:0:
22,247,12138,1,0,0:0:0:0:
96,100,12808,6,0,L|241:125,1,112.5
235,90,13474,1,0,0:0:0:0:
296,148,13808,1,0,0:0:0:0:
376,132,14141,2,0,L|470:115,2,75
472,268,15474,6,0,P|424:248|359:279,1,112.5
345,301,16159,1,0,0:0:0:0:
286,242,16492,1,0,0:0:0:0:
229,301,16825,2,0,L|97:301,1,112.5
87,330,17492,1,0,0:0:0:0:
176,192,18159,5,0,0:0:0:0:
133,121,18492,2,0,P|125:85|141:37,2,75
217,121,19471,2,0,P|225:85|209:37,2,75
176,280,20804,1,0,0:0:0:0:
234,338,21117,1,0,0:0:0:0:
292,279,21494,2,0,L|469:310,2,150
196,152,23470,5,0,0:0:0:0:
254,93,23803,1,0,0:0:0:0:
197,34,24146,2,0,P|153:10|49:50,1,150
2,93,25146,1,0,0:0:0:0:
60,151,25479,1,0,0:0:0:0:
176,267,26142,5,0,0:0:0:0:
117,325,26475,1,0,0:0:0:0:
175,383,26808,1,0,0:0:0:0:
337,383,27475,1,0,0:0:0:0:
395,325,27808,1,0,0:0:0:0:
336,267,28142,1,0,0:0:0:0:
452,150,28808,5,0,0:0:0:0:
393,91,29142,1,0,0:0:0:0:
334,149,29475,2,0,L|156:148,1,150
119,91,30478,1,0,0:0:0:0:
60,150,30819,1,0,0:0:0:0:
256,192,31819,12,0,33486,0:0:0:0:
380,64,34152,6,0,L|380:208,1,112.5
409,205,34818,1,0,0:0:0:0:
350,263,35152,1,0,0:0:0:0:
408,321,35485,1,0,0:0:0:0:
256,124,36485,1,0,0:0:0:0:
192,68,36818,6,0,P|124:56|64:88,1,112.5
55,100,37485,1,0,0:0:0:0:
113,158,37818,1,0,0:0:0:0:
84,236,38152,2,0,L|104:338,1,75
256,364,39148,1,0,0:0:0:0:
314,305,39485,6,0,L|290:171,1,112.5
323,164,40110,1,0,0:0:0:0:
264,105,40463,1,0,0:0:0:0:
328,52,40785,2,0,P|270:83|178:48,1,168.75
119,108,41824,1,0,0:0:0:0:
60,48,42161,2,0,P|70:128|48:220,1,150
0,256,43172,1,0,0:0:0:0:
59,313,43509,1,0,0:0:0:0:
178,213,44144,1,0,0:0:0:0:
312,313,44818,6,0,L|408:313,1,75
416,342,45318,1,0,0:0:0:0:
445,312,45484,1,0,0:0:0:0:
416,233,45818,1,0,0:0:0:0:
452,157,46151,2,0,P|416:147|359:178,1,75
316,209,46818,2,0,P|280:219|219:190,1,75
176,161,47484,6,0,L|67:162,1,75
71,132,47984,1,0,0:0:0:0:
41,161,48151,1,0,0:0:0:0:
72,237,48484,1,0,0:0:0:0:
36,313,48818,2,0,P|72:321|107:311,1,75
144,290,49318,1,0,0:0:0:0:
180,313,49484,1,0,0:0:0:0:
236,249,49842,1,0,0:0:0:0:
296,317,50161,5,0,0:0:0:0:
412,200,50823,1,0,0:0:0:0:
296,85,51486,1,0,0:0:0:0:
180,202,52149,1,0,0:0:0:0:
296,317,52812,5,0,0:0:0:0:
325,346,52978,1,0,0:0:0:0:
354,316,53144,1,0,0:0:0:0:
414,255,53505,1,0,0:0:0:0:
297,138,54167,5,0,0:0:0:0:
355,79,54499,1,0,0:0:0:0:
116,81,55493,5,0,0:0:0:0:
57,139,55823,1,0,0:0:0:0:
116,197,56149,2,0,P|137:241|110:339,2,150
180,33,58159,5,0,0:0:0:0:
238,92,58499,1,0,0:0:0:0:
296,33,58840,2,0,P|340:12|426:32,2,140.625
292,193,60813,5,0,0:0:0:0:
234,134,61150,1,0,0:0:0:0:
176,193,61487,2,0,P|132:214|42:189,2,140.625
256,192,64370,12,0,66114,0:0:0:0:
