osu file format v14

[General]
AudioFilename: audio.mp3
AudioLeadIn: 0
PreviewTime: 438
Countdown: 1
SampleSet: Soft
StackLeniency: 0.7
Mode: 0
LetterboxInBreaks: 0
WidescreenStoryboard: 1

[Editor]
DistanceSpacing: 1.4
BeatDivisor: 4
GridSize: 4
TimelineZoom: 1.6

[Metadata]
Title:Gogo 8-ji
TitleUnicode:午後8時
Artist:Atsuko Asahi & Manaka Kataoka
ArtistUnicode:朝日 温子 & 片岡 真央
Creator:PolkaMocha
Version:8:20 P.M. (Advanced)
Source:とびだせ どうぶつの森
Tags:Animal Crossing crossing: New Leaf pm 8pm Nintendo 3ds piano slow
BeatmapID:1065041
BeatmapSetID:500412

[Difficulty]
HPDrainRate:4
CircleSize:3.5
OverallDifficulty:4
ApproachRate:4
SliderMultiplier:1.6
SliderTickRate:1

[Events]
//Background and Video events
0,0,"bg_06.jpg",0,0
//Break Periods
//Storyboard Layer 0 (Background)
//Storyboard Layer 1 (Fail)
//Storyboard Layer 2 (Pass)
//Storyboard Layer 3 (Foreground)
//Storyboard Sound Samples

[TimingPoints]
2830,869.565217391304,4,2,1,45,1,0
31308,-100,4,2,1,5,0,0
31525,-100,4,2,1,45,0,0
34786,-100,4,2,1,5,0,0
35003,-100,4,2,1,45,0,0
38264,-100,4,2,1,5,0,0
38481,-100,4,2,1,45,0,0
73047,-100,4,2,1,5,0,0
73264,-100,4,2,1,45,0,0
76525,-100,4,2,1,5,0,0
76742,-100,4,2,1,45,0,0
80003,-100,4,2,1,5,0,0
80220,-100,4,2,1,45,0,0
91525,-100,4,2,1,5,0,0

[Colours]
Combo1 : 255,113,113
Combo2 : 128,0,128
Combo3 : 128,0,64
Combo4 : 206,0,0
Combo5 : 255,77,0
Combo6 : 255,153,0
Combo7 : 255,131,70
Combo8 : 255,154,125
SliderBorder : 255,128,0

[HitObjects]
40,192,2830,5,12,0:0:0:0:
112,108,3264,1,0,0:0:0:0:
184,192,3699,2,0,P|224:196|272:188,1,80,2|0,0:0|0:0,0:0:0:0:
352,120,4569,2,0,P|391:114|431:118,1,80,8|0,0:0|0:0,0:0:0:0:
396,224,5438,1,2,0:0:0:0:
396,336,5873,1,0,0:0:0:0:
236,288,6308,2,0,P|196:284|156:289,1,80,8|0,0:0|0:0,0:0:0:0:
404,60,8047,2,0,L|404:160,1,80,2|0,0:0|0:0,0:0:0:0:
336,228,8916,1,2,0:0:0:0:
260,144,9351,1,0,0:0:0:0:
148,272,9786,6,0,B|108:280|108:280|68:272,2,80,8|0|2,0:0|0:0|0:0,0:0:0:0:
252,228,11090,1,0,0:0:0:0:
356,184,11525,2,0,L|452:184,1,80,8|0,0:0|0:0,0:0:0:0:
388,80,12395,2,0,L|300:80,1,80,2|0,0:0|0:0,0:0:0:0:
144,36,13264,2,0,B|100:112|180:112|132:200,1,160,8|2,0:0|0:0,0:0:0:0:
302,334,15003,2,0,B|346:258|266:258|314:170,1,160,8|2,0:0|0:0,0:0:0:0:
308,181,16090,1,8,0:0:0:0:
308,181,16308,1,0,0:0:0:0:
360,24,16743,6,0,P|316:20|276:24,1,80,12|0,0:0|0:0,0:0:0:0:
192,92,17612,2,0,P|116:112|20:84,2,160,2|8|2,0:0|0:0|0:0,0:0:0:0:
292,44,19786,1,0,0:0:0:0:
292,44,20003,1,0,0:0:0:0:
292,44,20221,1,8,0:0:0:0:
376,120,20656,1,0,0:0:0:0:
292,192,21090,1,2,0:0:0:0:
208,120,21525,1,0,0:0:0:0:
76,224,21960,1,8,0:0:0:0:
76,224,22395,2,0,P|68:268|80:320,2,80,0|2|0,0:0|0:0|0:0,0:0:0:0:
240,264,23699,6,0,P|324:280|400:260,1,160,8|6,0:0|0:0,0:0:0:0:
272,76,25438,2,0,P|300:128|344:56,1,160,8|2,0:0|0:0,0:0:0:0:
136,36,27177,2,0,P|128:84|144:136,1,80,8|0,0:0|0:0,0:0:0:0:
220,184,28047,1,2,0:0:0:0:
132,260,28482,1,0,0:0:0:0:
220,332,28916,2,0,B|260:340|260:340|304:328,1,80,8|0,0:0|0:0,0:0:0:0:
260,224,29786,2,0,L|260:120,1,80,2|0,0:0|0:0,0:0:0:0:
428,120,30656,6,0,L|428:272,1,120,12|0,0:0|0:0,0:0:0:0:
432,296,31525,2,0,L|492:316,2,40,2|0|0,0:0|0:0|0:0,0:0:0:0:
328,248,32395,2,0,B|248:204|248:276|156:240,1,160,8|2,0:0|0:0,0:0:0:0:
88,172,33699,1,0,0:0:0:0:
196,44,34134,2,0,P|212:100|192:180,1,120,8|0,0:0|0:0,0:0:0:0:
200,216,35003,2,0,L|200:280,2,40,2|0|0,0:0|0:0|0:0,0:0:0:0:
312,232,35873,2,0,P|352:224|420:248,1,80,8|0,0:0|0:0,0:0:0:0:
352,336,36743,1,2,0:0:0:0:
352,336,37177,1,0,0:0:0:0:
184,336,37612,6,0,P|128:352|48:320,1,120,8|0,0:0|0:0,0:0:0:0:
28,296,38482,2,0,L|-24:296,2,40,2|0|0,0:0|0:0|0:0,0:0:0:0:
128,244,39351,1,8,0:0:0:0:
280,88,40221,1,2,0:0:0:0:
396,280,41090,2,0,B|355:258|311:278|311:278|239:302|239:246|163:282,1,240,8|0,0:0|0:0,0:0:0:0:
276,156,42829,1,2,0:0:0:0:
276,156,44569,6,0,P|264:116|356:124,1,160,12|2,0:0|0:0,0:0:0:0:
376,212,45873,1,0,0:0:0:0:
376,212,46308,2,0,P|384:256|376:296,1,80,8|0,0:0|0:0,0:0:0:0:
272,252,47177,1,2,0:0:0:0:
188,324,47612,1,0,0:0:0:0:
68,208,48047,1,8,0:0:0:0:
68,208,48482,2,0,P|52:124|88:24,1,160
176,92,49786,2,0,P|168:144|184:188,1,80,2|0,0:0|0:0,0:0:0:0:
256,248,50656,1,0,0:0:0:0:
336,172,51090,1,0,0:0:0:0:
456,292,51525,6,0,L|524:360,2,80,8|0|2,0:0|0:0|0:0,0:0:0:0:
376,212,52829,1,0,0:0:0:0:
300,292,53264,2,0,L|232:360,2,80,8|0|2,0:0|0:0|0:0,0:0:0:0:
376,212,54569,1,0,0:0:0:0:
452,64,55003,2,0,B|376:36|376:36|300:64,1,160,8|2,0:0|0:0,0:0:0:0:
120,192,56743,2,0,P|80:200|28:188,1,80,8|0,0:0|0:0,0:0:0:0:
84,88,57612,1,2,0:0:0:0:
84,88,57829,1,8,0:0:0:0:
84,88,58047,1,0,0:0:0:0:
252,92,58482,6,0,P|330:80|409:91,1,160,12|2,0:0|0:0,0:0:0:0:
504,296,60221,2,0,P|425:307|346:296,1,160,8|2,0:0|0:0,0:0:0:0:
256,232,61525,1,0,0:0:0:0:
256,232,61743,1,0,0:0:0:0:
256,232,61960,1,8,0:0:0:0:
180,152,62395,1,0,0:0:0:0:
100,232,62829,1,2,0:0:0:0:
180,308,63264,1,0,0:0:0:0:
264,232,63699,1,8,0:0:0:0:
264,232,64134,2,0,L|368:232,2,80,0|2|0,0:0|0:0|0:0,0:0:0:0:
220,68,65438,6,0,L|400:68,1,160,8|6,0:0|0:0,0:0:0:0:
476,272,67177,2,0,L|296:272,1,160,8|2,0:0|0:0,0:0:0:0:
104,348,68916,1,8,0:0:0:0:
104,348,69351,1,0,0:0:0:0:
40,256,69786,2,0,P|36:216|44:168,1,80,2|0,0:0|0:0,0:0:0:0:
120,96,70656,1,8,0:0:0:0:
200,172,71090,1,0,0:0:0:0:
284,96,71525,2,0,L|400:96,1,80,2|0,0:0|0:0,0:0:0:0:
476,224,72395,6,0,L|344:224,1,120,12|0,0:0|0:0,0:0:0:0:
300,220,73264,2,0,L|256:256,2,40,2|0|0,0:0|0:0|0:0,0:0:0:0:
272,112,74134,2,0,L|140:228,1,160,8|2,0:0|0:0,0:0:0:0:
64,284,75438,1,0,0:0:0:0:
48,172,75873,2,0,P|28:120|56:52,1,120,8|0,0:0|0:0,0:0:0:0:
96,32,76743,2,0,L|160:32,2,40,2|0|0,0:0|0:0|0:0,0:0:0:0:
164,120,77612,2,0,L|264:120,1,80,8|0,0:0|0:0,0:0:0:0:
328,44,78482,1,2,0:0:0:0:
412,120,78916,1,0,0:0:0:0:
328,264,79351,6,0,P|268:280|200:260,1,120,8|0,0:0|0:0,0:0:0:0:
164,240,80221,2,0,L|104:240,2,40,2|0|0,0:0|0:0|0:0,0:0:0:0:
184,128,81090,2,0,L|96:128,1,80,8|0,0:0|0:0,0:0:0:0:
144,24,81960,1,2,0:0:0:0:
144,248,82829,2,0,B|188:232|228:248|228:248|264:264|324:280|368:248|368:160|308:160|232:176|308:240,1,320,8|2,0:0|0:0,0:0:0:0:
256,192,86308,12,0,91525,0:0:0:0:
