osu file format v14

[General]
AudioFilename: audio.mp3
AudioLeadIn: 0
PreviewTime: 438
Countdown: 1
SampleSet: Soft
StackLeniency: 0.7
Mode: 0
LetterboxInBreaks: 0
WidescreenStoryboard: 1

[Editor]
DistanceSpacing: 1.4
BeatDivisor: 2
GridSize: 32
TimelineZoom: 0.8

[Metadata]
Title:Gogo 8-ji
TitleUnicode:午後8時
Artist:Atsuko Asahi & Manaka Kataoka
ArtistUnicode:朝日 温子 & 片岡 真央
Creator:PolkaMocha
Version:8:15 P.M. (Normal)
Source:とびだせ どうぶつの森
Tags:Animal Crossing crossing: New Leaf pm 8pm Nintendo 3ds piano slow
BeatmapID:1065040
BeatmapSetID:500412

[Difficulty]
HPDrainRate:3
CircleSize:3
OverallDifficulty:3
ApproachRate:3
SliderMultiplier:1.4
SliderTickRate:1

[Events]
//Background and Video events
0,0,"bg_06.jpg",0,0
//Break Periods
//Storyboard Layer 0 (Background)
//Storyboard Layer 1 (Fail)
//Storyboard Layer 2 (Pass)
//Storyboard Layer 3 (Foreground)
//Storyboard Sound Samples

[TimingPoints]
2830,869.565217391304,4,2,1,45,1,0
7612,-100,4,2,1,5,0,0
8047,-100,4,2,1,45,0,0
91525,-100,4,2,1,5,0,0

[Colours]
Combo1 : 255,113,113
Combo2 : 128,0,128
Combo3 : 128,0,64
Combo4 : 206,0,0
Combo5 : 255,77,0
Combo6 : 255,153,0
Combo7 : 255,131,70
Combo8 : 255,154,125
SliderBorder : 255,128,0

[HitObjects]
48,112,2830,6,0,B|112:136|116:88|193:111,1,140,12|2,0:0|0:0,0:0:0:0:
260,184,4134,1,0,0:0:0:0:
328,112,4569,2,0,P|364:104|412:116,2,70,8|0|2,0:0|0:0|0:0,0:0:0:0:
260,184,5873,1,0,0:0:0:0:
324,260,6308,5,8,0:0:0:0:
324,260,6743,2,0,P|256:284|184:248,1,140
260,184,8047,1,2,0:0:0:0:
396,48,8916,1,0,0:0:0:0:
452,128,9351,1,0,0:0:0:0:
396,208,9786,6,0,B|420:276|420:276|400:344,1,140,8|2,0:0|0:0,0:0:0:0:
324,280,11090,1,0,0:0:0:0:
224,280,11525,2,0,L|136:280,1,70,8|0,0:0|0:0,0:0:0:0:
64,324,12395,1,2,0:0:0:0:
64,324,12829,1,0,0:0:0:0:
76,228,13264,6,0,B|40:160|104:160|72:88,1,140,8|2,0:0|0:0,0:0:0:0:
256,24,15003,1,8,0:0:0:0:
256,220,15873,1,2,0:0:0:0:
428,124,16743,5,12,0:0:0:0:
464,316,17612,2,0,P|416:320|364:308,1,70,2|0,0:0|0:0,0:0:0:0:
316,256,18482,2,0,P|272:244|172:260,1,140,8|2,0:0|0:0,0:0:0:0:
100,316,19786,1,0,0:0:0:0:
20,256,20221,6,0,L|20:168,1,70,8|0,0:0|0:0,0:0:0:0:
104,140,21090,2,0,L|104:228,1,70,2|0,0:0|0:0,0:0:0:0:
196,172,21960,1,8,0:0:0:0:
284,140,22395,2,0,L|284:228,2,70,0|2|0,0:0|0:0|0:0,0:0:0:0:
372,186,23699,6,0,L|372:256,1,70,8|0,0:0|0:0,0:0:0:0:
472,260,24569,2,0,P|448:324|364:356,1,140,6|8,0:0|0:0,0:0:0:0:
124,356,27177,6,0,P|64:324|40:260,1,140,6|8,0:0|0:0,0:0:0:0:
140,256,28482,1,0,0:0:0:0:
224,204,28916,2,0,L|320:204,1,70,8|0,0:0|0:0,0:0:0:0:
368,268,29786,1,2,0:0:0:0:
368,268,30221,1,0,0:0:0:0:
440,204,30656,6,0,P|460:160|428:60,1,140,12|2,0:0|0:0,0:0:0:0:
256,136,32395,2,0,B|184:108|184:156|112:132,1,140,8|2,0:0|0:0,0:0:0:0:
92,40,33699,1,0,0:0:0:0:
20,108,34134,6,0,P|-4:148|20:240,1,140,8|2,0:0|0:0,0:0:0:0:
200,304,35873,2,0,B|272:332|272:284|344:308,1,140,8|2,0:0|0:0,0:0:0:0:
416,364,37177,1,0,0:0:0:0:
492,300,37612,6,0,L|492:144,1,140,8|2,0:0|0:0,0:0:0:0:
416,96,38916,1,0,0:0:0:0:
416,96,39351,2,0,B|344:68|344:116|272:92,1,140,8|2,0:0|0:0,0:0:0:0:
156,248,41090,6,0,B|228:276|228:228|300:252,1,140,8|0,0:0|0:0,0:0:0:0:
364,316,42395,1,0,0:0:0:0:
432,248,42829,1,2,0:0:0:0:
432,248,44569,6,0,L|476:96,1,140,12|2,0:0|0:0,0:0:0:0:
420,32,45873,1,0,0:0:0:0:
336,80,46308,2,0,L|304:160,1,70,8|0,0:0|0:0,0:0:0:0:
228,200,47177,1,2,0:0:0:0:
228,100,47612,1,0,0:0:0:0:
140,144,48047,6,0,L|114:79,1,70,8|0,0:0|0:0,0:0:0:0:
232,352,49786,2,0,P|300:372|364:348,1,140,2|0,0:0|0:0,0:0:0:0:
436,284,51090,1,0,0:0:0:0:
364,216,51525,6,0,B|348:184|368:148|368:148|332:76,1,140,8|2,0:0|0:0,0:0:0:0:
264,24,52829,1,0,0:0:0:0:
184,84,53264,2,0,L|108:84,1,70,8|0,0:0|0:0,0:0:0:0:
40,148,54134,1,2,0:0:0:0:
40,148,54569,1,0,0:0:0:0:
112,212,55003,6,0,L|112:372,1,140,8|2,0:0|0:0,0:0:0:0:
296,280,56743,2,0,P|360:260|436:284,1,140,8|2,0:0|0:0,0:0:0:0:
288,144,58482,6,0,P|224:164|148:140,1,140,12|2,0:0|0:0,0:0:0:0:
332,236,60221,2,0,P|352:300|328:376,1,140,8|2,0:0|0:0,0:0:0:0:
260,304,61525,1,0,0:0:0:0:
260,304,61960,6,0,P|224:312|168:296,1,70,8|0,0:0|0:0,0:0:0:0:
116,244,62829,1,2,0:0:0:0:
192,180,63264,2,0,L|192:32,1,140
284,76,64569,2,0,L|284:156,1,70,2|0,0:0|0:0,0:0:0:0:
332,232,65438,6,0,P|380:276|472:276,2,140,8|6|8,0:0|0:0|0:0,0:0:0:0:
332,36,68047,1,2,0:0:0:0:
196,176,68916,6,0,B|125:176|125:176|104:140|52:128,1,140,8|2,0:0|0:0,0:0:0:0:
40,228,70221,1,0,0:0:0:0:
76,320,70656,2,0,B|107:314|129:278|129:278|199:278,1,140,8|2,0:0|0:0,0:0:0:0:
276,340,71960,1,0,0:0:0:0:
352,280,72395,5,12,0:0:0:0:
352,280,74134,2,0,B|388:212|324:212|360:140,1,140,8|2,0:0|0:0,0:0:0:0:
428,80,75438,1,0,0:0:0:0:
336,52,75873,6,0,P|272:32|192:60,1,140,8|2,0:0|0:0,0:0:0:0:
128,232,77612,2,0,L|276:232,1,140,8|2,0:0|0:0,0:0:0:0:
348,288,78916,1,0,0:0:0:0:
424,228,79351,6,0,P|448:168|424:100,1,140,8|2,0:0|0:0,0:0:0:0:
240,164,81090,2,0,B|172:148|172:148|96:165,1,140,8|2,0:0|0:0,0:0:0:0:
248,296,82829,6,0,B|316:312|316:312|388:296,1,140,8|0,0:0|0:0,0:0:0:0:
316,112,84569,1,2,0:0:0:0:
256,192,86308,12,0,91525,0:0:0:0:
