osu file format v14

[General]
AudioFilename: audio.mp3
AudioLeadIn: 0
PreviewTime: 438
Countdown: 1
SampleSet: Soft
StackLeniency: 0.7
Mode: 0
LetterboxInBreaks: 0
WidescreenStoryboard: 1

[Editor]
DistanceSpacing: 1
BeatDivisor: 1
GridSize: 32
TimelineZoom: 0.3999999

[Metadata]
Title:Gogo 8-ji
TitleUnicode:午後8時
Artist:Atsuko Asahi & Manaka Kataoka
ArtistUnicode:朝日 温子 & 片岡 真央
Creator:PolkaMocha
Version:8:00 P.M. (Easy)
Source:とびだせ どうぶつの森
Tags:Animal Crossing crossing: New Leaf pm 8pm Nintendo 3ds piano slow
BeatmapID:1065039
BeatmapSetID:500412

[Difficulty]
HPDrainRate:1
CircleSize:2.5
OverallDifficulty:1
ApproachRate:1
SliderMultiplier:1.2
SliderTickRate:1

[Events]
//Background and Video events
0,0,"bg_06.jpg",0,0
//Break Periods
//Storyboard Layer 0 (Background)
//Storyboard Layer 1 (Fail)
//Storyboard Layer 2 (Pass)
//Storyboard Layer 3 (Foreground)
//Storyboard Sound Samples

[TimingPoints]
2830,869.565217391304,4,2,1,45,1,0
91525,-100,4,2,1,10,0,0

[Colours]
Combo1 : 255,113,113
Combo2 : 128,0,128
Combo3 : 128,0,64
Combo4 : 206,0,0
Combo5 : 255,77,0
Combo6 : 255,153,0
Combo7 : 255,131,70
Combo8 : 255,154,125
SliderBorder : 255,128,0

[HitObjects]
24,128,2830,5,12,0:0:0:0:
104,40,3699,1,2,0:0:0:0:
188,128,4569,2,0,P|248:140|312:124,1,120,8|2,0:0|0:0,0:0:0:0:
388,40,6308,5,8,0:0:0:0:
472,128,7177,1,2,0:0:0:0:
388,212,8047,2,0,P|376:272|392:336,1,120,8|2,0:0|0:0,0:0:0:0:
268,332,9786,6,0,B|212:316|212:316|152:332,1,120,8|2,0:0|0:0,0:0:0:0:
172,212,11525,2,0,B|112:228|112:228|56:212,1,120,8|2,0:0|0:0,0:0:0:0:
112,104,13264,5,8,0:0:0:0:
340,28,15003,1,8,0:0:0:0:
432,108,15873,1,2,0:0:0:0:
320,152,16743,6,0,P|304:196|328:284,2,120,12|2|8,0:0|0:0|0:0,0:0:0:0:
468,344,20221,1,8,0:0:0:0:
352,372,21090,1,2,0:0:0:0:
236,344,21960,2,0,L|112:344,1,120,8|2,0:0|0:0,0:0:0:0:
32,256,23699,5,8,0:0:0:0:
112,168,24569,1,6,0:0:0:0:
32,76,25438,1,8,0:0:0:0:
272,96,27177,6,0,B|327:80|327:80|392:100,1,120,8|2,0:0|0:0,0:0:0:0:
332,212,28916,2,0,B|277:228|277:228|212:212,1,120,8|2,0:0|0:0,0:0:0:0:
112,164,30656,6,0,P|152:188|112:344,1,240,12|8,0:0|0:0,0:0:0:0:
280,180,34134,6,0,P|336:164|412:192,1,120,8|2,0:0|0:0,0:0:0:0:
336,284,35873,1,8,0:0:0:0:
244,360,36743,1,2,0:0:0:0:
160,292,37612,6,0,B|100:188|100:188|176:88,1,240,8|8,0:0|0:0,0:0:0:0:
240,192,40221,1,2,0:0:0:0:
308,92,41090,2,0,P|356:56|396:180,1,240,8|2,0:0|0:0,0:0:0:0:
184,272,44569,5,12,0:0:0:0:
76,320,45438,1,2,0:0:0:0:
88,200,46308,2,0,P|76:148|88:84,1,120,8|2,0:0|0:0,0:0:0:0:
196,140,48047,5,8,0:0:0:0:
196,140,49786,2,0,L|324:140,1,120,2|0,0:0|0:0,0:0:0:0:
404,56,51525,5,8,0:0:0:0:
492,140,52395,1,2,0:0:0:0:
404,224,53264,2,0,B|360:224|344:236|344:236|328:224|284:224,1,120,8|2,0:0|0:0,0:0:0:0:
172,256,55003,6,0,P|96:272|144:172,1,240,8|8,0:0|0:0,0:0:0:0:
228,96,57612,1,2,0:0:0:0:
320,172,58482,5,8,0:0:0:0:
228,248,59351,2,0,P|184:260|96:240,1,120,2|8,0:0|0:0,0:0:0:0:
288,84,61960,5,8,0:0:0:0:
380,160,62829,1,2,0:0:0:0:
288,240,63699,1,8,0:0:0:0:
196,160,64569,1,2,0:0:0:0:
108,240,65438,6,0,P|88:296|104:356,2,120,8|6|8,0:0|0:0|0:0,0:0:0:0:
340,300,68916,2,0,P|388:316|360:208,1,240,8|8,0:0|0:0,0:0:0:0:
284,116,71525,1,2,0:0:0:0:
204,208,72395,6,0,L|72:208,1,120,12|2,0:0|0:0,0:0:0:0:
28,316,74134,2,0,L|164:316,1,120,8|2,0:0|0:0,0:0:0:0:
264,344,75873,2,0,B|264:280|228:232|228:232|264:196|264:120,1,240,8|8,0:0|0:0,0:0:0:0:
384,116,78482,1,2,0:0:0:0:
472,196,79351,6,0,B|424:244|360:232|360:232|324:248|324:248|288:232|288:232|244:252,1,240,8|8,0:0|0:0,0:0:0:0:
144,296,81960,1,2,0:0:0:0:
36,248,82829,1,8,0:0:0:0:
36,248,84569,5,10,0:0:0:0:
256,192,86308,12,0,91525,0:0:0:0:
