osu file format v14

[General]
AudioFilename: audio.mp3
AudioLeadIn: 0
PreviewTime: 8589
Countdown: 0
SampleSet: Soft
StackLeniency: 0.7
Mode: 0
LetterboxInBreaks: 0
WidescreenStoryboard: 0

[Editor]
DistanceSpacing: 1.2
BeatDivisor: 4
GridSize: 32
TimelineZoom: 1.4

[Metadata]
Title:Gogo 5-ji
TitleUnicode:午後5時
Artist:Atsuko Asahi & Manaka Kataoka
ArtistUnicode:朝日 温子 & 片岡 真央
Creator:PolkaMocha
Version:5:30 P.M. (Hard)
Source:とびだせ どうぶつの森
Tags:Animal Crossing crossing: New Leaf pm 5pm Nintendo 3ds elevator slow
BeatmapID:1112405
BeatmapSetID:524068

[Difficulty]
HPDrainRate:5.5
CircleSize:4
OverallDifficulty:5.5
ApproachRate:7
SliderMultiplier:2.8
SliderTickRate:1

[Events]
//Background and Video events
0,0,"evening_tea___animal_crossing_new_leaf_by_ethe-d6ti7m9.jpg",0,0
//Break Periods
2,58876,66124
//Storyboard Layer 0 (Background)
//Storyboard Layer 1 (Fail)
//Storyboard Layer 2 (Pass)
//Storyboard Layer 3 (Foreground)
//Storyboard Sound Samples

[TimingPoints]
242,1043.47826086957,4,2,1,100,1,0
8589,-100,4,2,2,100,0,0
9111,-100,4,2,1,40,0,0
41981,-100,4,2,2,100,0,0
42502,-100,4,2,1,40,0,0
75372,-100,4,2,2,40,0,0
75894,-100,4,2,1,40,0,0
79024,-100,4,2,1,5,0,0

[Colours]
Combo1 : 128,128,0
Combo2 : 0,255,128
Combo3 : 89,255,89
Combo4 : 255,255,128
Combo5 : 255,236,0
Combo6 : 255,145,91
Combo7 : 255,107,36
Combo8 : 166,83,0
SliderBorder : 255,255,102

[HitObjects]
216,296,8589,6,0,B|284:320|284:264|364:300,1,140,4|2,0:0|0:0,0:0:0:0:
412,352,9372,1,4,0:0:0:0:
476,296,9633,1,10,0:0:0:0:
476,296,9894,2,0,P|479:261|475:226,1,70,2|0,0:0|0:0,0:0:0:0:
440,152,10415,2,0,L|528:152,1,70,6|4,0:0|0:3,0:0:0:0:
392,216,10937,2,0,L|308:216,1,70,2|0,0:0|0:0,0:0:0:0:
244,180,11459,2,0,P|248:228|236:260,1,70,6|8,0:0|0:0,0:0:0:0:
164,212,11981,1,2,0:0:0:0:
164,212,12242,2,0,P|160:164|172:132,1,70,2|4,0:0|0:0,0:0:0:0:
220,80,12763,5,4,0:3:0:0:
356,180,13285,2,0,L|444:180,1,70,2|4,0:0|0:0,0:0:0:0:
480,244,13807,2,0,P|484:288|480:324,2,70,10|2|0,0:0|0:0|0:0,0:0:0:0:
440,168,14589,2,0,P|436:136|444:76,1,70,6|4,0:0|0:3,0:0:0:0:
488,32,15111,1,6,0:0:0:0:
428,92,15372,2,0,P|356:104|268:84,1,140,2|8,0:0|0:0,0:0:0:0:
132,44,16415,1,2,0:0:0:0:
72,104,16676,1,6,0:0:0:0:
152,124,16937,6,0,P|164:196|144:284,1,140,4|0,0:3|0:0,0:0:0:0:
288,160,17981,2,0,L|376:160,1,70,8|2,0:0|0:0,0:0:0:0:
416,220,18502,1,2,0:0:0:0:
476,160,18763,1,6,0:0:0:0:
476,160,19024,2,0,P|488:120|472:20,2,140,4|2|8,0:3|0:0|0:0,0:0:0:0:
340,256,20589,1,2,0:0:0:0:
272,304,20850,1,6,0:0:0:0:
204,256,21111,6,0,B|132:256|132:256|96:280|40:264,1,140,4|0,0:3|0:0,0:0:0:0:
88,188,21894,1,6,0:0:0:0:
88,188,22155,2,0,P|84:144|92:104,1,70,8|0,0:0|0:0,0:0:0:0:
232,28,22937,1,4,0:0:0:0:
232,28,23198,2,0,P|236:72|228:112,1,70,4|0,0:3|0:0,0:0:0:0:
212,264,23981,1,4,0:0:0:0:
212,264,24242,2,0,L|304:224,1,70,10|0,0:0|0:0,0:0:0:0:
308,316,24763,2,0,L|400:356,1,70,2|4,0:0|0:0,0:0:0:0:
388,260,25285,6,0,B|412:192|412:192|384:108,2,140,4|2|8,0:3|0:0|0:0,0:0:0:0:
332,320,26589,1,2,0:0:0:0:
272,260,26850,1,0,0:0:0:0:
212,320,27111,1,6,0:0:0:0:
212,320,27372,2,0,L|112:320,1,70,4|0,0:3|0:0,0:0:0:0:
64,168,28155,1,4,0:0:0:0:
64,168,28415,2,0,L|144:168,1,70,8|0,0:0|0:0,0:0:0:0:
192,108,28937,1,0,0:0:0:0:
248,172,29198,1,4,0:0:0:0:
304,108,29459,6,0,P|372:92|460:120,1,140,4|0,0:3|0:0,0:0:0:0:
500,164,30242,1,4,0:0:0:0:
444,224,30502,1,8,0:0:0:0:
444,224,30763,2,0,P|440:272|447:316,1,70,2|0,0:0|0:0,0:0:0:0:
480,368,31285,2,0,L|392:368,1,70,6|4,0:0|0:3,0:0:0:0:
360,300,31807,2,0,B|292:280|292:280|220:304,1,140,0|6,0:0|0:0,0:0:0:0:
160,352,32589,2,0,P|169:306|152:252,2,93.3333333333333,10|2|6,0:0|0:0|0:0,0:0:0:0:
64,308,33633,6,0,P|52:264|80:160,1,140,4|0,0:3|0:0,0:0:0:0:
124,108,34415,2,0,L|188:64,1,70,6|8,0:0|0:0,0:0:0:0:
208,148,34937,2,0,L|265:187,1,70,2|0,0:0|0:0,0:0:0:0:
292,108,35459,2,0,L|360:64,1,70,6|4,0:0|0:3,0:0:0:0:
376,152,35981,2,0,P|396:224|352:304,1,140,0|4,0:0|0:0,0:0:0:0:
332,356,36763,2,0,L|408:356,1,70,8|0,0:0|0:0,0:0:0:0:
292,284,37285,2,0,L|212:284,1,70,0|4,0:0|0:0,0:0:0:0:
176,356,37807,5,4,0:3:0:0:
132,284,38068,1,2,0:0:0:0:
132,200,38328,1,0,0:0:0:0:
184,132,38589,2,0,P|220:128|280:136,1,70,6|8,0:0|0:0,0:0:0:0:
296,56,39111,2,0,P|328:76|356:108,1,70,2|0,0:0|0:0,0:0:0:0:
428,68,39633,2,0,P|440:112|432:168,1,70,6|4,0:0|0:3,0:0:0:0:
504,192,40155,2,0,P|440:220|368:180,1,140,0|4,0:0|0:0,0:0:0:0:
320,132,40937,1,8,0:0:0:0:
192,240,41459,2,0,L|100:240,1,70,0|4,0:0|0:0,0:0:0:0:
72,308,41981,6,0,L|72:160,1,140,4|2,0:0|0:0,0:0:0:0:
12,112,42763,1,4,0:0:0:0:
76,56,43024,1,10,0:0:0:0:
76,56,43285,2,0,P|120:52|176:68,1,70,2|0,0:0|0:0,0:0:0:0:
216,100,43807,2,0,P|260:104|316:88,1,70,6|4,0:0|0:3,0:0:0:0:
364,72,44328,2,0,L|364:-4,1,70,2|0,0:0|0:0,0:0:0:0:
352,160,44850,2,0,L|352:240,1,70,6|8,0:0|0:0,0:0:0:0:
316,308,45372,1,2,0:0:0:0:
316,308,45633,2,0,P|349:314|410:295,1,70,2|4,0:0|0:0,0:0:0:0:
268,236,46155,6,0,P|228:224|124:240,1,140,4|2,0:3|0:0,0:0:0:0:
68,292,46937,1,4,0:0:0:0:
8,232,47198,1,10,0:0:0:0:
8,232,47459,2,0,L|-12:144,1,70,2|0,0:0|0:0,0:0:0:0:
76,172,47981,2,0,L|152:144,1,70,6|4,0:0|0:3,0:0:0:0:
208,200,48502,1,2,0:0:0:0:
276,148,48763,2,0,L|341:172,1,70,2|4,0:0|0:0,0:0:0:0:
420,144,49285,2,0,P|368:188|356:268,1,140,8|2,0:0|0:0,0:0:0:0:
404,324,50068,1,6,0:0:0:0:
320,336,50328,6,0,L|168:288,1,140,6|0,0:3|0:0,0:0:0:0:
108,260,51111,1,4,0:0:0:0:
172,208,51372,2,0,P|176:176|172:136,1,70,8|2,0:0|0:0,0:0:0:0:
108,88,51894,1,0,0:0:0:0:
176,32,52155,1,6,0:0:0:0:
176,32,52415,2,0,B|244:16|244:16|312:32,1,140,4|2,0:3|0:0,0:0:0:0:
368,96,53198,1,4,0:0:0:0:
290,127,53459,2,0,B|244:116|244:116|187:130,2,93.3333333333333,10|2|6,0:0|0:0|0:0,0:0:0:0:
244,220,54502,6,0,B|220:288|272:288|244:360,2,140,4|2|8,0:3|0:0|0:0,0:0:0:0:
324,252,55807,2,0,P|396:268|468:248,1,140,0|4,0:0|0:0,0:0:0:0:
400,192,56589,1,4,0:3:0:0:
400,192,56850,2,0,P|452:168|492:80,1,140,0|4,0:0|0:0,0:0:0:0:
408,100,57633,2,0,P|416:64|396:12,1,70,10|0,0:0|0:0,0:0:0:0:
324,32,58155,2,0,P|316:66|324:99,1,70,2|4,0:0|0:0,0:0:0:0:
368,172,58676,5,6,0:2:0:0:
236,328,67024,6,0,B|256:280|256:280|244:252|244:252|276:180,1,140,4|0,0:0|0:0,0:0:0:0:
232,124,67807,1,4,0:0:0:0:
160,160,68068,2,0,L|119:251,1,70,8|0,0:0|0:0,0:0:0:0:
260,332,68850,1,4,0:0:0:0:
332,296,69111,2,0,L|373:205,1,70,4|0,0:3|0:0,0:0:0:0:
388,68,69894,1,4,0:0:0:0:
316,104,70155,2,0,L|275:195,1,70,8|0,0:0|0:0,0:0:0:0:
252,256,70676,2,0,P|288:260|340:252,1,70,0|4,0:0|0:0,0:0:0:0:
208,184,71198,6,0,P|156:176|56:188,2,140,4|0|8,0:3|0:0|0:0,0:0:0:0:
268,244,72502,2,0,L|268:96,1,140,0|4,0:0|0:0,0:0:0:0:
324,40,73285,1,4,0:3:0:0:
384,100,73546,2,0,P|432:104|476:96,1,70
328,164,74068,1,4,0:0:0:0:
328,164,74328,2,0,P|280:160|236:168,1,70,8|0,0:0|0:0,0:0:0:0:
196,220,74850,1,0,0:0:0:0:
132,276,75111,1,4,0:0:0:0:
68,220,75372,5,4,0:0:0:0:
256,192,75502,12,0,79024,0:0:0:0:
