osu file format v14

[General]
AudioFilename: audio.mp3
AudioLeadIn: 0
PreviewTime: 8589
Countdown: 0
SampleSet: Soft
StackLeniency: 0.7
Mode: 0
LetterboxInBreaks: 0
WidescreenStoryboard: 0

[Editor]
DistanceSpacing: 1
BeatDivisor: 4
GridSize: 32
TimelineZoom: 1.4

[Metadata]
Title:Gogo 5-ji
TitleUnicode:午後5時
Artist:Atsuko Asahi & Manaka Kataoka
ArtistUnicode:朝日 温子 & 片岡 真央
Creator:PolkaMocha
Version:5:15 P.M. (Normal)
Source:とびだせ どうぶつの森
Tags:Animal Crossing crossing: New Leaf pm 5pm Nintendo 3ds elevator slow
BeatmapID:1112404
BeatmapSetID:524068

[Difficulty]
HPDrainRate:4
CircleSize:3.5
OverallDifficulty:4
ApproachRate:4
SliderMultiplier:2
SliderTickRate:1

[Events]
//Background and Video events
0,0,"evening_tea___animal_crossing_new_leaf_by_ethe-d6ti7m9.jpg",0,0
//Break Periods
2,58876,65704
//Storyboard Layer 0 (Background)
//Storyboard Layer 1 (Fail)
//Storyboard Layer 2 (Pass)
//Storyboard Layer 3 (Foreground)
//Storyboard Sound Samples

[TimingPoints]
242,1043.47826086957,4,2,1,100,1,0
8589,-100,4,2,2,100,0,0
9111,-100,4,2,1,60,0,0
41981,-100,4,2,2,60,0,0
42502,-100,4,2,1,40,0,0
75372,-100,4,2,2,40,0,0
75894,-100,4,2,1,40,0,0
79024,-100,4,2,1,5,0,0

[Colours]
Combo1 : 128,128,0
Combo2 : 0,255,128
Combo3 : 89,255,89
Combo4 : 255,255,128
Combo5 : 255,236,0
Combo6 : 255,145,91
Combo7 : 255,107,36
Combo8 : 166,83,0
SliderBorder : 255,255,102

[HitObjects]
40,96,8589,5,4,0:0:0:0:
116,28,9111,1,8,0:0:0:0:
184,100,9633,2,0,P|196:152|176:216,1,100,4|8,0:0|0:0,0:0:0:0:
160,240,10415,2,0,L|280:240,1,100
304,264,11198,1,8,0:0:0:0:
384,324,11720,2,0,P|436:336|496:312,1,100,4|8,0:0|0:0,0:0:0:0:
432,236,12763,6,0,B|448:192|448:192|428:136,1,100,4|8,0:0|0:0,0:0:0:0:
404,96,13546,1,0,0:0:0:0:
376,52,13807,2,0,L|260:52,1,100,4|8,0:0|0:0,0:0:0:0:
208,128,14850,1,4,0:0:0:0:
276,200,15372,1,8,0:0:0:0:
204,272,15894,2,0,P|156:280|92:268,1,100,4|8,0:0|0:0,0:0:0:0:
72,236,16676,1,0,0:0:0:0:
44,196,16937,6,0,P|36:148|48:84,1,100,4|8,0:0|0:0,0:0:0:0:
132,140,17981,2,0,L|232:140,1,100,4|8,0:0|0:0,0:0:0:0:
268,112,18763,1,0,0:0:0:0:
304,144,19024,1,4,0:0:0:0:
372,220,19546,1,8,0:0:0:0:
436,144,20068,2,0,P|444:108|432:40,1,100,4|8,0:0|0:0,0:0:0:0:
388,28,20850,1,0,0:0:0:0:
340,40,21111,6,0,L|228:40,1,100,4|8,0:0|0:0,0:0:0:0:
184,120,22155,1,4,0:0:0:0:
236,204,22676,1,8,0:0:0:0:
180,284,23198,2,0,B|132:296|132:296|80:284,1,100,4|8,0:0|0:0,0:0:0:0:
52,244,23981,1,0,0:0:0:0:
24,200,24242,2,0,P|21:176|28:138,1,50,4|0,0:0|0:0,0:0:0:0:
56,112,24763,2,0,P|59:87|56:62,1,50,8|0,0:0|0:0,0:0:0:0:
44,12,25285,6,0,P|80:32|156:24,1,100,4|8,0:0|0:0,0:0:0:0:
236,12,26328,2,0,L|348:12,1,100,4|8,0:0|0:0,0:0:0:0:
376,40,27111,1,0,0:0:0:0:
412,72,27372,2,0,P|420:108|408:184,1,100,4|8,0:0|0:0,0:0:0:0:
336,236,28415,1,4,0:0:0:0:
260,172,28937,1,8,0:0:0:0:
184,236,29459,6,0,P|148:244|72:232,1,100,4|8,0:0|0:0,0:0:0:0:
132,148,30502,2,0,P|168:140|244:152,1,100,4|8,0:0|0:0,0:0:0:0:
272,176,31285,1,0,0:0:0:0:
312,204,31546,2,0,L|312:324,1,100,4|8,0:0|0:0,0:0:0:0:
380,376,32589,1,4,0:0:0:0:
452,308,33111,1,8,0:0:0:0:
380,240,33633,6,0,P|368:196|384:128,1,100,4|8,0:0|0:0,0:0:0:0:
400,100,34415,1,0,0:0:0:0:
376,56,34676,2,0,B|328:44|328:44|272:60,1,100,4|8,0:0|0:0,0:0:0:0:
228,144,35720,2,0,B|179:157|179:157|131:145,1,100,4|8,0:0|0:0,0:0:0:0:
84,128,36502,1,0,0:0:0:0:
40,148,36763,2,0,L|20:256,1,100,4|8,0:0|0:0,0:0:0:0:
92,316,37807,6,0,L|112:204,1,100,4|8,0:0|0:0,0:0:0:0:
152,192,38589,1,0,0:0:0:0:
196,168,38850,2,0,P|244:160|312:176,1,100,4|8,0:0|0:0,0:0:0:0:
328,264,39894,2,0,P|377:272|426:264,1,100,4|8,0:0|0:0,0:0:0:0:
464,232,40676,1,0,0:0:0:0:
496,196,40937,2,0,P|496:171|494:146,1,50,4|0,0:0|0:0,0:0:0:0:
464,108,41459,2,0,P|462:77|464:48,1,50,8|0,0:0|0:0,0:0:0:0:
500,24,41981,6,0,L|388:24,1,100,4|8,0:0|0:0,0:0:0:0:
328,92,43024,2,0,P|276:100|216:88,1,100,4|8,0:0|0:0,0:0:0:0:
184,68,43807,1,0,0:0:0:0:
144,40,44068,2,0,P|94:32|45:40,1,100,4|8,0:0|0:0,0:0:0:0:
92,128,45111,2,0,P|84:177|92:226,1,100,4|8,0:0|0:0,0:0:0:0:
168,292,46155,5,4,0:0:0:0:
240,224,46676,1,8,0:0:0:0:
312,296,47198,2,0,L|376:296,2,50,4|0|8,0:0|0:0|0:0,0:0:0:0:
284,200,48242,2,0,L|404:200,1,100,4|8,0:0|0:0,0:0:0:0:
424,168,49024,1,0,0:0:0:0:
460,136,49285,2,0,P|472:92|448:24,1,100,4|8,0:0|0:0,0:0:0:0:
372,88,50328,6,0,B|324:68|324:100|272:84,1,100,4|8,0:0|0:0,0:0:0:0:
196,24,51372,1,0,0:0:0:0:
116,84,51894,1,8,0:0:0:0:
196,144,52415,2,0,P|204:180|196:248,1,100,4|10,0:0|0:0,0:0:0:0:
148,332,53459,2,0,L|256:332,1,100,2|10,0:0|0:0,0:0:0:0:
284,364,54242,1,0,0:0:0:0:
324,332,54502,5,6,0:0:0:0:
400,268,55024,1,8,0:0:0:0:
480,208,55546,2,0,P|488:172|472:100,1,100,4|8,0:0|0:0,0:0:0:0:
432,88,56328,1,0,0:0:0:0:
388,108,56589,2,0,L|288:108,1,100,4|8,0:0|0:0,0:0:0:0:
208,48,57633,1,6,0:0:0:0:
156,132,58155,2,0,L|84:132,1,50,10|8,0:0|0:0,0:0:0:0:
68,164,58676,5,6,0:0:0:0:
32,88,67024,6,0,L|140:108,1,100,4|8,0:0|0:0,0:0:0:0:
168,72,67807,1,0,0:0:0:0:
208,104,68068,2,0,L|306:85,1,100,4|8,0:0|0:0,0:0:0:0:
392,36,69111,2,0,P|404:84|380:152,1,100,4|8,0:0|0:0,0:0:0:0:
320,200,70155,1,4,0:0:0:0:
392,268,70676,1,8,0:0:0:0:
320,336,71198,6,0,P|276:344|200:328,1,100,4|8,0:0|0:0,0:0:0:0:
136,284,72242,2,0,P|105:282|68:288,2,50,4|0|8,0:0|0:0|0:0,0:0:0:0:
221,336,73285,1,4,0:0:0:0:
308,284,73807,1,8,0:0:0:0:
392,228,74328,2,0,L|512:228,1,100,4|8,0:0|0:0,0:0:0:0:
441,141,75372,5,6,0:0:0:0:
256,192,75633,12,0,79024,0:0:0:0:
