osu file format v14

[General]
AudioFilename: audio.mp3
AudioLeadIn: 0
PreviewTime: 8589
Countdown: 0
SampleSet: Soft
StackLeniency: 0.7
Mode: 0
LetterboxInBreaks: 0
WidescreenStoryboard: 0

[Editor]
DistanceSpacing: 1
BeatDivisor: 4
GridSize: 32
TimelineZoom: 0.6999999

[Metadata]
Title:Gogo 5-ji
TitleUnicode:午後5時
Artist:Atsuko Asahi & Manaka Kataoka
ArtistUnicode:朝日 温子 & 片岡 真央
Creator:PolkaMocha
Version:5:10 P.M. (Novice)
Source:とびだせ どうぶつの森
Tags:Animal Crossing crossing: New Leaf pm 5pm Nintendo 3ds elevator slow
BeatmapID:1112403
BeatmapSetID:524068

[Difficulty]
HPDrainRate:3
CircleSize:3.2
OverallDifficulty:3
ApproachRate:3
SliderMultiplier:1.8
SliderTickRate:1

[Events]
//Background and Video events
0,0,"evening_tea___animal_crossing_new_leaf_by_ethe-d6ti7m9.jpg",0,0
//Break Periods
2,58876,65584
//Storyboard Layer 0 (Background)
//Storyboard Layer 1 (Fail)
//Storyboard Layer 2 (Pass)
//Storyboard Layer 3 (Foreground)
//Storyboard Sound Samples

[TimingPoints]
242,1043.47826086957,4,2,1,100,1,0
8589,-100,4,2,2,100,0,0
9111,-100,4,2,1,40,0,0
41981,-100,4,2,2,100,0,0
42502,-100,4,2,1,40,0,0
75372,-100,4,2,2,40,0,0
75894,-100,4,2,1,40,0,0
79024,-100,4,2,1,5,0,0

[Colours]
Combo1 : 128,128,0
Combo2 : 0,255,128
Combo3 : 89,255,89
Combo4 : 255,255,128
Combo5 : 255,236,0
Combo6 : 255,145,91
Combo7 : 255,107,36
Combo8 : 166,83,0
SliderBorder : 255,255,102

[HitObjects]
56,344,8589,6,0,P|84:348|156:342,1,90,4|8,0:0|0:0,0:0:0:0:
200,272,9633,2,0,P|244:267|289:272,1,90,4|8,0:0|0:0,0:0:0:0:
340,348,10676,2,0,P|312:264|344:176,1,180,4|4,0:0|0:0,0:0:0:0:
412,124,12242,1,8,0:0:0:0:
340,72,12763,6,0,B|296:60|296:60|247:74,1,90,4|8,0:0|0:0,0:0:0:0:
180,124,13807,1,0,0:0:0:0:
96,284,14850,2,0,B|140:284|180:312|180:312|220:284|276:284,1,180,4|4,0:0|0:0,0:0:0:0:
340,332,16415,1,8,0:0:0:0:
412,280,16937,6,0,B|424:240|396:240|412:184,1,90,4|8,0:0|0:0,0:0:0:0:
368,112,17981,2,0,B|356:72|384:72|369:23,1,90,4|8,0:0|0:0,0:0:0:0:
280,40,19024,2,0,P|196:12|100:52,1,180,4|4,0:0|0:0,0:0:0:0:
44,100,20589,1,8,0:0:0:0:
112,160,21111,6,0,B|124:204|124:204|112:248,1,90,4|8,0:0|0:0,0:0:0:0:
204,236,22155,2,0,B|192:280|192:280|204:324,1,90,4|8,0:0|0:0,0:0:0:0:
284,280,23198,1,4,0:0:0:0:
360,324,23720,1,8,0:0:0:0:
436,276,24242,2,0,P|448:236|432:176,1,90,4|8,0:0|0:0,0:0:0:0:
348,176,25285,6,0,B|440:176|440:176|516:120,2,180,4|4|4,0:0|0:0|0:0,0:0:0:0:
280,116,27894,1,8,0:0:0:0:
216,180,28415,2,0,P|208:216|220:280,1,90,4|8,0:0|0:0,0:0:0:0:
296,312,29459,6,0,P|216:276|124:328,1,180,4|0,0:0|0:0,0:0:0:0:
76,244,31024,1,8,0:0:0:0:
16,176,31546,2,0,L|16:80,1,90,4|8,0:0|0:0,0:0:0:0:
76,20,32589,1,4,0:0:0:0:
144,80,33111,1,8,0:0:0:0:
208,20,33633,6,0,B|300:20|300:20|348:20|384:56,1,180,4|0,0:0|0:0,0:0:0:0:
476,204,35720,2,0,B|384:204|384:204|336:204|300:168,1,180,4|4,0:0|0:0,0:0:0:0:
236,116,37285,1,8,0:0:0:0:
168,172,37807,6,0,P|160:220|172:272,1,90,4|8,0:0|0:0,0:0:0:0:
256,252,38850,2,0,P|263:296|255:340,1,90,4|8,0:0|0:0,0:0:0:0:
168,372,39894,2,0,L|348:372,1,180,4|4,0:0|0:0,0:0:0:0:
408,304,41459,1,8,0:0:0:0:
460,228,41981,6,0,B|480:188|480:188|456:140,1,90,4|8,0:0|0:0,0:0:0:0:
368,148,43024,2,0,B|348:108|348:108|368:67,1,90,4|8,0:0|0:0,0:0:0:0:
452,36,44068,2,0,B|364:64|364:64|280:36,1,180,4|4,0:0|0:0,0:0:0:0:
304,220,46155,6,0,B|219:196|219:196|120:224,1,180,4|4,0:0|0:0,0:0:0:0:
44,248,47720,1,8,0:0:0:0:
64,160,48242,2,0,P|56:128|68:64,1,90,4|8,0:0|0:0,0:0:0:0:
240,112,49807,1,8,0:0:0:0:
308,168,50328,6,0,P|340:252|300:336,1,180,4|4,0:0|0:0,0:0:0:0:
228,376,51894,1,8,0:0:0:0:
148,332,52415,2,0,L|44:332,1,90,4|8,0:0|0:0,0:0:0:0:
84,244,53459,2,0,B|36:244|36:244|-4:216,1,90,4|8,0:0|0:0,0:0:0:0:
64,156,54502,5,4,0:0:0:0:
124,88,55024,2,0,P|208:64|296:88,1,180,8|8,0:0|0:0,0:0:0:0:
364,148,56589,2,0,P|372:196|360:252,1,90,4|8,0:0|0:0,0:0:0:0:
304,300,57633,1,4,0:0:0:0:
236,240,58155,1,8,0:0:0:0:
168,300,58676,5,6,0:0:0:0:
100,208,67024,6,0,L|252:316,1,180,4|4,0:0|0:0,0:0:0:0:
320,364,68589,1,8,0:0:0:0:
396,312,69111,2,0,P|404:268|392:216,1,90,4|8,0:0|0:0,0:0:0:0:
316,184,70155,2,0,P|308:140|320:88,1,90,4|8,0:0|0:0,0:0:0:0:
400,64,71198,6,0,B|364:80|312:92|312:92|264:80|228:64,1,180,4|4,0:0|0:0,0:0:0:0:
148,28,72763,1,8,0:0:0:0:
68,68,73285,2,0,L|68:172,1,90,0|8,0:0|0:0,0:0:0:0:
24,236,74328,2,0,B|56:236|68:244|68:244|80:236|112:236,1,90,4|8,0:0|0:0,0:0:0:0:
201,236,75372,5,6,0:0:0:0:
256,192,75633,12,0,79024,0:0:0:0:
