osu file format v14

[General]
AudioFilename: audio.mp3
AudioLeadIn: 0
PreviewTime: 8740
Countdown: 1
SampleSet: Soft
StackLeniency: 0.7
Mode: 0
LetterboxInBreaks: 0
WidescreenStoryboard: 1

[Editor]
Bookmarks: 9020,26634,35442,61864,69570
DistanceSpacing: 0.1
BeatDivisor: 1
GridSize: 32
TimelineZoom: 2

[Metadata]
Title:Christmas
TitleUnicode:クリスマス
Artist:Atsuko Asahi & Manaka Kataoka
ArtistUnicode:朝日 温子 & 片岡 真央
Creator:Veridian
Version:December 25th (Insane)
Source:とびだせ どうぶつの森
Tags:Animal Crossing: Crossing New Leaf Toy Day Holiday Snow Winter Festive Jolly Theme Background VGM BGM
BeatmapID:1475656
BeatmapSetID:694614

[Difficulty]
HPDrainRate:6
CircleSize:6
OverallDifficulty:7
ApproachRate:7
SliderMultiplier:1.8
SliderTickRate:1

[Events]
//Background and Video events
0,0,"villagerschristmas_by_orioto-dasyfh9.jpg",0,0
//Break Periods
//Storyboard Layer 0 (Background)
//Storyboard Layer 1 (Fail)
//Storyboard Layer 2 (Pass)
//Storyboard Layer 3 (Foreground)
//Storyboard Sound Samples

[TimingPoints]
208.889167347739,550.45871559633,4,2,1,30,1,0
621,-100,4,2,1,5,0,0
759,-100,4,2,1,30,0,0
1997,-100,4,2,1,5,0,0
2135,-100,4,2,1,30,0,0
4199,-100,4,2,1,5,0,0
4337,-100,4,2,1,30,0,0
5025,-100,4,2,1,5,0,0
5163,-100,4,2,1,30,0,0
6676,-100,4,2,1,5,0,0
6814,-100,4,2,1,30,0,0
8878,-100,4,2,1,5,0,0
9016,-100,4,2,1,30,0,0
13832,-100,4,2,1,5,0,0
13970,-100,4,2,1,30,0,0
15484,-100,4,2,1,5,0,0
15622,-100,4,2,1,30,0,0
16034,-100,4,2,1,5,0,0
16172,-100,4,2,1,30,0,0
16722,-83.3333333333333,4,2,1,30,0,0
17273,-71.4285714285714,4,2,1,30,0,0
17823,-62.5,4,2,1,30,0,0
18236,-100,4,2,1,5,0,0
18374,-100,4,2,1,30,0,0
18511,-100,4,2,1,5,0,0
18649,-100,4,2,1,30,0,0
19612,-100,4,2,1,5,0,0
19750,-100,4,2,1,30,0,0
22777,-83.3333333333333,4,2,1,30,0,0
22915,-83.3333333333333,4,2,1,5,0,0
23053,-83.3333333333333,4,2,1,30,0,0
23190,-83.3333333333333,4,2,1,5,0,0
23328,-83.3333333333333,4,2,1,30,0,0
23465,-83.3333333333333,4,2,1,5,0,0
23603,-83.3333333333333,4,2,1,30,0,0
23740,-83.3333333333333,4,2,1,5,0,0
23878,-83.3333333333333,4,2,1,30,0,0
24016,-83.3333333333333,4,2,1,5,0,0
24154,-83.3333333333333,4,2,1,30,0,0
24291,-83.3333333333333,4,2,1,5,0,0
24429,-100,4,2,1,30,0,0
28144,-100,4,2,1,5,0,0
28282,-100,4,2,1,30,0,0
31997,-100,4,2,1,5,0,0
32135,-100,4,2,1,30,0,0
44245,-100,4,2,1,50,0,1
44383,-100,4,2,1,5,0,1
44520,-100,4,2,1,50,0,1
44658,-100,4,2,1,5,0,1
44796,-100,4,2,1,50,0,1
45484,-100,4,2,1,5,0,1
45621,-100,4,2,1,50,0,1
45759,-100,4,2,1,5,0,1
45896,-100,4,2,1,50,0,1
50575,-100,4,2,1,5,0,1
50851,-100,4,2,1,5,0,0
53052,-100,4,2,1,30,0,0

[Colours]
Combo1 : 241,78,90
Combo2 : 170,255,85
Combo3 : 248,106,82
Combo4 : 128,210,255

[HitObjects]
52,84,208,6,0,P|96:100|124:196,1,135,0|0,1:2|0:2,0:2:0:0:
129,240,759,1,2,0:2:0:0:
40,172,1034,1,0,0:2:0:0:
212,208,1309,2,0,L|200:316,1,90,0|0,1:2|0:2,0:2:0:0:
176,120,1860,2,0,L|184:52,1,45,10|0,1:2|0:2,0:2:0:0:
116,16,2135,1,8,0:2:0:0:
264,136,2410,6,0,P|304:149|364:124,1,90,0|0,1:2|0:2,0:2:0:0:
308,56,2961,1,2,0:2:0:0:
400,200,3236,1,0,0:2:0:0:
472,148,3511,2,0,L|464:40,1,90,8|0,1:2|0:2,0:2:0:0:
404,224,4062,2,0,L|411:309,1,45,10|0,1:2|0:2,0:2:0:0:
420,288,4612,6,0,P|364:292|324:380,1,135,0|0,1:2|0:2,0:2:0:0:
272,296,5163,2,0,L|144:288,1,90,6|0,0:2|0:2,0:2:0:0:
56,152,5713,2,0,L|184:160,1,90,4|0,1:2|0:2,0:2:0:0:
256,72,6263,1,6,1:2:0:0:
312,144,6539,2,0,P|316:173|304:204,1,45,8|0,0:2|0:2,0:2:0:0:
392,88,6814,6,0,P|381:39|410:-15,1,90,12|0,1:2|0:2,0:2:0:0:
472,48,7364,1,2,0:2:0:0:
384,168,7640,1,0,0:2:0:0:
468,240,7915,2,0,L|484:140,1,90,4|0,1:2|0:2,0:2:0:0:
296,120,8465,2,0,L|316:276,1,135,2|0,1:2|0:2,0:2:0:0:
372,280,9016,6,0,B|280:248|280:328|172:276,1,180,2|0,1:2|0:2,0:2:0:0:
144,152,9841,1,0,0:2:0:0:
240,112,10117,2,0,P|252:160|228:212,1,90,2|0,1:2|0:2,0:2:0:0:
244,204,10484,1,4,0:2:0:0:
248,212,10575,1,4,0:2:0:0:
252,220,10667,1,4,1:2:0:0:
64,236,10942,1,10,0:2:0:0:
64,236,11080,1,0,0:2:0:0:
64,236,11218,6,0,P|32:164|84:56,1,180,10|8,1:2|0:2,0:2:0:0:
144,152,12043,1,2,0:2:0:0:
216,72,12318,1,2,1:2:0:0:
225,71,12410,1,0,0:2:0:0:
234,70,12502,1,0,0:2:0:0:
243,69,12594,1,0,0:2:0:0:
144,152,12869,1,0,1:2:0:0:
96,8,13144,1,2,0:2:0:0:
204,216,13419,6,0,P|160:240|80:212,1,135,2|0,1:2|0:2,0:2:0:0:
32,252,13970,1,0,0:2:0:0:
144,152,14245,1,0,0:2:0:0:
16,260,14520,2,0,P|4:308|23:358,1,90,0|4,1:2|0:2,0:2:0:0:
23,342,14887,1,4,0:2:0:0:
31,338,14978,1,4,0:2:0:0:
39,334,15071,1,4,1:2:0:0:
160,332,15346,2,0,L|105:356,1,45,8|0,0:2|0:2,0:2:0:0:
100,244,15621,2,0,L|240:180,1,135,8|0,1:2|0:2,0:2:0:0:
284,156,16172,6,0,B|300:116|300:116|280:56,1,90,10|0,0:2|0:2,0:2:0:0:
324,240,16722,2,0,B|276:252|276:252|236:296,1,107.999996704102,2|0,1:2|0:2,0:2:0:0:
376,160,17273,2,0,B|416:204|416:204|492:212,1,125.999996154785,2|0,1:2|0:2,0:2:0:0:
228,112,17823,6,0,B|124:72|124:168|16:116,1,216,2|0,1:2|0:2,0:2:0:0:
72,56,18374,2,0,P|68:32|81:0,1,45,6|0,0:2|0:2,0:2:0:0:
176,164,18649,1,0,0:2:0:0:
72,240,18924,1,2,1:2:0:0:
176,296,19199,1,4,0:2:0:0:
185,295,19291,1,4,0:2:0:0:
194,294,19383,1,4,0:2:0:0:
204,292,19474,2,0,L|279:282,1,45,4|0,1:2|0:2,0:2:0:0:
444,184,19750,1,10,0:2:0:0:
444,184,19887,1,0,0:2:0:0:
444,184,20025,6,0,P|380:220|268:152,1,180,10|8,1:2|0:2,0:2:0:0:
364,120,20851,1,2,0:2:0:0:
448,32,21126,1,2,1:2:0:0:
447,41,21218,1,0,0:2:0:0:
446,50,21310,1,0,0:2:0:0:
445,59,21402,1,0,0:2:0:0:
364,120,21676,1,0,1:2:0:0:
264,20,21952,1,2,0:2:0:0:
412,176,22227,2,0,B|368:196|368:196|244:164,1,135,2|0,1:2|0:2,0:2:0:0:
228,136,22777,6,0,L|152:136,1,53.9999983520508,2|0,0:2|0:2,0:2:0:0:
96,244,23052,2,0,L|172:244,1,53.9999983520508,0|0,0:2|0:2,0:2:0:0:
108,108,23328,2,0,P|103:148|132:188,1,53.9999983520508,0|0,1:2|0:2,0:2:0:0:
224,272,23603,2,0,P|229:232|200:192,1,53.9999983520508,2|0,0:2|0:2,0:2:0:0:
196,348,23878,2,0,L|280:344,1,53.9999983520508,4|0,1:2|0:2,0:2:0:0:
364,268,24153,2,0,L|292:272,1,53.9999983520508,10|0,0:2|0:2,0:2:0:0:
436,360,24429,5,8,1:2:0:0:
436,360,25254,1,0,0:2:0:0:
436,360,25529,2,0,P|472:296|428:196,1,180,2|0,1:2|1:2,0:2:0:0:
375,281,26355,1,0,0:2:0:0:
228,196,26630,6,0,P|288:208|336:180,1,90,6|0,1:2|0:2,0:2:0:0:
272,120,27181,1,2,0:2:0:0:
272,296,27456,1,0,0:2:0:0:
372,256,27731,2,0,P|394:216|352:120,1,135,6|0,1:2|0:2,0:2:0:0:
408,84,28282,1,6,0:2:0:0:
313,198,28557,1,10,0:2:0:0:
256,56,28832,6,0,B|172:28|184:116|64:60,1,180,14|0,1:2|0:2,0:2:0:0:
132,4,29658,1,2,0:2:0:0:
240,116,29933,2,0,L|228:224,1,90,6|0,1:2|0:2,0:2:0:0:
216,316,30484,1,2,0:2:0:0:
140,248,30759,1,0,0:2:0:0:
312,268,31034,6,0,L|296:384,1,90,6|0,1:2|0:2,0:2:0:0:
252,176,31585,2,0,P|300:156|388:188,1,135,6|0,1:2|0:2,0:2:0:0:
416,224,32135,2,0,P|428:268|403:328,1,90,0|0,1:2|0:2,0:2:0:0:
312,268,32685,1,6,0:2:0:0:
452,148,32961,1,10,0:2:0:0:
348,360,33236,6,0,L|236:352,1,90,14|0,1:2|0:2,0:2:0:0:
172,280,33786,1,8,0:2:0:0:
304,192,34062,1,2,0:2:0:0:
192,84,34337,2,0,P|180:132|196:176,1,90,2|0,1:2|0:2,0:2:0:0:
348,256,34887,1,8,0:2:0:0:
260,128,35163,1,2,0:2:0:0:
308,324,35438,6,0,B|388:360|384:272|504:344,2,180,4|2|2,1:2|0:2|1:2,0:2:0:0:
248,264,36814,1,0,0:2:0:0:
152,344,37089,1,0,0:2:0:0:
152,344,37640,6,0,L|144:152,1,180,2|0,1:2|0:2,0:2:0:0:
60,224,38465,1,2,0:2:0:0:
220,116,38740,2,0,P|166:77|63:130,1,180,2|0,1:2|0:2,0:2:0:0:
144,164,39566,1,10,0:2:0:0:
296,72,39841,6,0,B|364:72|364:72|396:104|396:104|488:104,2,180,10|0|2,1:2|0:2|1:2,0:2:0:0:
200,240,41493,1,0,0:2:0:0:
324,160,41768,1,2,0:2:0:0:
144,160,42043,6,0,P|115:202|160:331,1,180,2|0,1:2|0:2,0:2:0:0:
200,240,42869,1,2,0:2:0:0:
276,280,43144,2,0,P|292:236|268:188,1,90,2|0,1:2|0:2,0:2:0:0:
204,152,43695,1,2,0:2:0:0:
320,352,43970,1,10,0:2:0:0:
428,120,44245,6,0,L|420:40,1,45,6|0,1:2|0:2,0:2:0:0:
380,180,44520,2,0,L|388:268,1,45,0|0,0:2|0:2,0:2:0:0:
456,280,44796,1,2,1:2:0:0:
320,108,45071,1,0,0:2:0:0:
204,212,45346,6,0,P|232:216|276:192,1,45,6|0,1:2|0:2,0:2:0:0:
140,160,45621,2,0,P|112:156|68:180,1,45,8|0,0:2|0:2,0:2:0:0:
24,200,45896,1,8,0:2:0:0:
152,364,46172,1,2,1:2:0:0:
152,364,46309,1,0,0:2:0:0:
152,364,46447,6,0,L|168:236,1,90,6|0,1:2|0:2,0:2:0:0:
172,264,46814,1,0,0:2:0:0:
176,252,46906,1,0,0:2:0:0:
172,240,46997,1,2,1:2:0:0:
256,76,47273,1,2,0:2:0:0:
360,364,47548,6,0,L|344:236,1,90,6|0,1:2|0:2,0:2:0:0:
340,264,47915,1,0,0:2:0:0:
336,252,48007,1,0,0:2:0:0:
340,240,48098,1,2,1:2:0:0:
256,76,48374,1,2,0:2:0:0:
256,360,48649,5,6,1:2:0:0:
256,192,48786,12,0,50575,0:2:0:0:
256,192,50851,12,0,51952,0:2:0:0:
116,264,53052,6,0,P|176:336|400:252,1,360,2|0,0:2|0:2,0:2:0:0:
464,192,54979,1,8,0:2:0:0:
396,120,55254,2,0,P|336:48|112:132,1,360,10|0,0:2|0:2,0:2:0:0:
148,372,57456,6,0,B|64:196|268:204|148:24,1,360,2|0,0:2|0:2,0:2:0:0:
256,12,59383,1,8,0:2:0:0:
356,34,59658,2,0,B|244:204|448:196|364:372,1,360,10|4,0:2|0:2,0:2:0:0:
292,292,61034,1,2,0:2:0:0:
484,328,61309,1,0,0:2:0:0:
256,384,61585,1,2,0:2:0:0:
408,176,61860,6,0,L|400:284,1,90,6|0,1:2|0:2,0:2:0:0:
192,120,62410,1,2,0:2:0:0:
320,120,62685,1,0,0:2:0:0:
110,265,62961,2,0,L|104:176,1,90,2|0,1:2|0:2,0:2:0:0:
316,248,63511,1,0,1:2:0:0:
212,348,63786,1,10,0:2:0:0:
392,204,64062,6,0,P|403:241|372:312,1,90,14|0,1:2|0:2,0:2:0:0:
316,144,64612,1,0,0:2:0:0:
488,240,64887,1,0,0:2:0:0:
304,368,65163,1,2,1:2:0:0:
284,288,65438,1,2,0:2:0:0:
416,132,65713,1,0,1:2:0:0:
396,236,65988,1,2,0:2:0:0:
144,168,66263,6,0,B|236:132|220:212|328:160,2,180,6|0|0,1:2|0:2|0:2,0:2:0:0:
96,120,68190,1,8,0:2:0:0:
24,208,68465,2,0,L|40:304,1,90,10|0,1:2|0:2,0:2:0:0:
8,364,69016,1,2,0:2:0:0:
256,252,69566,5,8,0:0:0:0:
