osu file format v14

[General]
AudioFilename: audio.mp3
AudioLeadIn: 0
PreviewTime: 8740
Countdown: 1
SampleSet: Soft
StackLeniency: 0.7
Mode: 0
LetterboxInBreaks: 0
WidescreenStoryboard: 1

[Editor]
Bookmarks: 9020,26634,35442,61864,69570
DistanceSpacing: 1.8
BeatDivisor: 1
GridSize: 32
TimelineZoom: 1.3

[Metadata]
Title:Christmas
TitleUnicode:クリスマス
Artist:Atsuko Asahi & Manaka Kataoka
ArtistUnicode:朝日 温子 & 片岡 真央
Creator:Veridian
Version:December 24th (Hard)
Source:とびだせ どうぶつの森
Tags:Animal Crossing: Crossing New Leaf Toy Day Holiday Snow Winter Festive Jolly Theme Background VGM BGM
BeatmapID:1469484
BeatmapSetID:694614

[Difficulty]
HPDrainRate:5
CircleSize:4
OverallDifficulty:5.5
ApproachRate:6.3
SliderMultiplier:1.4
SliderTickRate:1

[Events]
//Background and Video events
0,0,"villagerschristmas_by_orioto-dasyfh9.jpg",0,0
//Break Periods
//Storyboard Layer 0 (Background)
//Storyboard Layer 1 (Fail)
//Storyboard Layer 2 (Pass)
//Storyboard Layer 3 (Foreground)
//Storyboard Sound Samples

[TimingPoints]
208,550.45871559633,4,2,1,30,1,0
621,-100,4,2,1,5,0,0
759,-100,4,2,1,30,0,0
1997,-100,4,2,1,5,0,0
2135,-100,4,2,1,30,0,0
4199,-100,4,2,1,5,0,0
4337,-100,4,2,1,30,0,0
5025,-100,4,2,1,5,0,0
5163,-100,4,2,1,30,0,0
6676,-100,4,2,1,5,0,0
6814,-100,4,2,1,30,0,0
8878,-100,4,2,1,5,0,0
9016,-100,4,2,1,30,0,0
13832,-100,4,2,1,5,0,0
13970,-100,4,2,1,30,0,0
15484,-100,4,2,1,5,0,0
15622,-100,4,2,1,30,0,0
16034,-100,4,2,1,5,0,0
16172,-100,4,2,1,30,0,0
18236,-100,4,2,1,5,0,0
18374,-100,4,2,1,30,0,0
18511,-100,4,2,1,5,0,0
18649,-100,4,2,1,30,0,0
19612,-100,4,2,1,5,0,0
19750,-100,4,2,1,30,0,0
22915,-100,4,2,1,5,0,0
23053,-100,4,2,1,30,0,0
23190,-100,4,2,1,5,0,0
23328,-100,4,2,1,30,0,0
23465,-100,4,2,1,5,0,0
23603,-100,4,2,1,30,0,0
23740,-100,4,2,1,5,0,0
23878,-100,4,2,1,30,0,0
24016,-100,4,2,1,5,0,0
24154,-100,4,2,1,30,0,0
24291,-100,4,2,1,5,0,0
24429,-100,4,2,1,30,0,0
28144,-100,4,2,1,5,0,0
28282,-100,4,2,1,30,0,0
31997,-100,4,2,1,5,0,0
32135,-100,4,2,1,30,0,0
44244,-100,4,2,1,50,0,1
44383,-100,4,2,1,5,0,1
44520,-100,4,2,1,50,0,1
44658,-100,4,2,1,5,0,1
44796,-100,4,2,1,50,0,1
45484,-100,4,2,1,5,0,1
45621,-100,4,2,1,50,0,1
45759,-100,4,2,1,5,0,1
45896,-100,4,2,1,50,0,1
50575,-100,4,2,1,5,0,1
50850,-100,4,2,1,5,0,0
53052,-100,4,2,1,30,0,0

[Colours]
Combo1 : 236,53,99
Combo2 : 170,255,85
Combo3 : 248,106,82
Combo4 : 34,140,66

[HitObjects]
256,48,208,5,0,1:2:0:0:
256,48,759,1,2,0:2:0:0:
256,172,1034,1,0,0:2:0:0:
148,112,1309,2,0,P|113:107|60:120,1,70,0|0,1:2|0:2,0:0:0:0:
221,264,1860,2,0,P|256:269|309:256,1,70,10|8,1:2|0:2,0:0:0:0:
256,144,2410,5,0,1:2:0:0:
256,144,2685,2,0,L|256:48,2,70,0|2|0,0:2|0:2|0:2,0:0:0:0:
364,112,3511,2,0,P|399:107|452:120,1,70,8|0,1:2|0:2,0:0:0:0:
291,264,4062,2,0,P|256:269|203:256,1,70,10|0,1:2|0:0,0:0:0:0:
148,164,4612,5,0,1:2:0:0:
148,164,5163,2,0,L|72:164,1,70,6|0,0:2|0:2,0:0:0:0:
20,276,5713,2,0,L|116:276,1,70,4|0,1:2|0:2,0:0:0:0:
180,364,6263,1,6,1:2:0:0:
180,364,6814,2,0,P|219:371|256:360,1,70,12|0,1:2|0:2,0:0:0:0:
336,272,7364,1,2,0:2:0:0:
244,184,7640,1,0,0:2:0:0:
336,100,7915,2,0,P|370:92|404:99,1,70,4|0,1:2|0:2,0:0:0:0:
496,184,8465,1,2,1:2:0:0:
496,184,9016,6,0,L|480:264,1,70,2|0,1:2|0:0,0:0:0:0:
376,320,9566,1,0,0:2:0:0:
376,196,9841,1,0,0:2:0:0:
264,256,10117,2,0,L|250:187,1,70,2|0,1:2|0:2,0:0:0:0:
220,64,10667,1,0,1:2:0:0:
124,144,10942,1,10,0:2:0:0:
124,144,11080,1,0,0:2:0:0:
124,144,11218,6,0,P|80:138|30:160,1,70,10|0,1:2|0:0,0:0:0:0:
92,264,11768,1,8,0:2:0:0:
92,264,12043,1,2,0:2:0:0:
216,272,12318,2,0,P|217:252|212:232,3,23.3333333333333,2|0|0|0,1:2|0:2|0:2|0:2,0:0:0:0:
308,164,12869,1,0,1:2:0:0:
408,244,13144,1,2,0:2:0:0:
508,168,13419,6,0,P|516:132|500:84,1,70,2|0,1:2|0:0,0:0:0:0:
412,20,13970,1,0,0:2:0:0:
412,20,14245,1,0,0:2:0:0:
312,96,14520,2,0,L|228:88,1,70,0|4,1:2|0:2,0:0:0:0:
86,168,15071,2,0,L|164:180,1,70,4|8,1:2|0:2,0:0:0:0:
352,76,15621,6,0,L|188:60,1,140,8|10,1:2|0:2,0:0:0:0:
100,8,16447,1,0,0:2:0:0:
108,132,16722,2,0,P|101:178|120:220,1,70,2|0,1:2|0:2,0:0:0:0:
200,355,17273,2,0,P|207:321|200:288,1,70,2|0,1:2|0:2,0:0:0:0:
292,204,17823,6,0,L|384:204,1,70,2|0,1:2|0:0,0:0:0:0:
440,304,18374,1,6,0:2:0:0:
512,204,18649,1,0,0:2:0:0:
440,100,18924,2,0,P|434:61|449:18,2,70,2|4|4,1:2|0:2|1:2,0:0:0:0:
320,64,19750,1,10,0:2:0:0:
320,64,19887,1,0,0:2:0:0:
320,64,20025,6,0,P|286:56|251:62,1,70,10|0,1:2|0:0,0:0:0:0:
160,148,20575,1,8,0:2:0:0:
252,236,20851,1,2,0:2:0:0:
164,324,21126,2,0,P|163:345|168:360,3,23.3333333333333,2|0|0|0,1:2|0:2|0:2|0:2,0:0:0:0:
252,236,21676,1,0,1:2:0:0:
160,148,21952,1,2,0:2:0:0:
252,60,22227,6,0,L|416:60,1,140,2|2,1:2|0:2,0:0:0:0:
508,8,23052,1,0,0:2:0:0:
496,132,23328,2,0,B|504:168|504:168|492:216,1,70,0|2,1:2|0:2,0:0:0:0:
416,364,23878,2,0,B|408:332|408:332|416:296,1,70,4|10,1:2|0:2,0:0:0:0:
332,200,24429,2,0,P|266:219|182:188,1,140,8|0,1:2|0:0,0:0:0:0:
264,92,25254,1,0,0:2:0:0:
264,92,25529,2,0,P|330:73|414:104,1,140,2|0,1:2|1:2,0:0:0:0:
484,184,26355,1,0,0:2:0:0:
396,276,26630,6,0,L|416:360,2,70,6|0|2,1:2|0:2|0:2,0:0:0:0:
296,352,27456,1,0,0:2:0:0:
196,276,27731,2,0,L|176:360,2,70,6|0|6,1:2|0:0|0:2,0:0:0:0:
232,156,28557,1,10,0:2:0:0:
112,196,28832,6,0,P|74:202|28:189,2,70,14|0|0,1:2|0:0|0:2,0:0:0:0:
232,156,29658,1,2,0:2:0:0:
348,108,29933,2,0,P|386:102|432:115,2,70,6|0|2,1:2|0:2|0:2,0:0:0:0:
232,64,30759,1,0,0:2:0:0:
380,192,31034,2,0,L|368:284,1,70,6|0,1:2|0:2,0:0:0:0:
276,344,31585,2,0,B|204:368|204:320|136:348,1,140,6|0,1:2|1:2,0:0:0:0:
56,252,32410,1,0,0:2:0:0:
140,160,32685,2,0,P|148:124|128:76,1,70,6|10,0:2|0:2,0:0:0:0:
228,252,33236,6,0,B|292:225|292:273|364:249,1,140,14|8,1:2|0:2,0:0:0:0:
460,332,34062,1,2,0:2:0:0:
484,208,34337,2,0,P|491:174|482:140,1,70,2|0,1:2|0:2,0:0:0:0:
400,44,34887,2,0,P|366:36|320:48,1,70,8|2,0:2|0:2,0:0:0:0:
252,140,35438,6,0,L|84:140,1,140,4|2,1:2|0:2,0:0:0:0:
264,340,36539,2,0,L|432:340,1,140,2|0,1:2|0:2,0:0:0:0:
448,92,37640,2,0,P|384:104|340:176,1,140,2|0,1:2|0:2,0:0:0:0:
256,252,38465,1,2,0:2:0:0:
169,162,38740,2,0,P|130:105|64:92,1,140,2|0,1:2|0:2,0:0:0:0:
60,220,39566,1,10,0:2:0:0:
168,284,39841,6,0,L|328:268,1,140,10|0,1:2|0:2,0:0:0:0:
344,20,40942,2,0,L|184:36,1,140,2|0,1:2|0:2,0:0:0:0:
80,52,41768,1,2,0:2:0:0:
160,148,42043,2,0,B|180:216|128:216|168:296,1,140,2|0,1:2|0:2,0:0:0:0:
256,372,42869,1,2,0:2:0:0:
349,284,43144,2,0,B|384:216|332:216|352:148,1,140,2|2,1:2|0:2,0:0:0:0:
452,72,43970,1,10,0:2:0:0:
256,16,44245,6,0,L|256:96,1,70,6|0,1:2|0:2,0:0:0:0:
136,52,44796,2,0,L|96:124,1,70,2|0,1:2|0:2,0:0:0:0:
376,52,45346,2,0,L|416:124,1,70,6|8,1:2|0:2,0:0:0:0:
476,220,45896,1,8,0:2:0:0:
412,328,46172,1,2,1:2:0:0:
412,328,46309,1,0,0:2:0:0:
412,328,46447,6,0,P|358:342|303:324,1,105,6|0,1:2|0:0,0:0:0:0:
256,360,46997,1,2,1:2:0:0:
168,272,47273,1,2,0:2:0:0:
116,156,47548,2,0,P|166:145|226:160,1,105,6|0,1:2|0:0,0:0:0:0:
256,208,48098,1,2,1:2:0:0:
348,124,48374,1,2,0:2:0:0:
456,308,48649,1,6,1:2:0:0:
256,192,48924,12,0,50300,0:0:0:0:
256,192,50851,12,0,52502,0:0:0:0:
128,224,53052,6,0,B|128:160|68:160|68:100,2,140,2|0|0,0:2|0:0|0:2,0:0:0:0:
384,224,54979,1,8,0:2:0:0:
384,224,55254,2,0,B|384:160|444:160|444:100,2,140,10|0|0,0:2|0:0|0:2,0:0:0:0:
128,160,57456,6,0,B|128:224|68:224|68:284,2,140,2|0|0,0:2|0:0|0:2,0:0:0:0:
384,160,59383,1,8,0:2:0:0:
384,160,59658,2,0,B|384:224|444:224|444:284,2,140,10|0|4,0:2|0:0|0:2,0:0:0:0:
484,84,61034,1,2,0:2:0:0:
384,8,61309,1,0,0:2:0:0:
284,84,61585,1,2,0:2:0:0:
384,160,61860,6,0,P|392:192|376:240,1,70,6|0,1:2|0:2,0:0:0:0:
288,308,62410,1,2,0:2:0:0:
288,308,62685,1,0,0:2:0:0:
192,228,62961,2,0,L|108:228,1,70,2|0,1:2|0:2,0:0:0:0:
32,140,63511,1,0,1:2:0:0:
120,48,63786,1,10,0:2:0:0:
216,128,64062,6,0,L|286:128,1,70,14|0,1:2|0:2,0:0:0:0:
376,40,64612,1,0,0:2:0:0:
376,40,64887,1,0,0:2:0:0:
464,128,65163,2,0,P|470:174|450:220,1,70,2|2,1:2|0:2,0:0:0:0:
383,364,65713,2,0,P|377:330|384:296,1,70,0|2,1:2|0:2,0:0:0:0:
308,188,66263,6,0,B|160:240|160:136|24:192,2,280,6|0|10,1:2|0:2|1:2,0:0:0:0:
384,96,68740,1,0,0:0:0:0:
456,200,69015,1,2,0:0:0:0:
256,48,69565,1,8,0:0:0:0:
