osu file format v14

[General]
AudioFilename: audio.mp3
AudioLeadIn: 0
PreviewTime: 8740
Countdown: 1
SampleSet: Soft
StackLeniency: 0.7
Mode: 0
LetterboxInBreaks: 0
WidescreenStoryboard: 1

[Editor]
Bookmarks: 9020,26634,35442,61864,69570
DistanceSpacing: 1.6
BeatDivisor: 1
GridSize: 32
TimelineZoom: 1.2

[Metadata]
Title:Christmas
TitleUnicode:クリスマス
Artist:Atsuko Asahi & Manaka Kataoka
ArtistUnicode:朝日 温子 & 片岡 真央
Creator:Veridian
Version:December 23rd (Normal)
Source:とびだせ どうぶつの森
Tags:Animal Crossing: Crossing New Leaf Toy Day Holiday Snow Winter Festive Jolly Theme Background VGM BGM
BeatmapID:1469483
BeatmapSetID:694614

[Difficulty]
HPDrainRate:3.5
CircleSize:3.2
OverallDifficulty:3
ApproachRate:3.5
SliderMultiplier:1.1
SliderTickRate:1

[Events]
//Background and Video events
0,0,"villagerschristmas_by_orioto-dasyfh9.jpg",0,0
//Break Periods
//Storyboard Layer 0 (Background)
//Storyboard Layer 1 (Fail)
//Storyboard Layer 2 (Pass)
//Storyboard Layer 3 (Foreground)
//Storyboard Sound Samples

[TimingPoints]
208,550.45871559633,4,2,1,30,1,0
621,-100,4,2,1,5,0,0
759,-100,4,2,1,30,0,0
1997,-100,4,2,1,5,0,0
2135,-100,4,2,1,30,0,0
4199,-100,4,2,1,5,0,0
4337,-100,4,2,1,30,0,0
5025,-100,4,2,1,5,0,0
5163,-100,4,2,1,30,0,0
6676,-100,4,2,1,5,0,0
6814,-100,4,2,1,30,0,0
8878,-100,4,2,1,5,0,0
9016,-100,4,2,1,30,0,0
13832,-100,4,2,1,5,0,0
13970,-100,4,2,1,30,0,0
15484,-100,4,2,1,5,0,0
15622,-100,4,2,1,30,0,0
16034,-100,4,2,1,5,0,0
16172,-100,4,2,1,30,0,0
18236,-100,4,2,1,5,0,0
18374,-100,4,2,1,30,0,0
18511,-100,4,2,1,5,0,0
18649,-100,4,2,1,30,0,0
19612,-100,4,2,1,5,0,0
19750,-100,4,2,1,30,0,0
22915,-100,4,2,1,5,0,0
23053,-100,4,2,1,30,0,0
23190,-100,4,2,1,5,0,0
23328,-100,4,2,1,30,0,0
23465,-100,4,2,1,5,0,0
23603,-100,4,2,1,30,0,0
23740,-100,4,2,1,5,0,0
23878,-100,4,2,1,30,0,0
24016,-100,4,2,1,5,0,0
24154,-100,4,2,1,30,0,0
24291,-100,4,2,1,5,0,0
24429,-100,4,2,1,30,0,0
28144,-100,4,2,1,5,0,0
28282,-100,4,2,1,30,0,0
31997,-100,4,2,1,5,0,0
32135,-100,4,2,1,30,0,0
44244,-100,4,2,1,50,0,1
44383,-100,4,2,1,5,0,1
44520,-100,4,2,1,50,0,1
44658,-100,4,2,1,5,0,1
44796,-100,4,2,1,50,0,1
45484,-100,4,2,1,5,0,1
45621,-100,4,2,1,50,0,1
45759,-100,4,2,1,5,0,1
45896,-100,4,2,1,50,0,1
50575,-100,4,2,1,5,0,1
50850,-100,4,2,1,5,0,0
53052,-100,4,2,1,30,0,0

[Colours]
Combo1 : 236,53,99
Combo2 : 170,255,85
Combo3 : 248,106,82
Combo4 : 34,140,66

[HitObjects]
152,276,208,5,0,1:2:0:0:
28,152,758,6,0,L|88:152,1,55,2|0,0:2|1:2,0:0:0:0:
148,92,1309,1,0,1:2:0:0:
272,216,1860,1,10,1:2:0:0:
444,172,2410,2,0,P|460:220|436:284,1,110,0|2,1:2|0:2,0:0:0:0:
396,348,3236,1,0,0:2:0:0:
396,348,3511,1,8,1:2:0:0:
272,216,4062,1,10,1:2:0:0:
156,348,4611,5,0,1:2:0:0:
40,216,5162,2,0,P|36:186|45:153,1,55,6|0,1:2|0:2,0:0:0:0:
108,88,5712,1,6,1:2:0:0:
272,148,6263,2,0,L|340:148,1,55,6|0,1:2|0:0,0:0:0:0:
412,172,6814,2,0,P|428:223|412:275,1,110,12|2,1:2|0:2,0:0:0:0:
368,352,7640,1,0,0:2:0:0:
368,352,7915,2,0,L|240:352,1,110,4|2,1:2|1:2,0:0:0:0:
112,256,9016,5,2,1:2:0:0:
260,156,9566,1,0,0:2:0:0:
328,104,9841,1,0,0:2:0:0:
260,48,10117,2,0,P|200:32|144:60,1,110,2|0,1:2|1:2,0:0:0:0:
104,116,10942,1,10,0:2:0:0:
32,68,11218,2,0,P|16:128|44:184,1,110,10|8,1:2|0:2,0:0:0:0:
0,252,12043,1,2,0:2:0:0:
40,332,12318,2,0,L|112:332,1,55,2|0,1:2|0:2,0:0:0:0:
156,268,12869,2,0,L|228:268,1,55,0|2,1:2|0:2,0:0:0:0:
264,340,13419,6,0,L|384:340,1,110,2|0,1:2|0:2,0:0:0:0:
452,384,14245,1,0,0:2:0:0:
452,384,14520,1,0,1:2:0:0:
508,216,15071,1,4,1:2:0:0:
364,116,15621,2,0,P|316:104|240:128,1,110,8|10,1:2|0:2,0:0:0:0:
192,176,16447,1,0,0:2:0:0:
128,116,16722,2,0,P|75:103|21:115,1,110,2|2,1:2|1:2,0:0:0:0:
24,292,17823,6,0,P|76:304|130:292,1,110,2|6,1:2|0:2,0:0:0:0:
196,236,18649,1,0,0:2:0:0:
196,236,18924,2,0,L|332:236,1,110,2|4,1:2|1:2,0:0:0:0:
376,288,19750,1,10,0:2:0:0:
376,288,20025,2,0,P|364:244|380:172,1,110,10|8,1:2|0:2,0:0:0:0:
440,124,20851,1,2,0:2:0:0:
376,64,21126,2,0,L|296:76,1,55,2|0,1:2|0:2,0:0:0:0:
248,24,21676,2,0,L|180:32,1,55,0|2,1:2|0:2,0:0:0:0:
140,100,22227,5,2,1:2:0:0:
56,252,22777,2,0,L|128:240,1,55,2|0,0:2|0:2,0:0:0:0:
180,304,23328,2,0,L|234:295,1,55,0|2,1:2|0:2,0:0:0:0:
304,348,23878,2,0,L|376:336,1,55,4|10,1:2|0:2,0:0:0:0:
436,380,24429,1,8,1:2:0:0:
500,124,25254,1,0,0:2:0:0:
500,124,25529,2,0,P|456:108|392:124,1,110,2|0,1:2|1:2,0:0:0:0:
324,168,26355,1,0,0:2:0:0:
280,92,26630,6,0,L|152:92,1,110,6|2,1:2|0:2,0:0:0:0:
104,32,27456,1,0,0:2:0:0:
32,84,27731,2,0,B|16:136|16:136|36:204,1,110,6|6,1:2|0:2,0:0:0:0:
100,244,28557,1,10,0:2:0:0:
168,188,28832,6,0,L|278:188,1,110,14|0,1:2|0:2,0:0:0:0:
340,124,29658,1,2,0:2:0:0:
340,124,29933,1,6,1:2:0:0:
432,276,30484,1,2,0:2:0:0:
512,120,31034,6,0,P|524:80|504:4,1,110,6|6,1:2|1:2,0:0:0:0:
340,60,32135,2,0,P|327:112|341:165,1,110,0|6,1:2|0:2,0:0:0:0:
408,224,32961,1,10,0:2:0:0:
340,280,33236,2,0,L|208:280,1,110,14|8,1:2|0:2,0:0:0:0:
164,340,34062,1,2,0:2:0:0:
164,340,34337,1,2,1:2:0:0:
60,200,34887,1,8,0:2:0:0:
8,128,35163,1,2,0:2:0:0:
64,60,35438,6,0,L|188:76,1,110,4|2,1:2|0:2,0:0:0:0:
244,236,36539,2,0,L|416:208,1,165,2|0,1:2|0:0,0:0:0:0:
480,260,37640,2,0,P|465:218|488:146,1,110,2|0,1:2|0:2,0:0:0:0:
456,72,38465,1,2,0:2:0:0:
368,84,38740,2,0,P|326:69|254:92,1,110,2|0,1:2|0:2,0:0:0:0:
176,64,39566,1,10,0:2:0:0:
200,148,39841,6,0,L|216:224,1,55,10|0,1:2|0:0,0:0:0:0:
264,272,40392,2,0,B|208:252|208:288|148:268,2,110,0|2|0,0:2|1:2|0:2,0:0:0:0:
332,332,41768,1,2,0:2:0:0:
396,272,42043,2,0,B|452:252|452:288|512:268,1,110,2|0,1:2|0:2,0:0:0:0:
480,184,42869,1,2,0:2:0:0:
508,100,43144,2,0,B|452:80|452:116|392:96,1,110,2|2,1:2|0:2,0:0:0:0:
336,36,43970,1,10,0:2:0:0:
276,100,44245,6,0,L|204:100,1,55,6|0,1:2|0:2,0:0:0:0:
160,164,44796,2,0,L|92:164,1,55,2|0,1:2|0:2,0:0:0:0:
40,224,45346,1,6,1:2:0:0:
256,376,46172,1,2,1:2:0:0:
328,328,46447,2,0,P|336:289|320:236,2,82.5,6|0|2,1:2|0:0|0:2,0:0:0:0:
184,328,47548,2,0,P|176:289|192:236,2,82.5,6|0|2,1:2|0:0|0:2,0:0:0:0:
256,376,48649,5,6,1:2:0:0:
256,192,48923,12,0,51951,0:2:0:0:
64,48,53052,6,0,L|88:180,2,110,2|0|0,0:2|0:0|0:2,0:0:0:0:
256,344,55254,2,0,L|256:224,2,110,10|0|0,0:2|0:0|0:2,0:0:0:0:
448,48,57456,2,0,L|424:180,2,110,2|0|0,0:2|0:0|0:2,0:0:0:0:
256,344,59658,2,0,L|256:224,1,110,10|0,0:2|0:0,0:0:0:0:
212,64,60759,2,0,P|208:36|216:-4,1,55,4|2,0:2|0:2,0:0:0:0:
299,9,61309,2,0,P|302:36|298:63,1,55,0|2,0:2|0:2,0:0:0:0:
256,140,61860,5,6,1:2:0:0:
212,216,62135,2,0,L|144:216,2,55,0|2|0,0:2|0:2|0:2,0:0:0:0:
300,216,62961,2,0,L|368:216,1,55,2|0,1:2|0:2,0:0:0:0:
424,268,63511,1,0,1:2:0:0:
496,216,63786,1,10,0:2:0:0:
496,216,64062,6,0,P|500:176|488:144,1,55,14|0,1:2|0:2,0:0:0:0:
456,84,64612,2,0,L|512:48,2,55,0|0|2,0:2|0:2|1:2,0:0:0:0:
380,128,65438,1,2,0:2:0:0:
304,84,65713,2,0,L|257:54,1,55,0|2,1:2|0:2,0:0:0:0:
216,132,66263,6,0,B|108:160|108:84|0:124,2,220,6|0|10,1:2|0:2|1:2,0:0:0:0:
264,60,68740,1,0,0:0:0:0:
264,60,69015,1,2,0:0:0:0:
380,192,69565,1,8,0:0:0:0:
