osu file format v14

[General]
AudioFilename: audio.mp3
AudioLeadIn: 0
PreviewTime: 8740
Countdown: 1
SampleSet: Soft
StackLeniency: 0.7
Mode: 0
LetterboxInBreaks: 0
WidescreenStoryboard: 1

[Editor]
Bookmarks: 9020,26634,35442,61864,69570
DistanceSpacing: 1
BeatDivisor: 1
GridSize: 32
TimelineZoom: 0.6999999

[Metadata]
Title:Christmas
TitleUnicode:クリスマス
Artist:Atsuko Asahi & Manaka Kataoka
ArtistUnicode:朝日 温子 & 片岡 真央
Creator:Veridian
Version:December 22nd (Simple)
Source:とびだせ どうぶつの森
Tags:Animal Crossing: Crossing New Leaf Toy Day Holiday Snow Winter Festive Jolly Theme Background VGM BGM
BeatmapID:1469482
BeatmapSetID:694614

[Difficulty]
HPDrainRate:2
CircleSize:2.5
OverallDifficulty:2
ApproachRate:2
SliderMultiplier:0.9
SliderTickRate:1

[Events]
//Background and Video events
0,0,"villagerschristmas_by_orioto-dasyfh9.jpg",0,0
//Break Periods
//Storyboard Layer 0 (Background)
//Storyboard Layer 1 (Fail)
//Storyboard Layer 2 (Pass)
//Storyboard Layer 3 (Foreground)
//Storyboard Sound Samples

[TimingPoints]
208,550.45871559633,4,2,1,30,1,0
621,-100,4,2,1,5,0,0
759,-100,4,2,1,30,0,0
1997,-100,4,2,1,5,0,0
2135,-100,4,2,1,30,0,0
4199,-100,4,2,1,5,0,0
4337,-100,4,2,1,30,0,0
5025,-100,4,2,1,5,0,0
5163,-100,4,2,1,30,0,0
6676,-100,4,2,1,5,0,0
6814,-100,4,2,1,30,0,0
8878,-100,4,2,1,5,0,0
9016,-100,4,2,1,30,0,0
13832,-100,4,2,1,5,0,0
13970,-100,4,2,1,30,0,0
15484,-100,4,2,1,5,0,0
15622,-100,4,2,1,30,0,0
16034,-100,4,2,1,5,0,0
16172,-100,4,2,1,30,0,0
18236,-100,4,2,1,5,0,0
18374,-100,4,2,1,30,0,0
18511,-100,4,2,1,5,0,0
18649,-100,4,2,1,30,0,0
19612,-100,4,2,1,5,0,0
19750,-100,4,2,1,30,0,0
22915,-100,4,2,1,5,0,0
23053,-100,4,2,1,30,0,0
23190,-100,4,2,1,5,0,0
23328,-100,4,2,1,30,0,0
23465,-100,4,2,1,5,0,0
23603,-100,4,2,1,30,0,0
23740,-100,4,2,1,5,0,0
23878,-100,4,2,1,30,0,0
24016,-100,4,2,1,5,0,0
24154,-100,4,2,1,30,0,0
24291,-100,4,2,1,5,0,0
24429,-100,4,2,1,30,0,0
28144,-100,4,2,1,5,0,0
28282,-100,4,2,1,30,0,0
31997,-100,4,2,1,5,0,0
32135,-100,4,2,1,30,0,0
44244,-100,4,2,1,50,0,1
44383,-100,4,2,1,5,0,1
44520,-100,4,2,1,50,0,1
44658,-100,4,2,1,5,0,1
44796,-100,4,2,1,50,0,1
45484,-100,4,2,1,5,0,1
45621,-100,4,2,1,50,0,1
45759,-100,4,2,1,5,0,1
45896,-100,4,2,1,50,0,1
50575,-100,4,2,1,5,0,1
50850,-100,4,2,1,5,0,0
53052,-100,4,2,1,30,0,0

[Colours]
Combo1 : 236,53,99
Combo2 : 170,255,85
Combo3 : 248,106,82
Combo4 : 34,140,66

[HitObjects]
24,192,208,6,0,L|120:192,1,90,0|2,1:2|0:2,0:0:0:0:
172,260,1309,1,0,1:2:0:0:
244,96,2410,2,0,P|285:86|344:104,1,90,0|2,1:2|0:2,0:0:0:0:
400,156,3511,1,8,1:2:0:0:
288,296,4612,1,0,1:2:0:0:
212,244,5163,2,0,P|171:254|112:236,2,90,6|4|6,0:2|1:2|1:2,0:0:0:0:
168,164,6814,1,12,1:2:0:0:
312,60,7915,2,0,L|416:60,1,90,4|2,1:2|1:2,0:0:0:0:
476,112,9016,6,0,P|487:161|463:215,1,90,2|0,1:2|0:2,0:0:0:0:
412,260,10117,1,2,1:2:0:0:
256,172,11218,1,10,1:2:0:0:
180,124,11768,2,0,B|180:56|180:56|184:52|184:52|176:52|176:52|180:48|180:48|180:32,2,90,8|2|0,0:2|1:2|1:2,0:0:0:0:
104,172,13419,1,2,1:2:0:0:
252,276,14520,6,0,B|296:276|296:276|340:308,1,90,0|4,1:2|1:2,0:0:0:0:
412,264,15621,1,8,1:2:0:0:
492,220,16172,2,0,P|504:268|488:316,2,90,10|2|2,0:2|1:2|1:2,0:0:0:0:
416,172,17823,6,0,L|308:172,1,90,2|6,1:2|0:2,0:0:0:0:
256,116,18924,1,2,1:2:0:0:
92,192,20025,1,10,1:2:0:0:
160,252,20575,2,0,B|160:320|160:320|156:324|156:324|164:324|164:324|160:328|160:328|160:344,2,90,8|2|0,0:2|1:2|1:2,0:0:0:0:
92,192,22227,5,2,1:2:0:0:
156,128,22777,2,0,P|168:96|148:32,1,90,2|0,0:2|1:2,0:0:0:0:
76,84,23878,2,0,P|64:116|84:180,1,90,4|8,1:2|1:2,0:0:0:0:
212,288,25529,2,0,L|304:288,1,90,2|0,1:2|1:2,0:0:0:0:
384,324,26630,6,0,B|396:296|396:296|380:228,2,90,6|2|6,1:2|0:2|1:2,0:0:0:0:
312,380,28282,1,6,0:2:0:0:
240,324,28832,2,0,P|196:314|144:328,1,90,14|0,1:2|0:2,0:0:0:0:
108,248,29933,2,0,P|138:214|152:162,1,90,6|2,1:2|0:2,0:0:0:0:
244,172,31034,2,0,P|257:215|295:253,1,90,6|6,1:2|1:2,0:0:0:0:
420,128,32685,5,6,0:2:0:0:
348,72,33236,2,0,L|256:72,1,90,14|8,1:2|0:2,0:0:0:0:
216,152,34337,2,0,L|112:152,1,90,2|8,1:2|0:2,0:0:0:0:
46,197,35438,6,0,P|58:157|34:101,2,90,4|2|2,1:2|0:2|1:2,0:0:0:0:
224,255,37640,2,0,P|213:307|228:349,2,90,2|0|2,1:2|0:2|1:2,0:0:0:0:
304,300,39291,1,0,0:2:0:0:
384,256,39841,2,0,L|484:256,2,90,10|0|2,1:2|0:2|1:2,0:0:0:0:
256,132,42043,2,0,L|156:132,2,90,2|0|2,1:2|0:2|1:2,0:0:0:0:
408,36,44245,5,6,1:2:0:0:
464,108,44796,1,2,1:2:0:0:
408,180,45346,1,6,1:2:0:0:
228,180,46447,1,6,1:2:0:0:
174,106,46997,1,2,1:2:0:0:
227,33,47548,1,6,1:2:0:0:
313,61,48098,1,2,1:2:0:0:
312,151,48649,5,6,1:2:0:0:
256,192,49199,12,2,53052,0:2:0:0:
100,232,55254,6,0,B|136:140|60:140|104:40,1,180,10|0,0:2|0:2,0:0:0:0:
256,140,57456,2,0,B|293:222|217:222|253:314,1,180,2|0,0:2|0:2,0:0:0:0:
411,230,59658,2,0,B|376:140|452:140|414:57,1,180,10|4,0:2|0:2,0:0:0:0:
340,8,61309,1,0,0:2:0:0:
264,56,61860,6,0,B|216:56|216:56|164:28,2,90,6|2|2,1:2|0:2|1:2,0:0:0:0:
340,108,63511,1,0,1:2:0:0:
420,152,64062,2,0,B|468:152|468:152|520:180,2,90,14|0|2,1:2|0:2|1:2,0:0:0:0:
340,188,65713,1,0,1:2:0:0:
256,152,66263,6,0,B|168:112|168:184|76:152,2,180,6|0|10,1:2|0:2|1:2,0:0:0:0:
324,212,69015,1,2,0:0:0:0:
392,152,69565,1,8,0:0:0:0:
