osu file format v14

[General]
AudioFilename: Animal Crossing New Leaf Music - Bubblegum K.K. (Aircheck).mp3
AudioLeadIn: 0
PreviewTime: 28737
Countdown: 0
SampleSet: Soft
StackLeniency: 0.4
Mode: 0
LetterboxInBreaks: 0
SkinPreference:cuteskinv2
WidescreenStoryboard: 1

[Editor]
DistanceSpacing: 1.3
BeatDivisor: 2
GridSize: 32
TimelineZoom: 1.7

[Metadata]
Title:Bubblegum K.K.
TitleUnicode:けけアイドル
Artist:Atsuko Asahi & Manaka Kataoka
ArtistUnicode:朝日温子 & 片岡真央
Creator:Veridian
Version:Normal
Source:とびだせ どうぶつの森
Tags:Keke Aidoru PolkaMocha Polka Slider Nintendo Aircheck Good Animal crossing crossing: new leaf kk pop radio
BeatmapID:1281642
BeatmapSetID:364938

[Difficulty]
HPDrainRate:4
CircleSize:3
OverallDifficulty:4
ApproachRate:4
SliderMultiplier:0.999999999999999
SliderTickRate:1

[Events]
//Background and Video events
0,0,"Jelly-Bean-Wallpaper-Bubble-Gum-1024x910.jpg",0,0
//Break Periods
//Storyboard Layer 0 (Background)
//Storyboard Layer 1 (Fail)
//Storyboard Layer 2 (Pass)
//Storyboard Layer 3 (Foreground)
//Storyboard Sound Samples

[TimingPoints]
576,387.096774193548,4,2,0,50,1,0
769,-100,4,2,1,50,0,0
29995,-100,4,2,0,50,0,1
30188,-100,4,2,2,50,0,1
35801,-100,4,2,1,50,0,0
36188,-100,4,2,0,50,0,1
36382,-100,4,2,2,50,0,1
42382,-100,4,2,0,50,0,0
42575,-100,4,2,2,50,0,0
47775,387.096774193548,4,2,1,50,1,0
52033,-100,4,2,1,5,0,0

[Colours]
Combo1 : 235,91,255
Combo2 : 251,202,4
Combo3 : 255,128,0
Combo4 : 254,70,44
Combo5 : 254,61,80
Combo6 : 255,100,166

[HitObjects]
156,352,576,6,0,L|128:240,1,99.9999999999999,6|10,0:0|0:0,0:0:0:0:
116,192,1156,1,2,0:0:0:0:
88,132,1350,2,0,P|52:116|20:120,2,50,2|2|10,0:0|0:0|0:0,0:0:0:0:
208,188,2124,2,0,P|240:160|304:148,1,99.9999999999999,2|0,0:0|0:0,0:0:0:0:
356,168,2705,1,2,0:0:0:0:
493,305,3285,1,2,0:0:0:0:
493,305,5221,6,0,P|508:268|488:196,1,99.9999999999999,6|2,0:0|0:0,0:0:0:0:
456,164,5801,1,4,0:0:0:0:
404,124,5995,2,0,L|284:116,1,99.9999999999999,4|8,0:0|0:0,0:0:0:0:
344,240,6769,2,0,L|224:232,1,99.9999999999999,4|0,0:0|0:0,0:0:0:0:
184,260,7350,1,6,0:0:0:0:
128,232,7543,2,0,L|88:136,1,99.9999999999999,6|10,0:0|0:0,0:0:0:0:
176,40,8317,6,0,L|224:148,1,99.9999999999999,6|2,0:0|0:0,0:0:0:0:
240,192,8898,1,6,0:0:0:0:
304,172,9092,2,0,P|331:169|366:176,2,50,6|2|10,0:0|0:0|0:0,0:0:0:0:
268,296,9866,2,0,P|234:298|207:294,1,50,6|2,0:0|0:0,0:0:0:0:
172,252,10253,2,0,P|136:252|112:256,1,50,2|6,0:0|0:0,0:0:0:0:
72,296,10640,1,6,0:0:0:0:
8,184,11027,1,10,0:0:0:0:
116,112,11414,6,0,P|168:88|204:36,1,99.9999999999999,6|2,0:0|0:0,0:0:0:0:
252,24,11995,1,4,0:0:0:0:
308,60,12188,2,0,P|341:96|387:116,1,99.9999999999999,4|8,0:0|0:0,0:0:0:0:
512,156,12963,2,0,L|472:260,1,99.9999999999999,4|0,0:0|0:0,0:0:0:0:
432,296,13543,1,6,0:0:0:0:
388,248,13737,2,0,P|354:211|308:191,1,99.9999999999999,6|10,0:0|0:0,0:0:0:0:
288,64,14511,6,0,P|237:81|195:134,1,99.9999999999999,6|0,0:0|0:0,0:0:0:0:
177,172,15092,1,4,0:0:0:0:
140,228,15285,2,0,L|104:64,1,150,6|2,0:0|0:0,0:0:0:0:
56,40,16059,1,4,0:0:0:0:
28,232,16640,2,0,L|16:304,2,50,6|6|2,0:0|0:0|0:0,0:0:0:0:
40,168,17221,1,10,0:0:0:0:
160,220,17608,6,0,P|208:232|264:216,1,99.9999999999999,6|2,0:0|0:0,0:0:0:0:
320,200,18188,1,4,0:0:0:0:
384,180,18382,2,0,P|432:168|480:180,1,99.9999999999999,6|8,0:0|0:0,0:0:0:0:
428,300,19156,2,0,P|404:336|344:364,1,99.9999999999999,6|0,0:0|0:0,0:0:0:0:
296,336,19737,1,4,0:0:0:0:
236,360,19930,2,0,P|191:338|162:297,1,99.9999999999999,4|10,0:0|0:0,0:0:0:0:
188,172,20705,6,0,L|216:56,1,99.9999999999999,6|2,0:0|0:0,0:0:0:0:
236,16,21285,1,4,0:0:0:0:
236,16,21479,1,6,0:0:0:0:
320,116,21866,1,8,0:0:0:0:
404,24,22253,5,6,0:0:0:0:
504,192,22834,1,6,0:0:0:0:
456,236,23027,2,0,P|404:244|340:228,1,99.9999999999999,6|10,0:0|0:0,0:0:0:0:
264,148,23801,6,0,P|214:139|165:147,1,99.9999999999999,6|2,0:0|0:0,0:0:0:0:
104,168,24382,1,4,0:0:0:0:
44,188,24575,2,0,L|16:308,1,99.9999999999999,6|8,0:0|0:0,0:0:0:0:
128,360,25350,2,0,L|152:248,1,99.9999999999999,6|0,0:0|0:0,0:0:0:0:
208,240,25930,1,6,0:0:0:0:
268,216,26124,2,0,L|280:156,2,50,6|2|0,0:0|0:0|0:0,0:0:0:0:
364,304,26898,6,0,P|376:264|432:220,1,99.9999999999999,6|0,0:0|0:0,0:0:0:0:
468,184,27479,1,4,0:0:0:0:
420,140,27672,2,0,P|382:107|366:61,1,99.9999999999999,4|12,0:0|0:0,0:0:0:0:
408,12,28253,1,4,0:0:0:0:
80,196,29995,6,0,L|24:168,2,50,6|2|10,0:0|0:0|0:0,0:0:0:0:
132,236,30575,2,0,P|180:248|244:224,1,99.9999999999999,2|4,0:0|0:0,0:0:0:0:
288,212,31156,1,8,0:0:0:0:
412,248,31543,2,0,L|480:276,2,50,6|2|10,0:0|0:0|0:0,0:0:0:0:
416,184,32124,2,0,L|472:164,2,50,2|6|6,0:0|0:0|0:0,0:0:0:0:
360,216,32705,1,10,0:0:0:0:
300,240,32898,6,0,B|224:276|224:212|140:252,1,150,2|10,0:0|0:0,0:0:0:0:
48,320,33866,2,0,L|40:252,1,50,6|4,0:0|0:0,0:0:0:0:
32,204,34253,1,10,0:0:0:0:
12,76,34640,2,0,P|48:72|144:152,1,150,6|2,0:0|0:0,0:0:0:0:
136,200,35414,2,0,L|204:192,1,50,4|8,0:0|0:0,0:0:0:0:
232,240,35801,2,0,L|296:232,1,50,10|2,0:0|0:0,0:0:0:0:
336,268,36188,6,0,L|336:336,2,50,6|2|10,0:0|0:0|0:0,0:0:0:0:
392,236,36769,2,0,P|404:200|384:124,1,99.9999999999999,2|4,0:0|0:0,0:0:0:0:
336,108,37350,1,8,0:0:0:0:
212,76,37737,2,0,P|220:48|244:16,2,50,6|2|10,0:0|0:0|0:0,0:0:0:0:
148,76,38317,2,0,P|140:48|116:16,2,50,2|6|6,0:0|0:0|0:0,0:0:0:0:
180,132,38898,1,8,0:0:0:0:
180,132,39092,6,0,L|180:296,1,150,2|10,0:0|0:0,0:0:0:0:
292,348,40059,2,0,L|292:284,1,50,6|4,0:0|0:0,0:0:0:0:
340,256,40446,1,10,0:0:0:0:
448,184,40834,2,0,P|416:152|304:132,1,150,6|0,0:0|0:0,0:0:0:0:
260,160,41608,2,0,P|224:164|192:152,1,50,6|10,0:0|0:0,0:0:0:0:
160,124,41995,2,0,P|135:120|110:125,1,50,10|2,0:0|0:0,0:0:0:0:
52,156,42382,6,0,L|24:276,1,99.9999999999999,6|10,0:0|0:0,0:0:0:0:
48,316,42963,1,2,0:0:0:0:
176,288,43350,2,0,L|200:208,1,50,4|8,0:0|0:0,0:0:0:0:
224,116,43930,1,6,0:0:0:0:
300,220,44317,1,10,0:0:0:0:
348,176,44511,2,0,P|404:160|472:180,1,99.9999999999999,2|6,0:0|0:0,0:0:0:0:
496,204,45092,1,10,0:0:0:0:
408,300,45479,5,4,0:0:0:0:
364,344,45672,2,0,P|308:360|240:340,1,99.9999999999999,2|2,0:0|0:0,0:0:0:0:
224,308,46253,2,0,L|216:228,2,66.6666666666666,2|0|2,0:0|0:0|0:0,0:0:0:0:
156,360,47027,1,2,0:0:0:0:
52,284,47414,1,8,0:0:0:0:
256,192,48936,12,0,52033,0:0:0:0:
