osu file format v14

[General]
AudioFilename: Animal Crossing New Leaf Music - Bubblegum K.K. (Aircheck).mp3
AudioLeadIn: 0
PreviewTime: 28737
Countdown: 0
SampleSet: Soft
StackLeniency: 0.7
Mode: 0
LetterboxInBreaks: 0
SkinPreference:cuteskinv2
WidescreenStoryboard: 1

[Editor]
DistanceSpacing: 1.14
BeatDivisor: 4
GridSize: 32
TimelineZoom: 2.699999

[Metadata]
Title:Bubblegum K.K.
TitleUnicode:けけアイドル
Artist:Atsuko Asahi & Manaka Kataoka
ArtistUnicode:朝日温子 & 片岡真央
Creator:Veridian
Version:Insane
Source:とびだせ どうぶつの森
Tags:Keke Aidoru PolkaMocha Polka Slider Nintendo Aircheck Good Animal crossing crossing: new leaf kk pop radio
BeatmapID:1281645
BeatmapSetID:364938

[Difficulty]
HPDrainRate:6
CircleSize:4
OverallDifficulty:7
ApproachRate:8
SliderMultiplier:1.7
SliderTickRate:1

[Events]
//Background and Video events
0,0,"Jelly-Bean-Wallpaper-Bubble-Gum-1024x910.jpg",0,0
//Break Periods
//Storyboard Layer 0 (Background)
//Storyboard Layer 1 (Fail)
//Storyboard Layer 2 (Pass)
//Storyboard Layer 3 (Foreground)
//Storyboard Sound Samples

[TimingPoints]
576,387.096774193548,4,2,0,50,1,0
769,-100,4,2,1,50,0,0
5148,-100,4,2,1,50,0,0
29995,-100,4,2,0,50,0,1
30188,-100,4,2,2,50,0,1
35801,-100,4,2,1,50,0,0
36188,-100,4,2,0,50,0,1
36382,-100,4,2,2,50,0,1
42382,-100,4,2,0,50,0,0
42575,-100,4,2,2,50,0,0
47775,387.096774193548,4,2,1,50,1,0
52033,-100,4,2,1,5,0,0

[Colours]
Combo1 : 235,91,255
Combo2 : 251,202,4
Combo3 : 255,128,0
Combo4 : 254,70,44
Combo5 : 254,61,80
Combo6 : 255,100,166

[HitObjects]
388,60,382,5,8,0:0:0:0:
388,60,479,1,0,0:0:0:0:
388,60,576,2,0,L|388:156,1,85,6|0,0:0|0:0,0:0:0:0:
468,196,963,1,10,0:0:0:0:
388,248,1156,1,2,0:0:0:0:
308,196,1350,2,0,P|260:216|228:260,1,85,2|2,0:0|0:0,0:0:0:0:
169,308,1737,2,0,P|138:278|99:264,1,85,10|2,0:0|0:0,0:0:0:0:
4,264,2124,5,2,0:0:0:0:
56,352,2317,1,2,0:0:0:0:
56,352,2511,1,0,0:0:0:0:
56,176,2705,1,2,0:0:0:0:
64,183,3092,5,0,0:0:0:0:
64,183,3188,1,2,0:0:0:0:
64,183,3285,1,2,0:0:0:0:
56,176,5221,6,0,B|140:152|140:204|240:172,1,170,6|2,0:0|0:0,0:0:0:0:
296,112,5801,1,4,0:0:0:0:
364,180,5995,2,0,P|372:232|352:284,1,85,4|0,0:0|0:0,0:0:0:0:
252,356,6382,1,8,0:0:0:0:
252,356,6769,6,0,L|48:344,1,170,4|0,0:0|0:0,0:0:0:0:
16,276,7350,1,6,0:0:0:0:
88,212,7543,2,0,L|200:220,1,85,6|2,0:0|0:0,0:0:0:0:
256,96,7930,1,10,0:0:0:0:
256,96,8317,6,0,P|300:88|360:104,1,85,6|0,0:0|0:0,0:0:0:0:
384,180,8705,2,0,P|340:188|280:172,1,85,2|6,0:0|0:0,0:0:0:0:
256,96,9092,1,6,0:0:0:0:
208,180,9285,1,2,0:0:0:0:
160,96,9479,1,10,0:0:0:0:
160,96,9866,5,6,0:0:0:0:
208,232,10059,1,2,0:0:0:0:
256,96,10253,1,2,0:0:0:0:
136,176,10446,5,6,0:0:0:0:
280,176,10640,1,6,0:0:0:0:
136,72,10834,1,2,0:0:0:0:
208,232,11027,2,0,P|248:264|304:260,1,85,10|2,0:0|0:0,0:0:0:0:
350,132,11414,6,0,L|364:216,1,85,6|0,0:0|0:0,0:0:0:0:
444,152,11801,2,0,L|424:44,1,85,2|4,0:0|0:0,0:0:0:0:
336,36,12188,1,4,0:0:0:0:
256,212,12575,1,8,0:0:0:0:
176,36,12963,6,0,P|124:28|120:132,1,170,4|0,0:0|0:0,0:0:0:0:
164,200,13543,1,6,0:0:0:0:
248,148,13737,2,0,B|292:140|292:140|338:150,1,85,6|2,0:0|0:0,0:0:0:0:
332,244,14124,2,0,B|288:252|288:252|242:242,1,85,10|2,0:0|0:0,0:0:0:0:
412,196,14511,6,0,B|448:120|376:100|420:16,1,170,6|0,0:0|0:0,0:0:0:0:
504,68,15092,1,4,0:0:0:0:
331,148,15285,2,0,P|287:176|160:128,1,170,6|8,0:0|0:0,0:0:0:0:
100,96,15866,1,2,0:0:0:0:
100,96,15963,1,2,0:0:0:0:
100,96,16059,6,0,B|145:114|148:156|148:156|148:268,1,170,4|0,0:0|0:0,0:0:0:0:
148,344,16640,1,6,0:0:0:0:
220,220,16834,1,6,0:0:0:0:
76,220,17027,1,2,0:0:0:0:
148,356,17221,1,10,0:0:0:0:
228,232,17414,1,2,0:0:0:0:
68,228,17608,6,0,P|60:272|76:328,1,85,6|0,0:0|0:0,0:0:0:0:
148,364,17995,1,2,0:0:0:0:
228,315,18188,1,4,0:0:0:0:
228,315,18382,2,0,P|235:273|227:231,1,85,6|0,0:0|0:0,0:0:0:0:
152,172,18769,1,8,0:0:0:0:
460,165,19059,1,0,0:0:0:0:
460,165,19156,6,0,B|380:200|380:132|296:172,1,170,6|0,0:0|0:0,0:0:0:0:
420,76,19737,1,4,0:0:0:0:
420,76,19930,1,4,0:0:0:0:
340,252,20124,1,2,0:0:0:0:
288,140,20317,1,10,0:0:0:0:
340,276,20511,1,2,0:0:0:0:
388,168,20705,5,6,0:0:0:0:
340,296,20898,2,0,L|224:280,1,85,2|2,0:0|0:0,0:0:0:0:
172,336,21285,1,4,0:0:0:0:
92,280,21479,2,0,P|84:236|100:176,1,85,6|0,0:0|0:0,0:0:0:0:
172,148,21866,1,8,0:0:0:0:
308,200,22156,1,2,0:0:0:0:
308,200,22253,6,0,P|332:252|288:368,1,170,6|0,0:0|0:0,0:0:0:0:
100,276,22834,1,6,0:0:0:0:
244,276,23027,1,6,0:0:0:0:
172,352,23221,1,2,0:0:0:0:
172,208,23414,1,10,0:0:0:0:
172,376,23608,1,2,0:0:0:0:
172,184,23801,6,0,B|176:136|160:136|176:80,1,85,6|0,0:0|0:0,0:0:0:0:
100,44,24188,1,2,0:0:0:0:
260,124,24382,1,4,0:0:0:0:
260,124,24575,2,0,P|304:132|360:116,1,85,6|0,0:0|0:0,0:0:0:0:
428,76,24963,1,8,0:0:0:0:
464,216,25253,1,2,0:0:0:0:
464,216,25350,6,0,P|496:264|448:376,1,170,6|0,0:0|0:0,0:0:0:0:
400,292,25930,1,6,0:0:0:0:
232,292,26124,1,6,0:0:0:0:
364,208,26317,1,2,0:0:0:0:
316,352,26511,1,10,0:0:0:0:
272,208,26705,1,2,0:0:0:0:
316,368,26898,5,6,0:0:0:0:
320,76,27479,1,4,0:0:0:0:
320,76,27672,1,4,0:0:0:0:
168,192,28059,1,12,0:0:0:0:
168,192,28253,1,4,0:0:0:0:
412,352,28834,5,2,0:0:0:0:
472,168,29221,1,2,0:0:0:0:
284,212,29608,1,2,0:0:0:0:
412,352,29995,6,0,L|448:252,1,85,6|2,0:0|0:0,0:0:0:0:
472,180,30382,1,10,0:0:0:0:
344,272,30575,2,0,L|404:108,1,170,2|4,0:0|0:0,0:0:0:0:
340,40,31156,1,8,0:0:0:0:
64,104,31543,5,6,0:0:0:0:
124,180,31737,1,2,0:0:0:0:
184,104,31930,1,10,0:0:0:0:
124,28,32124,1,2,0:0:0:0:
32,127,32317,1,6,0:0:0:0:
216,128,32511,1,6,0:0:0:0:
36,36,32705,1,10,0:0:0:0:
248,216,32898,6,0,P|288:192|284:64,1,170,2|0,0:0|0:0,0:0:0:0:
199,44,33479,2,0,L|219:148,1,85,10|0,0:0|0:0,0:0:0:0:
136,184,33866,2,0,L|116:88,1,85,6|4,0:0|0:0,0:0:0:0:
24,76,34253,2,0,L|44:180,1,85,10|0,0:0|0:0,0:0:0:0:
20,264,34640,6,0,B|103:223|97:291|184:252,1,170,6|10,0:0|0:0,0:0:0:0:
183,252,35124,1,2,0:0:0:0:
183,252,35221,1,4,0:0:0:0:
252,184,35414,1,4,0:0:0:0:
344,68,35608,1,8,0:0:0:0:
172,64,35801,1,10,0:0:0:0:
360,184,35995,1,2,0:0:0:0:
256,16,36188,5,6,0:0:0:0:
256,188,36382,1,2,0:0:0:0:
172,64,36575,1,10,0:0:0:0:
360,184,36769,2,0,P|371:226|352:283,1,85,2|4,0:0|0:0,0:0:0:0:
292,332,37156,1,4,0:0:0:0:
204,368,37350,2,0,P|196:326|207:286,1,85,8|0,0:0|0:0,0:0:0:0:
208,128,37737,5,6,0:0:0:0:
288,208,37930,1,2,0:0:0:0:
124,208,38124,1,10,0:0:0:0:
208,108,38317,1,2,0:0:0:0:
209,247,38511,1,6,0:0:0:0:
120,44,38705,2,0,P|151:11|192:0,1,85,2|8,0:0|0:0,0:0:0:0:
120,132,39092,6,0,P|60:112|40:8,1,170,2|0,0:0|0:0,0:0:0:0:
224,104,39672,2,0,L|200:208,1,85,10|0,0:0|0:0,0:0:0:0:
184,280,40059,1,6,0:0:0:0:
184,280,40253,1,4,0:0:0:0:
276,256,40446,2,0,L|300:156,1,85,10|0,0:0|0:0,0:0:0:0:
320,80,40834,6,0,P|376:48|488:112,1,170,6|8,0:0|0:0,0:0:0:0:
396,140,41414,1,0,0:0:0:0:
400,236,41608,1,6,0:0:0:0:
316,188,41801,1,10,0:0:0:0:
480,188,41995,1,10,0:0:0:0:
400,316,42188,1,2,0:0:0:0:
240,228,42382,6,0,P|232:180|252:128,1,85,6|2,0:0|0:0,0:0:0:0:
168,84,42769,1,10,0:0:0:0:
92,144,42963,2,0,P|116:232|92:304,1,170,2|4,0:0|0:0,0:0:0:0:
172,356,43543,1,8,0:0:0:0:
344,248,43930,5,6,0:0:0:0:
392,320,44124,1,2,0:0:0:0:
296,320,44317,1,10,0:0:0:0:
424,244,44511,1,2,0:0:0:0:
344,384,44705,1,4,0:0:0:0:
260,244,44898,5,6,0:0:0:0:
448,376,45092,1,10,0:0:0:0:
234,320,45285,2,0,P|224:280|237:240,1,85,2|4,0:0|0:0,0:0:0:0:
420,112,45672,6,0,B|372:112|344:84|344:84|312:112|264:112,1,170,2|2,0:0|0:0,0:0:0:0:
216,28,46253,2,0,P|188:52|168:112,1,56.6666666666667,2|0,0:0|0:0,0:0:0:0:
168,132,46511,2,0,P|184:169|224:200,1,56.6666666666667,2|0,0:0|0:0,0:0:0:0:
252,212,46769,2,0,P|288:212|322:195,1,56.6666666666667,0|0,0:0|0:0,0:0:0:0:
352,156,47027,1,2,0:0:0:0:
256,324,47414,1,10,0:0:0:0:
256,192,48936,12,0,52033,0:0:0:0:
