osu file format v14

[General]
AudioFilename: Animal Crossing New Leaf Music - Bubblegum K.K. (Aircheck).mp3
AudioLeadIn: 0
PreviewTime: 28737
Countdown: 0
SampleSet: Soft
StackLeniency: 0.4
Mode: 0
LetterboxInBreaks: 0
SkinPreference:cuteskinv2
WidescreenStoryboard: 1

[Editor]
Bookmarks: 33866
DistanceSpacing: 1.4
BeatDivisor: 4
GridSize: 32
TimelineZoom: 1.8

[Metadata]
Title:Bubblegum K.K.
TitleUnicode:けけアイドル
Artist:Atsuko Asahi & Manaka Kataoka
ArtistUnicode:朝日温子 & 片岡真央
Creator:Veridian
Version:Hard
Source:とびだせ どうぶつの森
Tags:Keke Aidoru PolkaMocha Polka Slider Nintendo Aircheck Good Animal crossing crossing: new leaf kk pop radio
BeatmapID:1281644
BeatmapSetID:364938

[Difficulty]
HPDrainRate:5
CircleSize:4
OverallDifficulty:5.5
ApproachRate:7
SliderMultiplier:1.6
SliderTickRate:1

[Events]
//Background and Video events
0,0,"Jelly-Bean-Wallpaper-Bubble-Gum-1024x910.jpg",0,0
//Break Periods
//Storyboard Layer 0 (Background)
//Storyboard Layer 1 (Fail)
//Storyboard Layer 2 (Pass)
//Storyboard Layer 3 (Foreground)
//Storyboard Sound Samples

[TimingPoints]
576,387.096774193548,4,2,0,50,1,0
769,-100,4,2,1,50,0,0
29995,-100,4,2,0,50,0,1
30188,-100,4,2,2,50,0,1
35801,-100,4,2,1,50,0,0
36188,-100,4,2,0,50,0,1
36382,-100,4,2,2,50,0,1
42382,-100,4,2,0,50,0,0
42575,-100,4,2,2,50,0,0
47775,387.096774193548,4,2,1,50,1,0
52033,-100,4,2,1,5,0,0

[Colours]
Combo1 : 235,91,255
Combo2 : 251,202,4
Combo3 : 255,128,0
Combo4 : 254,70,44
Combo5 : 254,61,80
Combo6 : 255,100,166

[HitObjects]
0,168,382,5,8,0:0:0:0:
0,168,479,1,8,0:0:0:0:
0,168,576,2,0,P|32:136|152:152,1,160,6|10,0:0|0:0,0:0:0:0:
196,216,1156,1,2,0:0:0:0:
252,140,1350,2,0,L|340:128,1,80,2|2,0:0|0:0,0:0:0:0:
372,216,1737,2,0,L|451:206,1,80,10|2,0:0|0:0,0:0:0:0:
504,128,2124,1,2,0:0:0:0:
504,128,2317,2,0,P|512:80|492:28,1,80,2|0,0:0|0:0,0:0:0:0:
416,88,2705,2,0,B|333:58|333:121|240:96,1,160,2|0,0:0|0:0,0:0:0:0:
216,80,3188,1,2,0:0:0:0:
216,80,3285,1,2,0:0:0:0:
416,88,5221,6,0,L|328:76,1,80,6|0,0:0|0:0,0:0:0:0:
256,132,5608,2,0,L|152:120,1,80,2|4,0:0|0:0,0:0:0:0:
108,56,5995,2,0,P|136:104|104:208,1,160,4|8,0:0|0:0,0:0:0:0:
8,360,6769,2,0,L|172:324,1,160,4|0,0:0|0:0,0:0:0:0:
252,368,7350,1,6,0:0:0:0:
336,324,7543,2,0,P|344:276|324:232,1,80,6|2,0:0|0:0,0:0:0:0:
252,196,7930,1,10,0:0:0:0:
388,60,8317,6,0,L|476:52,1,80,6|0,0:0|0:0,0:0:0:0:
432,144,8705,2,0,L|336:152,1,80,2|6,0:0|0:0,0:0:0:0:
288,80,9092,1,6,0:0:0:0:
200,40,9285,1,2,0:0:0:0:
112,84,9479,1,10,0:0:0:0:
116,276,9866,1,6,0:0:0:0:
204,320,10060,1,2,0:0:0:0:
292,280,10253,1,2,0:0:0:0:
316,188,10446,2,0,L|416:176,2,80,6|6|2,0:0|0:0|0:0,0:0:0:0:
244,124,11027,2,0,L|136:132,1,80,10|2,0:0|0:0,0:0:0:0:
76,96,11414,6,0,P|84:152|56:200,1,80,6|0,0:0|0:0,0:0:0:0:
20,252,11801,2,0,P|10:290|19:329,1,80,2|4,0:0|0:0,0:0:0:0:
108,292,12188,2,0,B|196:264|192:324|272:284,1,160,4|8,0:0|0:0,0:0:0:0:
440,212,12963,2,0,P|376:200|328:96,1,160,4|0,0:0|0:0,0:0:0:0:
256,60,13543,1,6,0:0:0:0:
184,124,13737,2,0,L|80:112,2,80,6|2|10,0:0|0:0|0:0,0:0:0:0:
256,188,14317,1,2,0:0:0:0:
328,252,14511,6,0,B|364:279|400:265|400:265|441:282|483:249,1,160,6|0,0:0|0:0,0:0:0:0:
400,188,15092,1,4,0:0:0:0:
475,130,15285,2,0,B|441:102|403:110|403:110|363:101|324:132,1,160,6|8,0:0|0:0,0:0:0:0:
276,55,15866,1,2,0:0:0:0:
276,55,15963,1,2,0:0:0:0:
276,55,16059,2,0,L|268:243,1,160,4|0,0:0|0:0,0:0:0:0:
191,273,16640,1,6,0:0:0:0:
115,212,16834,2,0,L|19:208,2,80,6|2|10,0:0|0:0|0:0,0:0:0:0:
191,273,17414,1,2,0:0:0:0:
271,337,17608,6,0,P|347:365|438:315,1,160,6|2,0:0|0:0,0:0:0:0:
482,261,18188,1,4,0:0:0:0:
392,224,18382,2,0,L|416:124,1,80,6|0,0:0|0:0,0:0:0:0:
336,88,18769,2,0,L|300:228,1,120,8|0,0:0|0:0,0:0:0:0:
296,252,19156,2,0,B|216:280|216:220|112:260,1,160,6|0,0:0|0:0,0:0:0:0:
64,312,19737,2,0,L|36:220,1,80,4|4,0:0|0:0,0:0:0:0:
4,144,20124,1,2,0:0:0:0:
84,92,20317,2,0,P|104:66|112:8,1,80,10|2,0:0|0:0,0:0:0:0:
224,17,20705,5,4,0:0:0:0:
198,125,20898,2,0,P|205:161|243:204,1,80,2|2,0:0|0:0,0:0:0:0:
347,223,21285,1,4,0:0:0:0:
432,160,21479,2,0,L|528:144,1,80,6|0,0:0|0:0,0:0:0:0:
512,244,21866,2,0,L|412:260,1,80,8|0,0:0|0:0,0:0:0:0:
404,296,22156,1,2,0:0:0:0:
404,296,22253,2,0,P|356:308|272:236,1,160,6|0,0:0|0:0,0:0:0:0:
212,172,22834,1,6,0:0:0:0:
152,244,23027,2,0,P|96:268|56:268,2,80,6|2|10,0:0|0:0|0:0,0:0:0:0:
212,172,23608,1,2,0:0:0:0:
276,100,23801,6,0,P|320:68|448:48,1,160,6|2,0:0|0:0,0:0:0:0:
496,108,24382,1,4,0:0:0:0:
420,168,24575,2,0,L|388:344,1,160,6|8,0:0|0:0,0:0:0:0:
244,328,25253,1,2,0:0:0:0:
244,328,25350,2,0,L|212:152,1,160,6|0,0:0|0:0,0:0:0:0:
196,76,25930,1,6,0:0:0:0:
120,132,26124,2,0,L|28:124,2,80,6|2|8,0:0|0:0|0:0,0:0:0:0:
212,164,26705,1,2,0:0:0:0:
200,68,26898,5,6,0:0:0:0:
304,336,27479,1,4,0:0:0:0:
304,336,27672,1,4,0:0:0:0:
112,336,28059,1,12,0:0:0:0:
112,336,28253,1,4,0:0:0:0:
300,120,28834,1,2,0:0:0:0:
300,120,29221,1,2,0:0:0:0:
300,120,29608,1,2,0:0:0:0:
300,120,29995,6,0,P|320:164|324:208,1,80,6|2,0:0|0:0,0:0:0:0:
260,268,30382,1,10,0:0:0:0:
168,248,30575,2,0,P|140:212|116:88,1,160,2|4,0:0|0:0,0:0:0:0:
160,16,31156,1,8,0:0:0:0:
340,84,31543,6,0,L|320:180,1,80,6|2,0:0|0:0,0:0:0:0:
420,160,31930,2,0,L|400:248,1,80,10|2,0:0|0:0,0:0:0:0:
380,332,32317,2,0,P|424:356|480:356,2,80,6|6|10,0:0|0:0|0:0,0:0:0:0:
312,264,32898,6,0,P|272:236|144:228,1,160,2|0,0:0|0:0,0:0:0:0:
76,260,33479,2,0,P|72:208|84:160,1,80,10|0,0:0|0:0,0:0:0:0:
40,92,33866,2,0,P|92:88|140:100,1,80,6|4,0:0|0:0,0:0:0:0:
204,52,34253,2,0,P|208:104|196:152,1,80,10|0,0:0|0:0,0:0:0:0:
196,228,34640,6,0,B|276:196|272:252|364:216,1,160,6|8,0:0|0:0,0:0:0:0:
388,196,35124,1,0,0:0:0:0:
388,196,35221,1,2,0:0:0:0:
468,252,35414,2,0,L|492:164,2,80,4|8|10,0:0|0:0|0:0,0:0:0:0:
496,344,35995,1,2,0:0:0:0:
400,340,36188,6,0,P|352:360|296:360,1,80,6|2,0:0|0:0,0:0:0:0:
340,268,36575,1,10,0:0:0:0:
248,288,36769,2,0,P|176:288|96:248,1,160,2|4,0:0|0:0,0:0:0:0:
40,172,37350,1,8,0:0:0:0:
168,28,37737,6,0,L|220:112,1,80,6|2,0:0|0:0,0:0:0:0:
304,88,38124,2,0,L|260:188,1,80,10|2,0:0|0:0,0:0:0:0:
220,240,38511,1,6,0:0:0:0:
280,316,38705,2,0,P|328:312|383:318,1,80,6|8,0:0|0:0,0:0:0:0:
432,376,39092,6,0,P|400:328|440:212,1,160,2|0,0:0|0:0,0:0:0:0:
484,164,39672,2,0,B|497:125|497:125|491:51,1,80,10|0,0:0|0:0,0:0:0:0:
399,111,40059,2,0,B|371:80|371:80|311:59,1,80,6|4,0:0|0:0,0:0:0:0:
316,160,40446,2,0,B|277:146|277:146|204:152,1,80,10|0,0:0|0:0,0:0:0:0:
256,256,40834,6,0,B|176:272|176:272|108:360,1,160,6|8,0:0|0:0,0:0:0:0:
52,376,41414,1,0,0:0:0:0:
44,280,41608,2,0,P|36:232|52:184,2,80,6|10|10,0:0|0:0|0:0,0:0:0:0:
128,322,42188,1,2,0:0:0:0:
216,284,42382,6,0,P|224:236|208:188,1,80,6|2,0:0|0:0,0:0:0:0:
140,148,42769,1,10,0:0:0:0:
228,112,42963,2,0,P|284:64|384:52,1,160,2|4,0:0|0:0,0:0:0:0:
448,100,43543,1,8,0:0:0:0:
500,284,43930,6,0,L|400:300,1,80,6|2,0:0|0:0,0:0:0:0:
349,233,44317,1,10,0:0:0:0:
280,168,44511,2,0,L|88:200,1,160,2|6,0:0|0:0,0:0:0:0:
40,140,45092,1,10,0:0:0:0:
0,228,45285,1,2,0:0:0:0:
176,304,45672,6,0,P|228:316|340:256,1,160,2|2,0:0|0:0,0:0:0:0:
408,324,46253,2,0,L|416:192,2,106.666666666667,2|2|0,0:0|0:0|0:0,0:0:0:0:
488,380,47027,1,2,0:0:0:0:
323,276,47414,1,10,0:0:0:0:
256,192,48936,12,0,52033,0:0:0:0:
