osu file format v14

[General]
AudioFilename: audio.mp3
AudioLeadIn: 0
PreviewTime: 24181
Countdown: 0
SampleSet: None
StackLeniency: 0.7
Mode: 0
LetterboxInBreaks: 0
WidescreenStoryboard: 1

[Editor]
Bookmarks: 33663,37038,49038,61067,96959,115737
DistanceSpacing: 1.1
BeatDivisor: 1
GridSize: 32
TimelineZoom: 2.4

[Metadata]
Title:When Two Are One
TitleUnicode:When Two Are One
Artist:Atreyu
ArtistUnicode:Atreyu
Creator:Veridian
Version:Insane
Source:
Tags:
BeatmapID:1750373
BeatmapSetID:835773

[Difficulty]
HPDrainRate:6
CircleSize:3.5
OverallDifficulty:6
ApproachRate:8
SliderMultiplier:1.9
SliderTickRate:2

[Events]
//Background and Video events
0,0,"maxresdefault.jpg",0,0
//Break Periods
//Storyboard Layer 0 (Background)
//Storyboard Layer 1 (Fail)
//Storyboard Layer 2 (Pass)
//Storyboard Layer 3 (Foreground)
//Storyboard Sound Samples

[TimingPoints]
278,387.096774193548,4,1,0,60,1,0
25038,375,4,1,0,60,1,0
37038,-100,4,1,0,100,0,0
37225,-100,4,1,0,60,0,0
49038,-100,4,1,0,100,0,0
49225,-100,4,1,0,60,0,0
61067,393.44262295082,4,1,0,60,1,0
62676,393.44262295082,4,1,0,60,1,0
64265,400,4,1,0,60,1,0
70665,410.958904109589,4,2,0,60,1,1
70870,-100,4,2,0,5,0,1
70973,-100,4,2,0,60,0,1
71178,-100,4,2,0,5,0,1
71281,-100,4,2,0,60,0,1
71384,-100,4,2,0,5,0,1
71487,-100,4,2,0,60,0,1
72411,-100,4,2,0,5,0,1
72514,-100,4,2,0,60,0,1
72822,-100,4,2,0,5,0,1
72925,-100,4,2,0,60,0,1
73028,-100,4,2,0,5,0,1
73131,-100,4,2,0,60,0,1
73644,-100,4,2,0,5,0,1
73747,-100,4,2,0,60,0,1
73849,-100,4,2,0,5,0,1
73952,-100,4,2,0,60,0,1
74260,-100,4,2,0,5,0,1
74363,-100,4,2,0,60,0,1
74466,-100,4,2,0,5,0,1
74569,-100,4,2,0,60,0,1
74671,-100,4,2,0,5,0,1
74774,-100,4,2,0,60,0,1
75801,-100,4,2,0,5,0,1
75904,-100,4,2,0,60,0,1
76110,-100,4,2,0,5,0,1
76213,-100,4,2,0,60,0,1
76315,-100,4,2,0,5,0,1
76418,-100,4,2,0,60,0,1
76521,-100,4,2,0,5,0,1
76624,-100,4,2,0,60,0,1
76829,-100,4,2,0,5,0,1
76932,-100,4,2,0,60,0,1
77445,-100,4,2,0,5,0,1
77548,-100,4,2,0,60,0,1
77754,-100,4,2,0,5,0,1
77857,-100,4,2,0,60,0,1
77959,-100,4,2,0,5,0,1
78062,-100,4,2,0,60,0,1
79089,-100,4,2,0,5,0,1
79192,-100,4,2,0,60,0,1
79397,-100,4,2,0,5,0,1
79500,-100,4,2,0,60,0,1
79603,-100,4,2,0,5,0,1
79706,-100,4,2,0,60,0,1
80117,-100,4,2,0,5,0,1
80220,-100,4,2,0,60,0,1
80271,-100,4,2,0,5,0,1
80528,-100,4,2,0,60,0,1
80733,-100,4,2,0,5,0,1
80836,-100,4,2,0,60,0,1
81041,-100,4,2,0,5,0,1
81144,-100,4,2,0,60,0,1
81247,-100,4,2,0,5,0,1
81350,-100,4,2,0,60,0,1
81555,-100,4,2,0,5,0,1
81658,-100,4,2,0,60,0,1
81863,-100,4,2,0,5,0,1
81966,-100,4,2,0,60,0,1
82120,-100,4,2,0,5,0,1
82171,-100,4,2,0,60,0,1
82377,-100,4,2,0,5,0,1
82480,-100,4,2,0,60,0,1
82685,-100,4,2,0,5,0,1
82788,-100,4,2,0,60,0,1
82891,-100,4,2,0,5,0,1
82993,-100,4,1,0,60,0,0
83809,410.958904109589,4,2,0,60,1,1
84014,-100,4,2,0,5,0,1
84117,-100,4,2,0,60,0,1
84322,-100,4,2,0,5,0,1
84425,-100,4,2,0,60,0,1
84939,-100,4,2,0,5,0,1
85041,-100,4,2,0,60,0,1
85350,-100,4,2,0,5,0,1
85452,-100,4,2,0,60,0,1
85658,-100,4,2,0,5,0,1
85761,-100,4,2,0,60,0,1
85966,-100,4,2,0,5,0,1
86069,-100,4,2,0,60,0,1
86172,-100,4,2,0,5,0,1
86275,-100,4,2,0,60,0,1
86377,-100,4,2,0,5,0,1
86480,-100,4,2,0,60,0,1
87302,-100,4,2,0,5,0,1
87507,-100,4,2,0,60,0,1
87610,-100,4,2,0,5,0,1
87713,-100,4,2,0,60,0,1
87816,-100,4,2,0,5,0,1
87918,-100,4,2,0,60,0,1
88226,-100,4,2,0,5,0,1
88329,-100,4,2,0,60,0,1
88945,-100,4,2,0,5,0,1
89048,-100,4,2,0,60,0,1
89254,-100,4,2,0,5,0,1
89357,-100,4,2,0,60,0,1
89459,-100,4,2,0,5,0,1
89562,-100,4,2,0,60,0,1
89767,-100,4,2,0,5,0,1
89870,-100,4,2,0,60,0,1
90076,-100,4,2,0,5,0,1
90179,-100,4,2,0,60,0,1
90281,-100,4,2,0,5,0,1
90384,-100,4,2,0,60,0,1
90589,-100,4,2,0,5,0,1
90692,-100,4,2,0,60,0,1
90898,-100,4,2,0,5,0,1
91000,-100,4,2,0,60,0,1
91103,-100,4,2,0,5,0,1
91206,-100,4,2,0,60,0,1
91514,-100,4,2,0,5,0,1
91617,-100,4,2,0,60,0,1
91925,-100,4,2,0,5,0,1
92028,-100,4,2,0,60,0,1
92233,-100,4,2,0,5,0,1
92335,-100,4,2,0,60,0,1
92541,-100,4,2,0,5,0,1
92643,-100,4,2,0,60,0,1
92747,-100,4,2,0,5,0,1
92849,-100,4,2,0,60,0,1
93261,-100,4,2,0,5,0,1
93363,-100,4,2,0,60,0,1
93877,-100,4,2,0,5,0,1
93979,-100,4,2,0,60,0,1
94185,-100,4,2,0,5,0,1
94287,-100,4,2,0,60,0,1
94391,-100,4,2,0,5,0,1
94493,-100,4,2,0,60,0,1
94802,-100,4,2,0,5,0,1
94904,-100,4,2,0,60,0,1
100254,387.096774193548,4,1,0,60,1,0
103350,-100,4,1,0,60,0,1
109157,-100,4,1,0,60,0,0
109544,-100,4,1,0,70,0,1
115737,-100,4,1,0,100,0,0

[Colours]
Combo1 : 220,99,102
Combo2 : 215,222,118
Combo3 : 231,143,231
Combo4 : 151,193,104
Combo5 : 155,188,238

[HitObjects]
0,200,24277,5,0,0:0:0:0:
60,288,24471,1,0,0:0:0:0:
120,200,24665,2,0,P|124:168|100:136,3,47.5,0|0|0|0,0:2|0:2|0:2|0:2,0:0:0:0:
92,116,25038,2,0,P|148:128|204:92,1,95,4|4,0:3|0:2,0:0:0:0:
276,68,25413,1,4,0:3:0:0:
276,68,25506,1,0,0:2:0:0:
276,68,25600,2,0,P|348:36|460:80,1,190,4|4,0:2|0:2,0:0:0:0:
512,152,26163,1,4,0:3:0:0:
456,240,26350,1,4,0:2:0:0:
456,240,26444,1,0,0:2:0:0:
456,240,26538,6,0,L|340:220,1,95,4|4,0:3|0:2,0:0:0:0:
324,260,26819,2,0,L|164:232,1,142.5,2|6,0:2|0:2,0:0:0:0:
120,320,27288,2,0,P|84:260|136:140,1,190,0|4,0:2|0:3,0:0:0:0:
196,84,27850,1,4,0:2:0:0:
196,84,27944,1,0,0:2:0:0:
196,84,28038,6,0,P|144:52|80:64,2,95,4|4|4,0:3|0:2|0:3,0:0:0:0:
232,184,28600,2,0,P|232:108|352:48,1,190,4|4,0:2|0:2,0:0:0:0:
420,28,29163,1,2,0:2:0:0:
420,28,29256,1,4,0:3:0:0:
420,28,29350,1,4,0:2:0:0:
492,104,29538,6,0,L|472:208,1,95,6|4,0:2|0:2,0:0:0:0:
500,244,29819,1,2,0:2:0:0:
372,332,30100,2,0,L|388:260,1,47.5,6|4,0:2|0:3,0:0:0:0:
360,236,30288,2,0,P|296:200|176:264,1,190,2|4,0:2|0:3,0:0:0:0:
120,316,30850,1,4,0:2:0:0:
120,316,30944,1,0,0:2:0:0:
120,316,31038,6,0,P|160:256|112:148,1,190,2|4,0:2|0:3,0:0:0:0:
44,84,31600,2,0,B|112:128|112:128|240:72,1,190,4|4,0:2|0:2,0:0:0:0:
304,36,32163,1,4,0:3:0:0:
304,140,32350,1,6,0:2:0:0:
304,140,32444,1,0,0:2:0:0:
304,140,32538,6,0,B|320:184|320:184|292:244,2,95,2|4|2,0:2|0:2|0:2,0:0:0:0:
208,180,33100,1,4,0:2:0:0:
112,140,33288,2,0,B|96:184|96:184|124:244,1,95,2|6,0:2|0:2,0:0:0:0:
80,328,33663,2,0,L|208:304,1,95,2|4,0:2|0:2,0:0:0:0:
264,260,34038,6,0,B|360:212|360:300|448:256,1,190,2|4,0:2|0:3,0:0:0:0:
400,164,34600,1,4,0:2:0:0:
476,92,34788,2,0,L|456:16,2,47.5,0|4|4,0:0|0:3|0:2,0:0:0:0:
376,64,35163,2,0,L|356:-12,2,47.5,2|4|4,0:2|0:3|0:2,0:0:0:0:
300,136,35538,6,0,P|220:176|120:124,1,190,2|4,0:2|0:3,0:0:0:0:
36,96,36100,1,4,0:2:0:0:
36,96,36194,1,2,0:2:0:0:
36,96,36288,2,0,P|22:154|54:209,1,95,0|6,0:0|0:2,0:0:0:0:
120,240,36663,1,4,0:2:0:0:
32,300,36850,1,4,0:2:0:0:
120,356,37038,6,0,B|176:344|176:344|216:372|216:372|304:348,1,190,4|8,1:1|0:3,0:0:0:0:
296,349,37506,1,0,0:3:0:0:
296,349,37600,2,0,P|336:272|264:160,1,190,4|4,0:2|0:2,0:0:0:0:
216,120,38163,1,8,0:3:0:0:
216,120,38256,1,8,0:3:0:0:
216,120,38350,1,4,0:2:0:0:
259,24,38538,6,0,B|213:11|213:11|136:36,1,95,8|4,0:3|0:2,0:0:0:0:
104,108,38913,2,0,L|28:96,1,47.5,8|8,0:3|0:3,0:0:0:0:
4,192,39194,2,0,L|162:218,1,142.5,8|4,0:3|0:2,0:0:0:0:
196,304,39663,1,8,0:3:0:0:
272,232,39850,1,0,0:0:0:0:
366,276,40038,6,0,P|381:236|357:176,1,95,8|4,0:3|0:2,0:0:0:0:
428,100,40413,1,0,0:3:0:0:
428,100,40506,1,8,0:3:0:0:
428,100,40600,1,4,0:2:0:0:
428,100,40694,2,0,P|364:128|280:88,1,142.5,8|4,0:3|0:2,0:0:0:0:
204,60,41163,2,0,L|216:-4,2,47.5,8|8|4,0:3|0:3|0:2,0:0:0:0:
100,80,41538,6,0,L|76:184,1,95,8|4,0:3|0:2,0:0:0:0:
52,276,41913,1,8,0:3:0:0:
152,244,42100,1,4,0:2:0:0:
152,244,42194,2,0,P|196:268|300:224,1,142.5,8|4,0:3|0:2,0:0:0:0:
360,180,42663,2,0,P|400:168|472:200,1,95,8|4,0:3|0:2,0:0:0:0:
456,76,43038,6,0,L|362:59,1,95,8|4,0:3|0:2,0:0:0:0:
276,120,43413,2,0,L|182:103,1,95,8|4,0:3|0:2,0:0:0:0:
80,84,43788,2,0,P|52:64|44:152,1,142.5,8|0,0:3|0:0,0:0:0:0:
44,168,44163,2,0,P|58:214|32:268,1,95,8|4,0:3|0:2,0:0:0:0:
124,324,44538,6,0,P|168:311|232:340,1,95,8|4,0:3|0:2,0:0:0:0:
304,268,44913,2,0,P|348:281|412:252,1,95,8|4,0:3|0:2,0:0:0:0:
484,212,45288,2,0,L|460:96,1,95,8|4,0:3|0:2,0:0:0:0:
376,176,45663,2,0,L|344:28,1,142.5,8|0,0:3|0:0,0:0:0:0:
300,12,46038,6,0,P|246:0|192:28,1,95,8|4,0:3|0:2,0:0:0:0:
132,84,46413,1,8,0:3:0:0:
132,84,46506,1,8,0:3:0:0:
132,84,46600,1,4,0:2:0:0:
132,84,46694,2,0,P|108:156|156:236,1,142.5,8|4,0:3|0:2,0:0:0:0:
152,320,47163,2,0,P|124:316|73:341,2,47.5,8|8|4,0:3|0:3|0:2,0:0:0:0:
228,248,47538,6,0,P|272:260|342:230,1,95,8|4,0:3|0:2,0:0:0:0:
404,184,47913,1,8,0:3:0:0:
404,184,48006,1,8,0:3:0:0:
404,184,48100,1,4,0:2:0:0:
499,227,48288,2,0,B|515:182|515:182|492:119,1,95,8|4,0:3|0:2,0:0:0:0:
416,72,48663,2,0,L|356:88,3,47.5,8|12|12|0,0:3|0:3|0:3|0:0,0:0:0:0:
324,56,49038,6,0,B|256:72|256:72|220:48|220:48|124:68,1,190,4|8,1:1|0:3,0:0:0:0:
44,36,49600,2,0,L|28:132,1,95,4|0,0:2|0:0,0:0:0:0:
100,204,49975,1,4,0:2:0:0:
100,204,50069,1,0,0:0:0:0:
100,204,50163,1,8,0:3:0:0:
16,264,50350,1,4,0:2:0:0:
100,324,50538,6,0,P|145:337|204:305,1,95,8|4,0:3|0:2,0:0:0:0:
256,240,50913,1,8,0:3:0:0:
256,240,51006,1,8,0:3:0:0:
256,240,51100,2,0,P|344:204|444:264,1,190,4|4,0:2|0:2,0:0:0:0:
464,144,51663,2,0,L|524:124,2,47.5,8|8|0,0:3|0:3|0:0,0:0:0:0:
392,68,52038,6,0,L|272:112,1,95,8|4,0:3|0:2,0:0:0:0:
208,56,52413,1,0,0:3:0:0:
208,56,52506,1,8,0:3:0:0:
208,56,52600,2,0,P|151:22|24:84,1,190,4|4,0:2|0:2,0:0:0:0:
124,120,53163,2,0,L|104:192,2,47.5,8|8|4,0:3|0:3|0:2,0:0:0:0:
216,172,53538,6,0,L|184:296,1,95,8|4,0:3|0:2,0:0:0:0:
266,338,53913,2,0,P|295:343|334:322,1,47.5,8|0,0:3|0:0,0:0:0:0:
400,280,54194,2,0,P|425:231|373:132,1,142.5,8|4,0:3|0:2,0:0:0:0:
320,84,54663,1,8,0:3:0:0:
320,84,54756,1,8,0:3:0:0:
320,84,54850,1,4,0:2:0:0:
228,36,55038,6,0,P|213:86|252:148,1,95,8|4,0:3|0:2,0:0:0:0:
136,180,55413,2,0,P|151:230|112:292,1,95,8|4,0:3|0:2,0:0:0:0:
76,352,55788,2,0,L|200:372,1,95,8|4,0:3|0:2,0:0:0:0:
248,296,56163,2,0,L|420:328,1,142.5,8|0,0:3|0:2,0:0:0:0:
432,292,56538,6,0,B|448:248|448:248|428:184,1,95,8|4,0:3|0:2,0:0:0:0:
488,112,56913,2,0,L|394:96,1,95,8|4,0:3|0:2,0:0:0:0:
336,184,57288,2,0,L|242:168,1,95,8|4,0:3|0:2,0:0:0:0:
176,88,57663,2,0,P|132:74|72:100,1,95,8|4,0:3|0:2,0:0:0:0:
8,156,58038,6,0,P|-16:216|36:304,1,142.5,8|0,0:3|0:0,0:0:0:0:
48,324,58413,2,0,L|136:344,1,47.5,8|8,0:3|0:3,0:0:0:0:
176,272,58694,2,0,L|332:304,1,142.5,8|4,0:3|0:2,0:0:0:0:
392,228,59163,1,8,0:3:0:0:
392,228,59256,1,8,0:3:0:0:
392,228,59350,1,4,0:2:0:0:
480,288,59538,6,0,P|500:248|468:144,1,142.5,8|0,0:3|0:0,0:0:0:0:
436,128,59913,2,0,P|388:116|328:140,1,95,8|4,0:3|0:2,0:0:0:0:
264,196,60288,2,0,L|48:160,1,190,8|8,0:3|0:3,0:0:0:0:
36,196,60756,1,12,0:3:0:0:
16,244,60850,1,12,0:3:0:0:
28,296,60944,1,0,0:0:0:0:
72,328,61067,5,0,0:0:0:0:
164,380,61263,1,4,0:3:0:0:
256,328,61460,1,0,0:0:0:0:
256,328,61558,1,4,0:3:0:0:
164,204,61853,1,4,0:3:0:0:
256,152,62050,1,0,0:0:0:0:
256,152,62148,1,0,0:0:0:0:
256,152,62247,2,0,P|308:132|415:178,1,142.5,4|0,0:2|0:0,0:0:0:0:
424,184,62676,5,0,0:0:0:0:
344,252,62872,1,12,0:3:0:0:
428,312,63069,1,0,0:0:0:0:
428,312,63167,1,12,0:3:0:0:
260,252,63462,1,12,0:3:0:0:
456,179,63856,2,0,P|476:147|444:44,1,142.5,4|0,0:2|0:0,0:0:0:0:
400,28,64265,5,0,0:0:0:0:
352,120,64465,1,4,0:3:0:0:
300,28,64665,1,0,0:0:0:0:
300,28,64765,1,4,0:3:0:0:
196,148,65065,1,4,0:3:0:0:
52,84,65365,1,0,0:0:0:0:
52,84,65465,2,0,P|26:141|79:230,1,142.5,4|0,0:2|0:0,0:0:0:0:
28,256,65865,5,0,0:0:0:0:
88,344,66065,2,0,L|172:328,1,47.5,12|0,0:3|0:0,0:0:0:0:
180,360,66265,2,0,L|264:344,1,47.5,0|12,0:0|0:3,0:0:0:0:
276,372,66465,1,0,0:0:0:0:
364,316,66665,2,0,P|378:264|352:216,1,95,12|4,0:3|0:2,0:0:0:0:
444,160,67065,1,4,0:2:0:0:
408,196,67165,1,4,0:3:0:0:
352,212,67265,1,8,0:3:0:0:
300,196,67365,1,4,0:2:0:0:
264,160,67465,5,4,0:1:0:0:
352,104,67665,1,4,0:3:0:0:
264,48,67865,1,0,0:0:0:0:
264,48,67965,1,4,0:3:0:0:
152,160,68265,2,0,L|48:136,1,95,4|0,0:3|0:0,0:0:0:0:
64,244,68665,2,0,L|232:284,1,142.5,4|0,0:2|0:0,0:0:0:0:
232,320,69065,5,0,0:0:0:0:
288,232,69265,1,12,0:3:0:0:
348,320,69465,1,0,0:0:0:0:
348,320,69565,1,12,0:3:0:0:
464,216,69865,2,0,B|479:171|479:171|456:104,1,95,12|4,0:3|0:3,0:0:0:0:
396,48,70265,2,0,B|351:33|351:33|284:56,1,95,4|4,0:2|0:3,0:0:0:0:
220,104,70665,6,0,P|160:128|76:88,1,142.5,4|2,0:1|0:0,0:0:0:0:
48,72,71075,1,0,0:0:0:0:
0,164,71281,2,0,L|16:244,1,47.5,2|0,0:0|0:0,0:0:0:0:
0,276,71486,2,0,P|64:240|192:300,1,190,4|4,0:0|1:1,0:0:0:0:
324,128,72308,5,2,0:0:0:0:
416,176,72514,2,0,P|432:136|400:68,1,95,2|0,0:0|0:0,0:0:0:0:
332,28,72925,2,0,L|256:48,1,47.5,2|0,0:0|0:0,0:0:0:0:
236,52,73130,1,4,0:0:0:0:
136,84,73336,2,0,B|120:128|120:128|140:189,1,95,2|0,0:0|0:0,0:0:0:0:
196,260,73747,1,2,0:0:0:0:
128,340,73952,6,0,P|192:313|272:356,1,142.5,6|0,0:0|0:0,0:0:0:0:
296,372,74363,1,2,0:0:0:0:
380,308,74569,2,0,B|385:284|385:284|374:244,1,47.5,2|0,0:0|0:0,0:0:0:0:
340,224,74774,2,0,L|464:192,1,95,4|0,0:0|0:0,0:0:0:0:
424,96,75185,2,0,L|268:136,1,142.5,4|0,1:0|0:0,0:0:0:0:
236,148,75596,5,6,0:0:0:0:
148,20,75904,1,2,0:0:0:0:
56,148,76212,1,2,0:0:0:0:
136,216,76418,2,0,P|139:252|120:288,1,47.5,4|0,0:0|0:0,0:0:0:0:
112,308,76623,2,0,P|176:280|256:328,1,142.5,2|2,0:0|0:0,0:0:0:0:
272,348,77034,1,0,0:0:0:0:
364,296,77240,6,0,L|340:140,1,142.5,6|2,0:0|0:0,0:0:0:0:
380,120,77651,1,0,0:0:0:0:
404,20,77856,2,0,P|380:16|357:19,1,47.5,2|0,0:0|0:0,0:0:0:0:
316,52,78062,2,0,P|268:65|198:32,1,95,4|0,0:0|0:0,0:0:0:0:
144,120,78473,2,0,P|98:108|26:140,1,95,4|0,1:0|0:0,0:0:0:0:
92,216,78884,6,0,P|64:268|100:352,1,142.5,6|2,0:0|0:0,0:0:0:0:
132,372,79295,1,0,0:0:0:0:
216,312,79500,2,0,P|239:307|281:324,1,47.5,2|0,0:0|0:0,0:0:0:0:
304,348,79706,1,4,0:0:0:0:
396,300,79911,2,0,L|368:136,1,142.5,2|2,0:0|1:2,0:0:0:0:
408,124,80322,1,0,0:0:0:0:
460,36,80528,6,0,B|412:16|412:16|292:52,1,142.5,4|2,0:0|0:0,0:0:0:0:
280,16,80938,1,0,0:0:0:0:
212,96,81144,1,2,0:0:0:0:
116,52,81349,2,0,P|104:98|131:162,1,95,6|2,0:1|0:1,0:0:0:0:
156,180,81658,2,0,P|168:226|141:290,1,95,2|0,0:1|0:0,0:0:0:0:
120,308,81966,1,2,0:1:0:0:
208,364,82171,6,0,L|320:336,1,95,4|0,0:0|0:0,0:0:0:0:
348,360,82480,2,0,L|452:332,1,95,4|0,0:0|0:0,0:0:0:0:
484,364,82788,1,0,0:0:0:0:
504,260,82993,5,4,0:2:0:0:
436,180,83199,1,0,0:0:0:0:
332,160,83404,1,4,0:2:0:0:
244,220,83610,1,2,0:2:0:0:
288,312,83809,6,0,P|234:324|186:306,1,95,4|0,0:1|0:0,0:0:0:0:
168,268,84117,2,0,P|156:214|174:166,1,95,2|0,1:2|0:0,0:0:0:0:
200,136,84425,2,0,P|204:101|186:68,1,47.5,2|0,1:2|0:0,0:0:0:0:
172,44,84630,2,0,L|68:60,1,95,4|0,0:0|0:0,0:0:0:0:
292,72,85041,2,0,L|385:57,1,95,4|0,1:0|0:0,0:0:0:0:
468,120,85452,6,0,P|482:175|448:231,1,95,2|0,1:2|0:0,0:0:0:0:
436,252,85761,2,0,P|381:266|325:232,1,95,2|0,1:2|0:0,0:0:0:0:
308,224,86069,1,2,1:2:0:0:
228,160,86274,2,0,P|199:155|156:175,1,47.5,6|0,0:0|0:0,0:0:0:0:
140,192,86480,2,0,L|164:316,1,95,2|0,0:0|0:0,0:0:0:0:
100,372,86891,1,2,0:0:0:0:
32,292,87096,6,0,L|0:128,1,142.5,4|0,0:1|1:2,0:0:0:0:
32,108,87507,1,2,1:2:0:0:
108,36,87713,2,0,L|188:64,1,47.5,2|0,0:0|0:0,0:0:0:0:
200,32,87918,2,0,L|316:72,1,95,4|0,0:0|0:0,0:0:0:0:
296,168,88329,2,0,L|412:208,1,95,4|0,1:0|0:0,0:0:0:0:
480,244,88740,6,0,P|493:198|480:153,1,95,2|0,1:2|0:0,0:0:0:0:
504,108,89048,2,0,P|456:123|385:80,1,95,2|0,1:2|0:0,0:0:0:0:
368,84,89356,2,0,P|337:78|302:94,1,47.5,2|0,1:2|0:0,0:0:0:0:
280,112,89562,1,6,0:0:0:0:
128,68,89870,2,0,L|148:184,1,95,2|0,0:0|0:0,0:0:0:0:
96,184,90178,2,0,L|108:244,1,47.5,2|0,0:0|0:0,0:0:0:0:
72,272,90384,6,0,P|60:324|84:376,1,95,4|0,1:1|0:0,0:0:0:0:
120,380,90692,2,0,L|228:356,1,95,2|0,1:2|0:0,0:0:0:0:
264,376,91000,2,0,L|340:356,1,47.5,2|0,1:2|0:0,0:0:0:0:
360,376,91206,1,4,0:2:0:0:
256,196,91617,2,0,P|242:148|262:99,1,95,4|0,1:0|0:0,0:0:0:0:
212,12,92028,6,0,P|260:-2|309:18,1,95,2|0,1:2|0:0,0:0:0:0:
336,52,92336,2,0,L|444:32,1,95,2|0,1:2|0:0,0:0:0:0:
476,60,92644,2,0,L|464:136,1,47.5,2|0,1:2|0:0,0:0:0:0:
500,148,92850,1,4,0:0:0:0:
448,296,93158,2,0,P|400:310|344:288,1,95,0|0,0:0|1:2,0:0:0:0:
312,272,93466,1,2,1:2:0:0:
212,240,93672,6,0,B|167:225|167:225|92:250,1,95,4|0,1:2|0:0,0:0:0:0:
72,260,93980,2,0,L|100:132,1,95,2|0,1:2|0:0,0:0:0:0:
60,124,94288,2,0,P|56:100|83:53,1,47.5,2|0,1:2|0:0,0:0:0:0:
96,40,94493,2,0,B|236:-12|236:116|372:68,1,285,6|0,0:0|0:0,0:0:0:0:
456,128,95315,6,0,B|488:76|488:76|440:-24,2,142.5,4|0|0,0:0|1:0|1:0,0:0:0:0:
388,208,96137,2,0,B|356:260|356:260|404:360,2,142.5,4|0|0,1:2|1:0|1:0,0:0:0:0:
344,180,96856,1,0,1:0:0:0:
344,180,96959,1,4,1:2:0:0:
256,192,97165,12,4,100254,0:3:0:0:
80,88,102576,5,4,0:2:0:0:
140,176,102770,1,4,0:3:0:0:
200,92,102963,1,4,0:2:0:0:
240,56,103060,1,4,0:3:0:0:
292,48,103157,1,4,0:2:0:0:
344,56,103254,1,4,0:3:0:0:
380,96,103350,6,0,P|412:160|364:272,1,190,2|2,3:2|0:2,0:0:0:0:
288,328,103931,1,4,0:2:0:0:
208,264,104124,1,2,0:2:0:0:
208,264,104221,1,0,0:2:0:0:
208,264,104318,1,4,0:2:0:0:
128,328,104512,2,0,P|82:343|18:314,1,95,2|4,0:2|0:2,0:0:0:0:
80,236,104899,6,0,L|60:120,1,95,2|6,0:2|0:2,0:0:0:0:
151,38,105286,2,0,L|168:132,1,95,2|6,0:2|0:2,0:0:0:0:
192,232,105673,1,2,0:2:0:0:
192,232,105770,1,0,0:2:0:0:
192,232,105866,1,4,0:2:0:0:
276,168,106060,2,0,P|312:156|386:180,1,95,2|4,0:2|0:2,0:0:0:0:
432,84,106447,6,0,P|388:160|464:264,1,190,2|2,0:2|0:2,0:0:0:0:
512,308,107028,1,6,0:2:0:0:
432,376,107221,1,2,0:2:0:0:
432,376,107318,1,0,0:2:0:0:
432,376,107415,1,6,0:2:0:0:
340,308,107608,2,0,P|291:294|223:334,1,95,2|6,0:2|0:2,0:0:0:0:
164,364,107995,6,0,P|115:378|47:338,1,95,2|6,0:2|0:2,0:0:0:0:
24,272,108383,2,0,L|52:152,1,95,2|6,0:2|0:2,0:0:0:0:
104,92,108770,2,0,L|52:40,2,47.5,2|0|6,0:2|0:2|0:2,0:0:0:0:
180,164,109157,1,6,0:2:0:0:
220,132,109253,1,0,0:2:0:0:
272,120,109350,1,4,0:2:0:0:
324,132,109447,1,0,0:2:0:0:
364,164,109544,6,0,L|348:256,1,47.5,6|0,0:2|0:2,0:0:0:0:
384,256,109737,1,4,0:2:0:0:
488,240,109931,2,0,L|512:115,1,95,4|4,0:2|0:2,0:0:0:0:
436,68,110318,1,6,0:2:0:0:
436,68,110415,1,0,0:2:0:0:
436,68,110512,1,4,0:2:0:0:
344,120,110705,2,0,P|293:108|228:138,1,95,6|4,0:2|0:2,0:0:0:0:
188,200,111092,6,0,P|157:204|111:182,1,47.5,6|0,0:2|0:2,0:0:0:0:
100,168,111286,1,4,0:2:0:0:
40,252,111479,2,0,B|24:296|24:296|50:361,1,95,4|4,0:2|0:2,0:0:0:0:
140,384,111866,1,6,0:2:0:0:
140,384,111963,1,0,0:2:0:0:
140,384,112060,1,6,0:2:0:0:
232,340,112253,2,0,B|249:295|249:295|233:251,1,95,6|4,0:2|0:2,0:0:0:0:
184,160,112641,6,0,L|200:76,1,47.5,6|0,0:2|0:2,0:0:0:0:
204,64,112834,1,4,0:2:0:0:
288,128,113028,2,0,P|324:116|400:149,1,95,4|4,0:2|0:2,0:0:0:0:
484,140,113415,2,0,P|476:177|409:226,1,95,6|4,0:2|0:2,0:0:0:0:
376,304,113802,2,0,P|347:278|338:196,1,95,4|4,0:2|0:2,0:0:0:0:
288,128,114189,6,0,L|228:144,1,47.5,6|0,0:2|0:2,0:0:0:0:
192,152,114383,1,6,0:2:0:0:
188,48,114576,2,0,L|128:64,1,47.5,6|0,0:2|0:2,0:0:0:0:
92,72,114770,1,6,0:2:0:0:
60,172,114963,5,6,0:2:0:0:
36,220,115060,1,2,0:2:0:0:
60,264,115157,1,6,0:2:0:0:
132,340,115350,1,6,0:2:0:0:
172,372,115447,1,2,0:2:0:0:
224,380,115544,1,2,0:2:0:0:
276,372,115641,1,6,0:2:0:0:
316,336,115737,5,2,0:2:0:0:
