osu file format v14

[General]
AudioFilename: audio.mp3
AudioLeadIn: 0
PreviewTime: 24181
Countdown: 0
SampleSet: Soft
StackLeniency: 0.7
Mode: 0
LetterboxInBreaks: 0
WidescreenStoryboard: 1

[Editor]
Bookmarks: 33663,37038,49038,61067,96959,115737
DistanceSpacing: 1.1
BeatDivisor: 4
GridSize: 32
TimelineZoom: 2.4

[Metadata]
Title:When Two Are One
TitleUnicode:When Two Are One
Artist:Atreyu
ArtistUnicode:Atreyu
Creator:Veridian
Version:Hard
Source:
Tags:
BeatmapID:1750372
BeatmapSetID:835773

[Difficulty]
HPDrainRate:5
CircleSize:3.5
OverallDifficulty:5
ApproachRate:6
SliderMultiplier:1.5
SliderTickRate:2

[Events]
//Background and Video events
0,0,"maxresdefault.jpg",0,0
//Break Periods
2,100447,101526
//Storyboard Layer 0 (Background)
//Storyboard Layer 1 (Fail)
//Storyboard Layer 2 (Pass)
//Storyboard Layer 3 (Foreground)
//Storyboard Sound Samples

[TimingPoints]
278,387.096774193548,4,1,0,60,1,0
25038,375,4,1,0,60,1,0
37038,-100,4,1,0,100,0,0
37225,-100,4,1,0,60,0,0
49038,-100,4,1,0,100,0,0
49225,-100,4,1,0,60,0,0
61067,393.44262295082,4,1,0,60,1,0
62676,393.44262295082,4,1,0,60,1,0
64265,400,4,1,0,60,1,0
70665,410.958904109589,4,2,0,60,1,1
82993,-100,4,1,0,60,0,0
83809,410.958904109589,4,2,0,60,1,1
100254,387.096774193548,4,1,0,60,1,0
103350,-100,4,1,0,60,0,1
109157,-100,4,1,0,60,0,0
109544,-100,4,1,0,70,0,1
115737,-100,4,1,0,100,0,0

[Colours]
Combo1 : 220,99,102
Combo2 : 215,222,118
Combo3 : 231,143,231
Combo4 : 151,193,104
Combo5 : 155,188,238

[HitObjects]
20,316,24277,5,0,0:0:0:0:
68,384,24471,1,0,0:0:0:0:
116,316,24665,2,0,P|124:276|112:236,1,75,0|0,0:2|0:2,0:0:0:0:
60,188,25038,2,0,P|112:212|204:180,1,150,4|4,0:3|0:3,0:0:0:0:
260,136,25600,2,0,P|352:96|476:164,1,225,4|4,0:2|0:3,0:0:0:0:
508,212,26350,1,4,0:2:0:0:
460,280,26538,6,0,L|360:260,1,75,4|4,0:3|0:2,0:0:0:0:
324,316,26913,2,0,L|224:296,1,75,4|6,0:3|0:2,0:0:0:0:
184,352,27288,2,0,L|4:316,1,150,0|4,0:2|0:3,0:0:0:0:
140,196,28038,6,0,P|172:128|120:56,1,150,4|4,0:3|0:3,0:0:0:0:
88,132,28600,2,0,P|55:196|87:261,1,150,4|4,0:2|0:2,0:0:0:0:
164,296,29163,2,0,L|256:276,1,75,2|4,0:2|0:2,0:0:0:0:
284,348,29538,1,6,0:2:0:0:
344,240,29819,1,2,0:2:0:0:
408,348,30100,1,6,0:2:0:0:
476,300,30288,2,0,P|516:192|456:80,1,225,2|4,0:2|0:2,0:0:0:0:
424,32,31038,6,0,P|360:8|268:60,1,150,2|4,0:2|0:3,0:0:0:0:
228,92,31600,2,0,B|120:148|120:44|0:112,1,225,4|4,0:2|0:3,0:0:0:0:
40,184,32350,1,6,0:2:0:0:
68,260,32538,2,0,L|160:244,1,75,2|4,0:2|0:2,0:0:0:0:
192,316,32913,2,0,L|284:300,1,75,2|4,0:2|0:2,0:0:0:0:
292,224,33288,2,0,L|384:208,1,75,2|6,0:2|0:2,0:0:0:0:
420,276,33663,6,0,P|452:208|400:136,1,150,2|2,0:2|0:2,0:0:0:0:
464,76,34225,2,0,P|364:128|256:64,1,225,4|0,0:2|0:0,0:0:0:0:
112,32,35163,2,0,L|136:136,1,75,2|4,0:2|0:2,0:0:0:0:
56,140,35538,2,0,L|92:304,1,150,2|4,0:2|0:3,0:0:0:0:
220,184,36288,2,0,P|259:175|308:196,2,75,0|6|4,0:0|0:2|0:2,0:0:0:0:
256,260,36850,1,4,0:2:0:0:
220,336,37038,6,0,P|259:345|308:324,1,75,4|4,1:1|0:2,0:0:0:0:
416,364,38350,1,4,0:2:0:0:
484,316,38538,6,0,P|512:248|480:172,1,150,8|8,0:3|0:3,0:0:0:0:
472,96,39100,2,0,L|316:124,1,150,4|4,0:2|0:2,0:0:0:0:
264,180,39663,1,8,0:3:0:0:
204,124,39850,1,0,0:0:0:0:
144,180,40038,2,0,P|92:272|160:380,2,225,8|4|8,0:3|0:2|0:3,0:0:0:0:
208,128,41350,5,4,0:2:0:0:
208,128,41538,2,0,B|278:106|278:106|352:128,1,150,8|8,0:3|0:3,0:0:0:0:
452,196,42194,1,8,0:3:0:0:
364,280,42475,1,4,0:2:0:0:
403,352,42663,2,0,B|366:363|366:363|303:344,1,75,8|4,0:3|0:2,0:0:0:0:
264,304,43038,6,0,B|188:280|192:340|112:308,3,150,8|8|8|8,0:3|0:3|0:3|0:3,0:0:0:0:
60,252,44350,1,4,0:2:0:0:
4,188,44538,2,0,L|168:224,1,150,8|8,0:3|0:3,0:0:0:0:
128,56,45288,2,0,L|274:88,1,150,8|8,0:3|0:3,0:0:0:0:
340,36,45850,1,4,0:2:0:0:
408,84,46038,6,0,P|419:130|400:168,1,75,8|4,0:3|0:2,0:0:0:0:
468,216,46413,2,0,B|360:160|360:264|244:204,1,225,8|4,0:3|0:2,0:0:0:0:
184,164,47163,2,0,P|139:156|88:184,1,75,8|4,0:3|0:2,0:0:0:0:
40,208,47538,6,0,P|7:272|39:337,3,150,8|8|8|8,0:3|0:3|0:3|0:3,0:0:0:0:
92,272,48850,1,12,0:3:0:0:
144,336,49038,6,0,L|240:312,1,75,4|4,1:1|0:2,0:0:0:0:
316,384,50350,1,4,0:2:0:0:
388,344,50538,6,0,B|416:296|416:296|376:176,1,150,8|8,0:3|0:3,0:0:0:0:
424,132,51100,2,0,P|383:123|334:145,1,75,4|0,0:2|0:0,0:0:0:0:
304,196,51475,1,4,0:2:0:0:
252,260,51663,1,8,0:3:0:0:
168,260,51850,1,0,0:0:0:0:
112,196,52038,6,0,P|84:128|128:48,1,150,8|0,0:3|0:3,0:0:0:0:
184,20,52600,2,0,L|348:40,1,150,4|4,0:2|0:2,0:0:0:0:
408,184,53350,1,4,0:2:0:0:
452,256,53538,6,0,P|400:232|300:268,1,150,8|8,0:3|0:3,0:0:0:0:
220,336,54194,1,8,0:3:0:0:
156,232,54475,1,4,0:2:0:0:
82,269,54663,2,0,P|73:238|90:183,1,75,8|4,0:3|0:2,0:0:0:0:
40,124,55038,6,0,B|112:164|112:92|212:136,3,150,8|8|8|8,0:3|0:3|0:3|0:3,0:0:0:0:
244,184,56350,1,4,0:2:0:0:
300,124,56538,2,0,L|264:284,1,150,8|8,0:3|0:3,0:0:0:0:
396,372,57288,2,0,L|428:225,1,150,8|8,0:3|0:3,0:0:0:0:
448,144,57850,1,4,0:2:0:0:
484,68,58038,6,0,P|438:59|401:75,1,75,8|4,0:3|0:2,0:0:0:0:
348,116,58413,2,0,B|240:180|240:68|120:120,1,225,8|4,0:3|0:2,0:0:0:0:
64,160,59163,2,0,B|53:196|53:196|72:256,1,75,8|4,0:3|0:2,0:0:0:0:
132,280,59538,2,0,B|202:310|202:246|298:290,3,150,8|8|8|8,0:3|0:3|0:3|0:3,0:0:0:0:
336,340,60850,1,12,0:3:0:0:
408,284,61067,5,0,0:0:0:0:
408,284,61263,1,4,0:3:0:0:
316,200,61558,1,4,0:3:0:0:
408,116,61853,1,4,0:3:0:0:
256,56,62247,1,4,0:2:0:0:
156,300,62872,5,12,0:3:0:0:
32,192,63266,1,0,0:0:0:0:
32,192,63462,1,12,0:3:0:0:
160,84,63856,1,4,0:2:0:0:
256,316,64465,5,4,0:3:0:0:
360,188,64865,1,0,0:0:0:0:
360,188,65065,1,4,0:3:0:0:
464,316,65465,1,4,0:2:0:0:
512,56,66065,5,12,0:3:0:0:
432,68,66265,1,0,0:0:0:0:
352,80,66465,1,0,0:0:0:0:
272,92,66665,2,0,L|176:108,1,75,12|4,0:3|0:2,0:0:0:0:
136,48,67065,2,0,L|52:60,1,75,4|8,0:2|0:3,0:0:0:0:
4,120,67465,5,4,0:1:0:0:
4,120,67665,1,4,0:3:0:0:
156,184,68065,1,0,0:0:0:0:
156,184,68265,1,4,0:3:0:0:
20,276,68665,1,4,0:2:0:0:
256,356,69265,5,12,0:3:0:0:
400,276,69665,1,0,0:0:0:0:
400,276,69865,1,12,0:3:0:0:
256,196,70265,2,0,P|248:152|264:108,1,75,4|4,0:2|0:3,0:0:0:0:
328,160,70665,5,4,0:1:0:0:
400,60,70973,1,2,0:0:0:0:
468,164,71281,1,2,0:0:0:0:
468,164,71486,2,0,P|496:232|448:320,1,150,4|4,0:0|1:1,0:0:0:0:
316,356,72308,5,2,0:0:0:0:
256,300,72514,2,0,P|220:292|168:312,1,75,2|0,0:0|0:0,0:0:0:0:
116,348,72925,2,0,P|72:356|24:336,1,75,2|4,0:0|0:0,0:0:0:0:
80,272,73336,1,2,0:0:0:0:
0,128,73747,1,2,0:0:0:0:
52,64,73952,6,0,L|212:81,1,150,6|2,0:0|0:0,0:0:0:0:
264,28,74569,2,0,P|240:80|284:180,1,150,2|0,0:0|0:0,0:0:0:0:
324,224,75185,1,4,1:0:0:0:
194,326,75596,5,6,0:0:0:0:
94,252,75904,1,2,0:0:0:0:
136,136,76212,2,0,B|96:128|96:128|36:145,1,75,2|4,0:0|0:0,0:0:0:0:
4,196,76623,2,0,L|24:360,1,150,2|0,0:0|0:0,0:0:0:0:
100,376,77240,5,6,0:0:0:0:
176,280,77548,1,2,0:0:0:0:
256,376,77856,1,2,0:0:0:0:
328,332,78062,2,0,P|400:308|480:348,1,150,4|4,0:0|1:0,0:0:0:0:
364,204,78884,5,6,0:0:0:0:
472,140,79192,1,2,0:0:0:0:
368,72,79500,2,0,P|320:64|280:80,1,75,2|4,0:0|0:0,0:0:0:0:
256,144,79911,1,2,0:0:0:0:
160,68,80219,1,2,1:2:0:0:
60,144,80528,5,4,0:0:0:0:
160,216,80836,1,2,0:0:0:0:
56,280,81144,1,2,0:0:0:0:
56,280,81349,2,0,P|92:324|256:288,1,225,6|2,0:1|0:1,0:0:0:0:
308,356,82171,2,0,B|288:304|288:304|316:228,2,112.5,4|4|0,0:0|0:0|0:0,0:0:0:0:
372,304,82993,5,4,0:2:0:0:
452,316,83199,1,0,0:0:0:0:
508,256,83404,1,4,0:2:0:0:
496,172,83610,1,2,0:2:0:0:
428,132,83809,6,0,P|388:116|312:140,1,112.5,4|2,0:1|1:2,0:0:0:0:
292,160,84219,1,0,0:0:0:0:
224,112,84425,1,2,1:2:0:0:
160,164,84630,2,0,L|172:248,1,75,4|0,0:0|0:0,0:0:0:0:
116,300,85041,1,4,1:0:0:0:
260,384,85452,5,2,1:2:0:0:
324,332,85658,2,0,L|308:240,1,75,0|0,0:0|0:0,0:0:0:0:
356,188,86069,2,0,P|412:171|476:200,1,112.5,2|0,1:2|0:0,0:0:0:0:
496,212,86480,1,2,0:0:0:0:
408,72,86891,1,2,0:0:0:0:
332,104,87096,6,0,L|176:80,1,150,4|2,0:1|1:2,0:0:0:0:
116,32,87713,2,0,B|144:100|144:100|100:200,1,150,2|0,0:0|0:0,0:0:0:0:
76,244,88329,1,4,1:0:0:0:
188,364,88740,1,2,1:2:0:0:
256,260,89048,1,2,1:2:0:0:
324,364,89356,1,2,1:2:0:0:
396,324,89562,2,0,P|407:285|388:240,1,75,6|0,0:0|0:0,0:0:0:0:
364,228,89870,1,2,0:0:0:0:
456,148,90178,1,2,0:0:0:0:
416,76,90384,6,0,P|368:60|300:88,1,112.5,4|2,1:1|1:2,0:0:0:0:
280,104,90795,1,0,0:0:0:0:
220,48,91000,1,2,1:2:0:0:
160,108,91206,2,0,L|184:212,1,75,4|0,0:2|0:0,0:0:0:0:
120,240,91617,1,4,1:0:0:0:
252,340,92028,2,0,P|308:356|368:328,1,112.5,2|2,1:2|1:2,0:0:0:0:
392,316,92439,1,0,0:0:0:0:
468,348,92644,2,0,B|480:312|480:312|455:248,1,75,2|4,1:2|0:0,0:0:0:0:
396,232,93055,5,2,0:0:0:0:
488,140,93363,1,0,1:2:0:0:
396,56,93672,2,0,L|280:84,1,112.5,4|2,1:2|1:2,0:0:0:0:
252,64,94082,1,0,0:0:0:0:
196,128,94288,1,2,1:2:0:0:
129,78,94493,2,0,P|109:122|125:167,1,75,6|0,0:0|0:0,0:0:0:0:
176,224,94904,2,0,L|264:204,1,75,4|0,1:0|0:0,0:0:0:0:
328,180,95315,5,4,0:0:0:0:
432,244,95624,1,0,1:0:0:0:
328,308,95932,1,0,1:0:0:0:
388,364,96137,1,4,1:2:0:0:
512,276,96548,2,0,P|520:228|498:184,1,75,0|0,0:0|1:0,0:0:0:0:
444,160,96959,5,4,1:2:0:0:
256,192,97165,12,0,100247,0:0:0:0:
44,192,102576,5,4,0:2:0:0:
124,208,102770,1,4,0:3:0:0:
204,224,102963,2,0,L|312:244,1,75,4|4,0:2|0:2,0:0:0:0:
340,292,103350,6,0,L|300:128,1,150,2|2,3:2|0:2,0:0:0:0:
364,92,103931,1,4,0:2:0:0:
288,60,104124,2,0,B|216:32|216:104|132:68,1,150,2|2,0:2|0:2,0:0:0:0:
76,28,104705,1,4,0:2:0:0:
68,112,104899,6,0,P|59:148|83:201,1,75,2|6,0:2|0:2,0:0:0:0:
144,220,105286,1,2,0:2:0:0:
32,340,105673,2,0,B|104:296|104:368|192:328,1,150,2|2,0:2|0:2,0:0:0:0:
236,276,106254,1,4,0:2:0:0:
292,336,106447,6,0,P|331:345|387:318,1,75,2|6,0:2|0:2,0:0:0:0:
420,276,106834,1,2,0:2:0:0:
492,128,107221,2,0,P|444:104|336:148,1,150,2|2,0:2|0:2,0:0:0:0:
296,188,107802,1,6,0:2:0:0:
228,140,107995,2,0,L|244:48,1,75,2|6,0:2|0:2,0:0:0:0:
172,20,108383,1,2,0:2:0:0:
20,88,108770,2,0,L|4:180,1,75,2|6,0:2|0:2,0:0:0:0:
60,224,109157,2,0,L|42:322,1,75,6|4,0:2|0:2,0:0:0:0:
104,356,109544,6,0,P|137:364|196:340,3,75,6|4|4|4,0:2|0:2|0:2|0:2,0:0:0:0:
240,300,110318,1,6,0:2:0:0:
304,248,110512,1,4,0:2:0:0:
388,248,110705,1,6,0:2:0:0:
452,300,110899,1,4,0:2:0:0:
512,243,111092,6,0,L|492:159,3,75,6|4|4|4,0:2|0:2|0:2|0:2,0:0:0:0:
468,92,111866,1,6,0:2:0:0:
408,36,112060,1,6,0:2:0:0:
324,36,112253,1,6,0:2:0:0:
264,92,112447,1,4,0:2:0:0:
208,152,112641,6,0,P|170:161|109:129,3,75,6|4|4|4,0:2|0:2|0:2|0:2,0:0:0:0:
84,88,113415,2,0,P|46:79|-15:111,3,75,6|4|4|4,0:2|0:2|0:2|0:2,0:0:0:0:
48,164,114189,5,6,0:2:0:0:
31,245,114383,1,6,0:2:0:0:
84,308,114576,1,6,0:2:0:0:
168,308,114770,1,6,0:2:0:0:
221,245,114963,1,6,0:2:0:0:
208,164,115157,1,6,0:2:0:0:
232,84,115350,2,0,P|272:60|337:69,1,112.5,6|2,0:2|1:2,0:0:0:0:
364,97,115737,5,2,0:2:0:0:
