osu file format v14

[General]
AudioFilename: audio.mp3
AudioLeadIn: 0
PreviewTime: 24181
Countdown: 0
SampleSet: Normal
StackLeniency: 0.7
Mode: 0
LetterboxInBreaks: 0
WidescreenStoryboard: 1

[Editor]
Bookmarks: 33663,37038,49038,61067,96959,115737
DistanceSpacing: 1
BeatDivisor: 8
GridSize: 32
TimelineZoom: 3.499999

[Metadata]
Title:When Two Are One
TitleUnicode:When Two Are One
Artist:Atreyu
ArtistUnicode:Atreyu
Creator:Veridian
Version:Extra
Source:
Tags:
BeatmapID:1750370
BeatmapSetID:835773

[Difficulty]
HPDrainRate:6
CircleSize:3.6
OverallDifficulty:6.5
ApproachRate:9.3
SliderMultiplier:3.3
SliderTickRate:4

[Events]
//Background and Video events
0,0,"maxresdefault.jpg",0,0
//Break Periods
2,100454,102022
//Storyboard Layer 0 (Background)
//Storyboard Layer 1 (Fail)
//Storyboard Layer 2 (Pass)
//Storyboard Layer 3 (Foreground)
//Storyboard Sound Samples

[TimingPoints]
278,387.096774193548,4,1,0,60,1,0
25038,375,4,1,0,60,1,0
37038,-100,4,1,0,100,0,0
37225,-100,4,1,0,60,0,0
49038,-100,4,1,0,100,0,0
49225,-100,4,1,0,60,0,0
61067,393.44262295082,4,1,0,60,1,0
61558,-133.333333333333,4,1,0,60,0,0
62676,393.44262295082,4,1,0,60,1,0
63167,-133.333333333333,4,1,0,60,0,0
64265,400,4,1,0,60,1,0
64765,-133.333333333333,4,1,0,60,0,0
65865,-100,4,1,0,60,0,0
67965,-133.333333333333,4,1,0,60,0,0
69065,-100,4,1,0,60,0,0
69565,-133.333333333333,4,1,0,60,0,0
70665,410.958904109589,4,2,0,60,1,1
70870,-100,4,2,0,5,0,1
70973,-100,4,2,0,60,0,1
71178,-100,4,2,0,5,0,1
71281,-100,4,2,0,60,0,1
71384,-100,4,2,0,5,0,1
71487,-100,4,2,0,60,0,1
72411,-100,4,2,0,5,0,1
72514,-100,4,2,0,60,0,1
72822,-100,4,2,0,5,0,1
72925,-100,4,2,0,60,0,1
73028,-100,4,2,0,5,0,1
73131,-100,4,2,0,60,0,1
73644,-100,4,2,0,5,0,1
73747,-100,4,2,0,60,0,1
73849,-100,4,2,0,5,0,1
73952,-100,4,2,0,60,0,1
74260,-100,4,2,0,5,0,1
74363,-100,4,2,0,60,0,1
74466,-100,4,2,0,5,0,1
74569,-100,4,2,0,60,0,1
74671,-100,4,2,0,5,0,1
74774,-100,4,2,0,60,0,1
75801,-100,4,2,0,5,0,1
75904,-100,4,2,0,60,0,1
76110,-100,4,2,0,5,0,1
76213,-100,4,2,0,60,0,1
76315,-100,4,2,0,5,0,1
76418,-100,4,2,0,60,0,1
76521,-100,4,2,0,5,0,1
76624,-100,4,2,0,60,0,1
76829,-100,4,2,0,5,0,1
76932,-100,4,2,0,60,0,1
77445,-100,4,2,0,5,0,1
77548,-100,4,2,0,60,0,1
77754,-100,4,2,0,5,0,1
77857,-100,4,2,0,60,0,1
77959,-100,4,2,0,5,0,1
78062,-100,4,2,0,60,0,1
79089,-100,4,2,0,5,0,1
79192,-100,4,2,0,60,0,1
79397,-100,4,2,0,5,0,1
79500,-100,4,2,0,60,0,1
79603,-100,4,2,0,5,0,1
79706,-100,4,2,0,60,0,1
80117,-100,4,2,0,5,0,1
80220,-100,4,2,0,60,0,1
80271,-100,4,2,0,5,0,1
80528,-100,4,2,0,60,0,1
80733,-100,4,2,0,5,0,1
80836,-100,4,2,0,60,0,1
81041,-100,4,2,0,5,0,1
81144,-100,4,2,0,60,0,1
81247,-100,4,2,0,5,0,1
81350,-100,4,2,0,60,0,1
81555,-100,4,2,0,5,0,1
81658,-100,4,2,0,60,0,1
81863,-100,4,2,0,5,0,1
81966,-100,4,2,0,60,0,1
82120,-100,4,2,0,5,0,1
82171,-100,4,2,0,60,0,1
82377,-100,4,2,0,5,0,1
82480,-100,4,2,0,60,0,1
82685,-100,4,2,0,5,0,1
82788,-100,4,2,0,60,0,1
82891,-100,4,2,0,5,0,1
82993,-100,4,1,0,60,0,0
83809,410.958904109589,4,2,0,60,1,1
84014,-100,4,2,0,5,0,1
84117,-100,4,2,0,60,0,1
84322,-100,4,2,0,5,0,1
84425,-100,4,2,0,60,0,1
84630,-166.666666666667,4,2,0,60,0,1
84939,-166.666666666667,4,2,0,5,0,1
85041,-166.666666666667,4,2,0,60,0,1
85350,-166.666666666667,4,2,0,5,0,1
85452,-100,4,2,0,60,0,1
85658,-100,4,2,0,5,0,1
85761,-100,4,2,0,60,0,1
85966,-100,4,2,0,5,0,1
86069,-100,4,2,0,60,0,1
86172,-100,4,2,0,5,0,1
86275,-100,4,2,0,60,0,1
86377,-100,4,2,0,5,0,1
86480,-166.666666666667,4,2,0,60,0,1
87096,-83.3333333333333,4,2,0,60,0,1
87302,-83.3333333333333,4,2,0,5,0,1
87507,-83.3333333333333,4,2,0,60,0,1
87610,-83.3333333333333,4,2,0,5,0,1
87713,-83.3333333333333,4,2,0,60,0,1
87816,-83.3333333333333,4,2,0,5,0,1
87918,-166.666666666667,4,2,0,60,0,1
88226,-166.666666666667,4,2,0,5,0,1
88329,-166.666666666667,4,2,0,60,0,1
88740,-90.9090909090909,4,2,0,60,0,1
88945,-90.9090909090909,4,2,0,5,0,1
89048,-90.9090909090909,4,2,0,60,0,1
89254,-90.9090909090909,4,2,0,5,0,1
89357,-90.9090909090909,4,2,0,60,0,1
89459,-90.9090909090909,4,2,0,5,0,1
89562,-90.9090909090909,4,2,0,60,0,1
89767,-90.9090909090909,4,2,0,5,0,1
89870,-90.9090909090909,4,2,0,60,0,1
90076,-90.9090909090909,4,2,0,5,0,1
90179,-90.9090909090909,4,2,0,60,0,1
90281,-90.9090909090909,4,2,0,5,0,1
90384,-100,4,2,0,60,0,1
90589,-100,4,2,0,5,0,1
90692,-100,4,2,0,60,0,1
90898,-100,4,2,0,5,0,1
91000,-100,4,2,0,60,0,1
91103,-100,4,2,0,5,0,1
91206,-166.666666666667,4,2,0,60,0,1
91514,-166.666666666667,4,2,0,5,0,1
91617,-166.666666666667,4,2,0,60,0,1
91925,-166.666666666667,4,2,0,5,0,1
92028,-100,4,2,0,60,0,1
92233,-100,4,2,0,5,0,1
92335,-100,4,2,0,60,0,1
92541,-100,4,2,0,5,0,1
92643,-100,4,2,0,60,0,1
92747,-100,4,2,0,5,0,1
92849,-100,4,2,0,60,0,1
93261,-100,4,2,0,5,0,1
93363,-100,4,2,0,60,0,1
93877,-100,4,2,0,5,0,1
93979,-100,4,2,0,60,0,1
94185,-100,4,2,0,5,0,1
94287,-100,4,2,0,60,0,1
94391,-100,4,2,0,5,0,1
94493,-166.666666666667,4,2,0,60,0,1
94802,-166.666666666667,4,2,0,5,0,1
94904,-166.666666666667,4,2,0,60,0,1
95315,-100,4,2,0,60,0,1
100254,387.096774193548,4,1,0,60,1,0
103350,-100,4,1,0,60,0,1
109157,-100,4,1,0,60,0,0
109544,-100,4,1,0,70,0,1
115737,-100,4,1,0,100,0,0

[Colours]
Combo1 : 220,99,102
Combo2 : 215,222,118
Combo3 : 231,143,231
Combo4 : 151,193,104
Combo5 : 155,188,238

[HitObjects]
208,292,24665,5,0,0:2:0:0:
252,360,24761,1,0,0:2:0:0:
332,384,24858,1,0,0:2:0:0:
412,360,24955,1,0,0:2:0:0:
456,292,25038,6,0,L|435:173,1,82.5,4|0,0:3|0:2,0:0:0:0:
304,136,25225,2,0,L|324:254,1,82.5,4|0,0:2|0:2,0:0:0:0:
400,80,25413,1,4,0:3:0:0:
340,24,25506,1,0,0:2:0:0:
256,24,25600,1,4,0:2:0:0:
200,84,25694,2,0,P|124:120|35:64,1,165,4|4,0:3|0:3,0:0:0:0:
4,232,25975,6,0,L|122:211,1,82.5,4|0,0:2|0:2,0:0:0:0:
208,316,26163,1,4,0:3:0:0:
208,316,26256,1,4,0:3:0:0:
208,316,26350,2,0,L|89:336,1,82.5,4|0,0:2|0:2,0:0:0:0:
308,300,26538,5,4,0:3:0:0:
360,364,26631,1,0,0:2:0:0:
440,344,26725,1,4,0:2:0:0:
464,264,26819,1,2,0:2:0:0:
408,204,26913,1,4,0:3:0:0:
328,220,27006,1,4,0:3:0:0:
284,152,27100,1,6,0:2:0:0:
336,88,27194,1,4,0:3:0:0:
412,119,27288,6,0,L|538:97,1,82.5,0|4,0:2|0:3,0:0:0:0:
363,0,27475,2,0,L|236:22,1,82.5,4|0,0:2|0:2,0:0:0:0:
156,136,27663,1,4,0:3:0:0:
156,136,27756,1,4,0:3:0:0:
156,136,27850,2,0,L|275:116,1,82.5,4|0,0:2|0:2,0:0:0:0:
48,96,28038,6,0,P|40:156|84:206,1,82.5,4|0,0:3|0:2,0:0:0:0:
148,320,28225,2,0,P|160:280|104:216,1,82.5,4|0,0:2|0:2,0:0:0:0:
48,288,28413,1,4,0:3:0:0:
126,274,28506,1,4,0:3:0:0:
209,259,28600,1,4,0:2:0:0:
292,244,28694,2,0,L|492:208,1,165,4|4,0:3|0:3,0:0:0:0:
192,56,28975,2,0,L|214:183,1,82.5,4|0,0:2|0:2,0:0:0:0:
344,336,29163,1,2,0:2:0:0:
344,336,29256,1,4,0:3:0:0:
344,336,29350,2,0,L|463:316,1,82.5,4|8,0:2|0:3,0:0:0:0:
207,107,29538,6,0,P|199:160|238:215,1,82.5,6|4,0:2|0:3,0:0:0:0:
308,140,29725,1,4,0:2:0:0:
308,140,29819,2,0,P|357:120|386:59,1,82.5,2|4,0:2|0:3,0:0:0:0:
296,44,30006,1,4,0:3:0:0:
296,44,30100,2,0,P|254:10|186:16,1,82.5,6|4,0:2|0:3,0:0:0:0:
92,80,30288,1,2,0:2:0:0:
92,80,30381,1,4,0:3:0:0:
92,80,30475,2,0,L|114:207,1,82.5,4|0,0:2|0:2,0:0:0:0:
222,267,30663,1,4,0:3:0:0:
222,267,30756,1,4,0:3:0:0:
222,267,30850,2,0,L|200:140,1,82.5,4|0,0:2|0:2,0:0:0:0:
180,360,31038,6,0,P|240:368|290:324,1,82.5,2|0,0:2|0:2,0:0:0:0:
418,263,31225,2,0,P|358:255|308:299,1,82.5,4|0,0:2|0:2,0:0:0:0:
448,360,31413,1,4,0:3:0:0:
512,308,31506,1,4,0:3:0:0:
512,224,31600,1,4,0:2:0:0:
448,172,31694,6,0,P|420:104|452:20,1,165,2|0,0:2|0:2,0:0:0:0:
300,56,31975,2,0,P|310:95|299:134,1,82.5,4|0,0:2|0:2,0:0:0:0:
360,240,32163,1,4,0:3:0:0:
360,240,32256,1,4,0:3:0:0:
360,240,32350,2,0,L|241:260,1,82.5,6|0,0:2|0:2,0:0:0:0:
168,264,32538,5,2,0:2:0:0:
108,320,32631,1,0,0:2:0:0:
28,300,32725,1,4,0:2:0:0:
8,220,32819,1,0,0:2:0:0:
72,160,32913,1,2,0:2:0:0:
152,180,33006,1,4,0:3:0:0:
212,236,33100,1,4,0:2:0:0:
292,260,33194,1,0,0:2:0:0:
372,236,33288,5,2,0:2:0:0:
432,180,33381,1,4,0:3:0:0:
396,104,33475,1,6,0:2:0:0:
312,112,33569,1,4,0:3:0:0:
296,192,33663,2,0,L|316:312,1,82.5,2|4,0:2|0:3,0:0:0:0:
476,352,33850,2,0,L|462:270,1,82.5,4|0,0:2|0:2,0:0:0:0:
248,152,34038,6,0,L|280:352,2,165,2|4|4,0:2|0:2|0:3,0:0:0:0:
228,72,34506,1,4,0:3:0:0:
148,44,34600,1,4,0:2:0:0:
80,88,34694,2,0,P|48:168|116:264,1,165,4|4,0:3|0:3,0:0:0:0:
52,348,34975,2,0,L|176:328,1,82.5,4|0,0:2|0:2,0:0:0:0:
280,208,35163,1,2,0:2:0:0:
280,208,35256,1,4,0:3:0:0:
280,208,35350,2,0,L|156:228,1,82.5,4|0,0:2|0:2,0:0:0:0:
376,245,35538,6,0,P|386:203|346:135,1,82.5,2|0,0:2|0:3,0:0:0:0:
276,24,35725,2,0,P|266:66|306:134,1,82.5,4|0,0:2|0:2,0:0:0:0:
292,304,35913,1,4,0:3:0:0:
360,352,36006,1,4,0:3:0:0:
440,324,36100,1,4,0:2:0:0:
476,248,36194,2,0,L|440:64,1,165,2|4,0:2|0:3,0:0:0:0:
484,12,36475,1,6,0:2:0:0:
192,176,36663,5,4,0:2:0:0:
240,244,36756,1,4,0:3:0:0:
320,216,36850,1,4,0:2:0:0:
320,132,36944,1,4,0:3:0:0:
240,104,37038,6,0,B|184:88|184:88|132:116|132:116|76:100,2,165,4|4|8,1:1|0:2|0:3,0:0:0:0:
300,48,37506,1,0,0:3:0:0:
380,72,37600,1,4,0:2:0:0:
400,152,37694,2,0,P|370:225|408:312,1,165,8|8,0:3|0:3,0:0:0:0:
336,356,37975,1,4,0:2:0:0:
180,300,38163,2,8,P|192:251|160:203,1,82.5,8|8,0:3|0:3,0:0:0:0:
124,164,38350,1,4,0:2:0:0:
20,36,38538,6,0,B|60:48|60:48|114:31,1,82.5,8|0,0:3|0:0,0:0:0:0:
172,76,38725,2,0,B|212:64|212:64|266:81,1,82.5,4|0,0:2|0:0,0:0:0:0:
320,124,38913,1,8,0:3:0:0:
320,124,39006,2,0,L|298:246,1,82.5,8|4,0:3|0:2,0:0:0:0:
380,256,39194,2,0,L|412:80,1,165,8|8,0:3|0:3,0:0:0:0:
428,12,39475,1,4,0:2:0:0:
504,160,39663,2,8,P|514:217|484:256,1,82.5,8|8,0:3|0:3,0:0:0:0:
472,312,39850,1,0,0:0:0:0:
328,228,40038,6,0,P|260:196|159:265,1,165,8|4,0:3|0:2,0:0:0:0:
80,360,40413,1,0,0:3:0:0:
22,302,40506,2,0,L|42:183,1,82.5,8|4,0:3|0:2,0:0:0:0:
0,144,40694,2,0,P|68:176|169:107,1,165,8|8,0:3|0:3,0:0:0:0:
208,88,40975,1,4,0:2:0:0:
324,208,41163,2,8,L|309:289,1,82.5,8|8,0:3|0:3,0:0:0:0:
364,352,41350,1,4,0:2:0:0:
480,236,41538,6,0,B|492:196|492:196|468:120,1,82.5,8|0,0:3|0:2,0:0:0:0:
436,88,41725,2,0,B|396:76|396:76|320:100,1,82.5,4|0,0:2|0:2,0:0:0:0:
280,124,41913,2,0,B|204:152|204:152|116:120,1,165,8|4,0:3|0:2,0:0:0:0:
64,68,42194,2,0,L|98:264,1,165,8|8,0:3|0:3,0:0:0:0:
112,312,42475,1,4,0:2:0:0:
268,372,42663,2,8,L|243:234,1,82.5,8|8,0:3|0:3,0:0:0:0:
304,224,42850,1,4,0:2:0:0:
448,308,43038,6,0,L|419:145,1,165,8|4,0:3|0:2,0:0:0:0:
284,48,43413,1,8,0:3:0:0:
284,48,43506,1,8,0:3:0:0:
284,48,43600,2,0,B|239:38|239:38|136:68,1,82.5,4|0,0:2|0:2,0:0:0:0:
144,104,43788,2,0,L|164:232,1,82.5,8|0,0:3|0:2,0:0:0:0:
108,252,43975,1,4,0:2:0:0:
252,332,44163,1,8,0:3:0:0:
252,332,44256,1,8,0:3:0:0:
252,332,44350,2,0,B|292:341|292:341|400:312,1,82.5,4|0,0:2|0:2,0:0:0:0:
392,276,44538,6,0,L|372:148,1,82.5,8|0,0:3|0:2,0:0:0:0:
428,128,44725,1,4,0:2:0:0:
120,276,44913,2,8,L|140:148,1,82.5,8|8,0:3|0:3,0:0:0:0:
84,128,45100,1,4,0:2:0:0:
392,180,45288,2,0,L|372:52,1,82.5,8|0,0:3|0:2,0:0:0:0:
428,32,45475,1,4,0:2:0:0:
120,180,45663,2,8,L|140:52,1,82.5,8|8,0:3|0:3,0:0:0:0:
84,32,45850,1,4,0:2:0:0:
256,344,46038,6,0,L|256:144,1,165,8|4,0:3|0:2,0:0:0:0:
368,300,46413,2,8,P|409:310|481:268,1,82.5,8|8,0:3|0:3,0:0:0:0:
500,236,46600,1,4,0:2:0:0:
500,236,46694,2,0,P|532:160|472:68,1,165,8|8,0:3|0:3,0:0:0:0:
440,32,46975,1,4,0:2:0:0:
340,164,47163,2,8,L|232:140,1,82.5,8|8,0:3|0:3,0:0:0:0:
188,188,47350,1,4,0:2:0:0:
40,112,47538,6,0,P|7:185|38:259,1,165,8|4,0:3|0:2,0:0:0:0:
188,336,47913,2,8,L|296:360,1,82.5,8|8,0:3|0:3,0:0:0:0:
340,312,48100,1,4,0:2:0:0:
464,200,48288,2,0,B|384:236|384:156|300:200,1,165,8|4,0:3|0:2,0:0:0:0:
248,256,48569,1,8,0:3:0:0:
168,236,48663,1,8,0:3:0:0:
144,156,48756,1,12,0:3:0:0:
200,96,48850,1,12,0:3:0:0:
280,116,48944,1,0,0:0:0:0:
224,176,49038,5,4,1:1:0:0:
60,196,49225,2,0,P|50:149|82:90,1,82.5,4|0,0:2|0:0,0:0:0:0:
32,36,49413,1,8,0:3:0:0:
32,36,49506,2,0,L|132:20,1,82.5,0|4,0:3|0:2,0:0:0:0:
168,84,49694,2,0,L|356:48,1,165,8|8,0:3|0:3,0:0:0:0:
392,108,49975,1,4,0:2:0:0:
436,268,50163,1,8,0:3:0:0:
436,268,50256,1,8,0:3:0:0:
436,268,50350,2,0,B|396:280|396:280|327:257,1,82.5,4|0,0:2|0:0,0:0:0:0:
304,332,50538,6,0,B|224:304|224:304|124:340,1,165,8|4,0:3|0:2,0:0:0:0:
68,188,50913,2,0,L|92:80,1,82.5,8|8,0:3|0:3,0:0:0:0:
16,64,51100,1,4,0:2:0:0:
16,64,51194,2,0,L|212:24,1,165,8|8,0:3|0:3,0:0:0:0:
252,64,51475,1,4,0:2:0:0:
232,228,51663,1,8,0:3:0:0:
232,228,51756,1,8,0:3:0:0:
232,228,51850,2,0,L|112:256,1,82.5,0|0,0:0|0:0,0:0:0:0:
156,332,52038,6,0,L|356:284,1,165,8|4,0:3|0:2,0:0:0:0:
476,248,52413,1,0,0:3:0:0:
476,248,52506,2,0,P|488:208|456:140,1,82.5,8|4,0:3|0:2,0:0:0:0:
440,96,52694,2,0,P|368:64|272:116,1,165,8|8,0:3|0:3,0:0:0:0:
228,140,52975,2,0,P|188:152|124:112,1,82.5,4|0,0:2|0:0,0:0:0:0:
88,92,53163,1,8,0:3:0:0:
88,92,53256,1,8,0:3:0:0:
88,92,53350,2,0,P|40:80|-24:128,1,82.5,4|0,0:2|0:0,0:0:0:0:
48,164,53538,6,0,B|16:236|16:236|56:344,1,165,8|4,0:3|0:2,0:0:0:0:
204,364,53913,1,8,0:3:0:0:
204,364,54006,2,0,L|232:240,1,82.5,0|4,0:0|0:2,0:0:0:0:
296,324,54194,2,0,L|340:136,1,165,8|8,0:3|0:3,0:0:0:0:
412,136,54475,1,4,0:2:0:0:
296,20,54663,2,0,B|256:4|256:4|188:32,1,82.5,8|8,0:3|0:3,0:0:0:0:
144,56,54850,1,4,0:2:0:0:
64,200,55038,6,0,B|140:232|140:232|216:196,1,165,8|4,0:3|0:2,0:0:0:0:
376,152,55413,1,8,0:3:0:0:
376,152,55506,1,8,0:3:0:0:
376,152,55600,2,0,B|388:192|388:192|364:252,1,82.5,4|0,0:2|0:2,0:0:0:0:
400,320,55788,2,0,L|280:296,1,82.5,8|0,0:3|0:2,0:0:0:0:
256,360,55975,1,4,0:2:0:0:
80,228,56163,1,8,0:3:0:0:
80,228,56256,1,8,0:3:0:0:
80,228,56350,2,0,B|68:188|68:188|92:128,1,82.5,4|0,0:2|0:2,0:0:0:0:
56,64,56538,6,0,L|176:88,1,82.5,8|0,0:3|0:2,0:0:0:0:
196,24,56725,1,4,0:2:0:0:
456,64,56913,2,0,L|375:80,1,82.5,8|8,0:3|0:3,0:0:0:0:
316,24,57100,1,4,0:2:0:0:
56,184,57288,2,0,L|176:208,1,82.5,8|0,0:3|0:2,0:0:0:0:
196,144,57475,1,4,0:2:0:0:
456,184,57663,2,0,L|375:200,1,82.5,8|8,0:3|0:3,0:0:0:0:
316,144,57850,1,4,0:2:0:0:
256,376,58038,6,0,L|256:168,1,165,8|4,0:3|0:2,0:0:0:0:
256,44,58413,1,8,0:3:0:0:
332,16,58506,1,8,0:3:0:0:
408,52,58600,1,4,0:2:0:0:
448,124,58694,2,0,P|472:196|428:292,1,165,8|8,0:3|0:3,0:0:0:0:
408,352,58975,1,4,0:2:0:0:
264,272,59163,2,0,B|224:260|224:260|176:276,1,82.5,8|8,0:3|0:3,0:0:0:0:
108,304,59350,1,4,0:2:0:0:
32,160,59538,6,0,B|108:188|108:188|192:156,1,165,8|4,0:3|0:2,0:0:0:0:
328,72,59913,2,0,B|368:60|368:60|428:80,1,82.5,8|8,0:3|0:3,0:0:0:0:
484,104,60100,1,4,0:2:0:0:
384,236,60288,2,0,L|364:116,1,82.5,8|0,0:3|0:0,0:0:0:0:
480,272,60475,5,4,0:2:0:0:
428,336,60569,1,8,0:3:0:0:
344,336,60663,1,8,0:3:0:0:
292,276,60756,1,12,0:3:0:0:
232,216,60850,1,12,0:3:0:0:
148,212,60944,1,0,0:0:0:0:
88,276,61067,5,0,0:0:0:0:
88,276,61263,2,0,P|81:340|100:373,1,82.5,4|0,0:3|0:0,0:0:0:0:
160,316,61460,1,0,0:0:0:0:
132,136,61558,2,0,L|53:149,1,61.875002360344,4|0,0:3|0:0,0:0:0:0:
48,192,61853,2,0,L|268:153,1,185.625007081032,4|0,0:3|0:0,0:0:0:0:
300,108,62247,2,0,P|260:192|340:288,1,185.625007081032,4|0,0:2|0:0,0:0:0:0:
476,344,62676,6,0,L|496:216,1,82.5,0|0,0:0|0:0,0:0:0:0:
440,188,62872,2,0,P|393:177|325:237,1,82.5,12|0,0:3|0:0,0:0:0:0:
400,264,63069,1,0,0:0:0:0:
460,80,63167,2,0,L|348:100,1,61.875002360344,12|0,0:3|0:0,0:0:0:0:
372,64,63462,2,0,B|316:36|316:36|160:76,1,185.625007081032,12|0,0:3|0:0,0:0:0:0:
116,96,63856,2,0,P|80:180|116:264,1,185.625007081032,4|0,0:2|0:0,0:0:0:0:
288,180,64265,5,0,0:0:0:0:
288,180,64465,2,0,P|240:170|170:211,1,82.5,4|0,0:3|0:0,0:0:0:0:
246,264,64665,1,0,0:0:0:0:
396,200,64765,2,0,L|380:100,1,61.875002360344,4|0,0:3|0:0,0:0:0:0:
420,96,65065,2,0,L|452:312,1,185.625007081032,4|0,0:3|0:0,0:0:0:0:
508,356,65465,2,0,P|440:320|344:356,1,185.625007081032,4|0,0:2|0:0,0:0:0:0:
212,156,65865,5,0,0:0:0:0:
198,143,66065,2,0,P|188:104|213:44,1,82.5,12|0,0:3|0:0,0:0:0:0:
302,255,66265,2,0,P|287:292|231:326,1,82.5,0|12,0:0|0:3,0:0:0:0:
282,103,66465,2,0,P|316:81|380:86,1,82.5,0|0,0:0|0:0,0:0:0:0:
210,235,66665,2,0,P|169:232|120:190,1,82.5,12|0,0:3|0:0,0:0:0:0:
346,171,66865,2,0,P|377:196|392:259,1,82.5,4|0,0:2|0:0,0:0:0:0:
120,328,67065,5,4,0:2:0:0:
48,288,67165,1,4,0:3:0:0:
24,208,67265,1,8,0:3:0:0:
48,128,67365,1,4,0:2:0:0:
124,96,67465,6,0,L|224:124,1,82.5,4|0,0:1|0:0,0:0:0:0:
290,254,67665,2,0,L|190:230,1,82.5,4|0,0:3|0:0,0:0:0:0:
376,208,67865,1,0,0:0:0:0:
324,352,67965,2,0,P|287:359|236:328,1,61.875002360344,4|0,0:3|0:0,0:0:0:0:
224,336,68265,2,0,P|152:304|28:380,1,185.625007081032,4|0,0:3|0:0,0:0:0:0:
28,172,68665,2,0,L|260:228,1,185.625007081032,4|0,0:2|0:0,0:0:0:0:
312,136,69065,6,0,B|353:127|353:127|400:140,1,82.5,0|0,0:0|0:0,0:0:0:0:
392,296,69265,2,0,B|351:305|351:305|304:292,1,82.5,12|0,0:3|0:0,0:0:0:0:
352,216,69465,1,0,0:0:0:0:
485,107,69565,2,0,P|490:151|445:194,1,61.875002360344,12|0,0:3|0:0,0:0:0:0:
492,204,69865,5,12,0:3:0:0:
380,32,70065,1,4,0:3:0:0:
356,40,70165,1,4,0:3:0:0:
336,48,70265,1,4,0:2:0:0:
316,56,70365,1,4,0:3:0:0:
296,64,70465,1,4,0:3:0:0:
104,132,70665,6,0,P|72:212|128:296,1,165,4|0,0:1|0:0,0:0:0:0:
327,211,70973,2,0,P|260:177|160:238,1,165,2|0,0:0|0:0,0:0:0:0:
239,360,71281,2,0,L|255:244,1,82.5,2|0,0:0|0:0,0:0:0:0:
416,96,71486,2,0,L|440:268,1,165,4|0,0:0|0:0,0:0:0:0:
444,292,71897,1,4,1:1:0:0:
494,92,72308,6,0,P|452:105|385:66,1,82.5,2|0,0:0|0:0,0:0:0:0:
336,32,72514,1,2,0:0:0:0:
156,128,72617,2,0,P|230:96|303:129,1,165,0|0,1:0|0:0,0:0:0:0:
228,272,72925,2,0,B|216:228|216:228|236:164,1,82.5,2|0,0:0|0:0,0:0:0:0:
320,232,73130,1,4,0:0:0:0:
144,308,73336,2,0,B|268:244|268:372|380:304,1,247.5,2|0,0:0|0:0,0:0:0:0:
428,224,73747,2,0,L|412:112,1,82.5,2|0,0:0|0:0,0:0:0:0:
160,184,73952,6,0,P|240:215|333:134,1,165,6|0,0:0|0:0,0:0:0:0:
236,36,74260,1,0,0:0:0:0:
236,36,74363,2,0,P|224:80|246:130,1,82.5,2|0,0:0|0:0,0:0:0:0:
392,224,74569,2,0,P|404:180|382:130,1,82.5,2|0,0:0|0:0,0:0:0:0:
316,296,74774,2,0,L|540:260,1,165,4|0,0:0|0:0,0:0:0:0:
512,296,75185,1,4,1:0:0:0:
192,328,75596,6,0,B|152:240|236:240|188:164,1,165,6|0,0:0|0:0,0:0:0:0:
16,148,75904,2,0,P|4:200|84:156,1,165,2|0,0:0|0:0,0:0:0:0:
152,79,76212,2,0,P|192:70|232:80,1,82.5,2|0,0:0|0:0,0:0:0:0:
356,196,76418,2,0,P|316:205|276:195,1,82.5,4|0,0:0|0:0,0:0:0:0:
424,116,76623,2,0,P|392:196|484:288,1,165,2|0,0:0|0:0,0:0:0:0:
504,188,76932,1,2,0:0:0:0:
152,79,77240,6,0,L|188:279,1,165,6|0,0:0|0:0,0:0:0:0:
312,384,77548,2,0,L|341:221,1,165,2|0,0:0|0:0,0:0:0:0:
142,324,77856,2,0,P|186:336|238:306,1,82.5,2|0,0:0|0:0,0:0:0:0:
420,148,78062,2,0,P|336:116|248:168,1,165,4|0,0:0|0:0,0:0:0:0:
244,172,78473,1,4,1:0:0:0:
340,373,78884,6,0,B|372:297|372:297|321:174,1,165,6|0,0:0|0:0,0:0:0:0:
88,328,79192,2,0,L|280:292,1,165,2|0,0:0|0:0,0:0:0:0:
193,186,79500,2,0,L|111:201,1,82.5,2|0,0:0|0:0,0:0:0:0:
68,352,79706,1,4,0:0:0:0:
0,216,79911,2,0,P|76:168|60:52,1,165,2|0,0:0|0:0,0:0:0:0:
196,72,80219,2,0,P|232:96|256:92,4,41.25,2|0|0|0|0,1:2|0:0|0:0|0:0|0:0,0:0:0:0:
428,200,80528,6,0,P|356:168|260:228,1,165,4|0,0:0|0:0,0:0:0:0:
205,279,80836,2,0,P|278:311|352:280,1,165,2|0,0:0|0:0,0:0:0:0:
104,240,81144,2,0,P|93:278|128:345,1,82.5,2|0,0:0|0:0,0:0:0:0:
180,168,81349,6,0,B|164:108|164:108|180:76|180:76|160:-12,1,165,6|2,0:1|0:1,0:0:0:0:
336,228,81658,2,0,B|321:162|321:162|337:130|337:130|321:70,1,165,2|0,0:1|0:0,0:0:0:0:
280,384,81966,2,2,B|269:342|269:342|248:326|248:326|231:264,1,123.75,2|2,0:1|0:1,0:0:0:0:
224,244,82171,2,0,P|172:216|56:272,1,165,4|0,0:0|0:0,0:0:0:0:
32,92,82480,2,0,L|213:123,1,165,4|0,0:0|0:0,0:0:0:0:
364,44,82788,2,0,L|246:23,1,82.5,0|0,0:0|0:0,0:0:0:0:
376,272,82993,5,4,0:2:0:0:
496,52,83199,1,0,0:0:0:0:
376,372,83404,1,4,0:2:0:0:
267,167,83610,1,2,0:2:0:0:
468,312,83809,6,0,B|508:232|432:232|476:144,1,165,4|0,0:1|0:0,0:0:0:0:
223,271,84117,2,0,B|301:303|301:303|392:265,1,165,2|0,1:2|0:0,0:0:0:0:
340,100,84425,2,0,B|297:90|297:90|231:110,1,82.5,2|0,1:2|0:0,0:0:0:0:
156,316,84630,6,0,L|184:152,1,148.49999546814,4|0,0:0|0:0,0:0:0:0:
96,12,85041,2,0,L|71:158,1,148.49999546814,4|0,1:0|0:0,0:0:0:0:
156,316,85452,6,0,P|72:324|16:400,1,165,2|0,1:2|0:0,0:0:0:0:
180,169,85761,2,0,P|234:228|314:234,1,165,2|0,1:2|0:0,0:0:0:0:
396,160,86069,2,0,P|406:121|385:66,1,82.5,2|0,1:2|0:0,0:0:0:0:
296,0,86274,2,0,L|196:28,1,82.5,6|0,0:0|0:0,0:0:0:0:
284,120,86480,6,0,L|468:67,1,173.24999471283,2|0,0:0|0:0,0:0:0:0:
469,83,86891,1,2,0:0:0:0:
496,340,87096,6,0,P|444:304|307:359,1,197.99999395752,4|0,0:1|0:0,0:0:0:0:
212,268,87404,1,0,1:2:0:0:
184,240,87507,2,0,P|170:192|207:123,1,98.9999969787599,2|0,1:2|0:0,0:0:0:0:
320,72,87713,2,0,P|334:120|297:189,1,98.9999969787599,2|0,0:0|0:0,0:0:0:0:
70,268,87918,6,0,P|54:212|74:116,1,148.49999546814,4|0,0:0|0:0,0:0:0:0:
24,16,88329,2,0,L|188:40,1,148.49999546814,4|0,1:0|0:0,0:0:0:0:
356,224,88740,6,0,L|148:192,1,181.500005538941,2|0,1:2|0:0,0:0:0:0:
372,104,89048,2,0,P|432:124|468:256,1,181.500005538941,2|0,1:2|0:0,0:0:0:0:
392,352,89356,2,0,L|268:330,1,90.7500027694703,2|0,1:2|0:0,0:0:0:0:
32,324,89562,2,0,B|112:360|112:360|208:320,1,181.500005538941,6|0,0:0|0:0,0:0:0:0:
120,72,89870,2,0,B|72:164|176:164|104:264,1,181.500005538941,2|0,0:0|0:0,0:0:0:0:
8,160,90178,2,0,P|-3:112|30:45,1,90.7500027694703,2|0,0:0|0:0,0:0:0:0:
272,72,90384,6,0,P|288:136|216:104,1,165,4|0,1:1|0:0,0:0:0:0:
388,32,90692,2,0,P|412:92|360:212,1,165,2|0,1:2|0:0,0:0:0:0:
320,272,91000,2,0,P|311:327|332:369,1,82.5,2|0,1:2|0:0,0:0:0:0:
160,372,91206,6,0,P|188:324|164:232,1,148.49999546814,4|0,0:2|0:0,0:0:0:0:
48,104,91617,2,0,L|24:260,1,148.49999546814,4|0,1:0|0:0,0:0:0:0:
292,140,92028,6,0,B|208:172|208:108|124:144,1,165,2|0,1:2|0:0,0:0:0:0:
252,32,92336,2,0,P|300:20|396:108,1,165,2|0,1:2|0:0,0:0:0:0:
388,280,92644,2,0,B|376:240|376:240|392:192,1,82.5,2|0,1:2|0:0,0:0:0:0:
500,236,92850,1,4,0:0:0:0:
264,320,93055,2,0,B|236:240|236:240|272:144,1,165,2|0,0:0|0:0,0:0:0:0:
356,28,93363,1,0,1:2:0:0:
372,56,93466,1,2,1:2:0:0:
356,88,93569,1,0,1:2:0:0:
248,53,93672,6,0,L|84:40,1,165,4|0,1:2|0:0,0:0:0:0:
141,258,93980,2,0,P|149:202|57:150,1,165,2|0,1:2|0:0,0:0:0:0:
0,213,94288,2,0,P|-8:279|27:328,1,82.5,2|0,1:2|0:0,0:0:0:0:
248,292,94493,6,0,P|264:232|228:120,1,148.49999546814,6|0,0:0|0:0,0:0:0:0:
184,360,94904,2,0,L|349:332,1,148.49999546814,4|0,1:0|0:0,0:0:0:0:
448,312,95315,5,4,0:0:0:0:
252,192,95624,1,0,1:0:0:0:
452,80,95932,1,0,1:0:0:0:
80,200,96137,1,4,1:2:0:0:
492,372,96445,1,0,1:0:0:0:
220,148,96754,1,0,1:0:0:0:
312,184,96856,1,0,1:0:0:0:
236,240,96959,5,4,1:2:0:0:
256,192,97062,12,4,100254,0:3:0:0:
380,104,102576,5,4,0:2:0:0:
252,284,102770,1,4,0:3:0:0:
296,48,102963,1,4,0:2:0:0:
368,8,103060,1,4,0:3:0:0:
448,32,103157,1,4,0:2:0:0:
480,108,103254,1,4,0:3:0:0:
444,184,103350,5,2,3:2:0:0:
444,184,103447,1,0,0:2:0:0:
444,184,103544,2,0,L|461:282,1,82.5,4|0,0:2|0:2,0:0:0:0:
356,352,103737,1,2,0:2:0:0:
356,352,103834,1,0,0:2:0:0:
356,352,103931,2,0,L|338:253,1,82.5,4|0,0:2|0:2,0:0:0:0:
324,164,104124,5,2,0:2:0:0:
292,140,104221,1,0,0:2:0:0:
252,132,104318,1,4,0:2:0:0:
212,140,104414,1,0,0:2:0:0:
180,164,104511,1,2,0:2:0:0:
148,192,104608,1,0,0:2:0:0:
108,200,104705,2,0,P|56:188|20:141,1,82.5,4|0,0:2|0:2,0:0:0:0:
104,100,104899,5,2,0:2:0:0:
104,100,104995,1,0,0:2:0:0:
104,100,105092,2,0,P|91:52|110:9,1,82.5,6|0,0:2|0:2,0:0:0:0:
216,192,105286,1,2,0:2:0:0:
216,192,105382,1,0,0:2:0:0:
216,192,105479,2,0,P|227:238|205:287,1,82.5,6|0,0:2|0:2,0:0:0:0:
120,356,105673,5,2,0:2:0:0:
152,328,105770,1,0,0:2:0:0:
192,312,105866,1,4,0:2:0:0:
232,312,105964,1,0,0:2:0:0:
268,328,106060,1,2,0:2:0:0:
300,360,106157,1,0,0:2:0:0:
336,376,106254,1,4,0:2:0:0:
376,376,106350,1,0,0:2:0:0:
412,356,106447,6,0,L|428:248,1,82.5,2|0,0:2|0:2,0:0:0:0:
328,144,106641,2,0,L|312:252,1,82.5,6|0,0:2|0:2,0:0:0:0:
408,76,106834,1,2,0:2:0:0:
376,48,106931,1,0,0:2:0:0:
336,36,107028,1,6,0:2:0:0:
296,44,107124,1,0,0:2:0:0:
264,68,107221,6,0,L|152:44,1,82.5,2|0,0:2|0:2,0:0:0:0:
112,160,107415,2,0,L|224:184,1,82.5,6|0,0:2|0:2,0:0:0:0:
40,88,107608,1,2,0:2:0:0:
12,120,107705,1,0,0:2:0:0:
4,160,107802,1,6,0:2:0:0:
16,200,107899,1,0,0:2:0:0:
40,232,107995,6,0,P|50:279|20:332,1,82.5,2|0,0:2|0:2,0:0:0:0:
168,380,108189,2,0,P|156:340|167:301,1,82.5,6|0,0:2|0:2,0:0:0:0:
288,232,108383,2,0,P|298:271|287:310,1,82.5,2|0,0:2|0:2,0:0:0:0:
428,368,108576,2,0,P|416:328|427:289,1,82.5,6|0,0:2|0:2,0:0:0:0:
488,168,108770,2,0,L|392:188,1,82.5,2|0,0:2|0:2,0:0:0:0:
284,61,108963,2,0,L|380:81,1,82.5,6|0,0:2|0:2,0:0:0:0:
208,208,109157,5,6,0:2:0:0:
152,268,109253,1,0,0:2:0:0:
68,256,109350,1,4,0:2:0:0:
36,180,109447,1,0,0:2:0:0:
72,108,109544,5,6,0:2:0:0:
112,68,109641,1,0,0:2:0:0:
164,48,109737,1,4,0:2:0:0:
220,56,109834,1,0,0:2:0:0:
264,84,109931,1,4,0:2:0:0:
300,128,110028,1,0,0:2:0:0:
356,140,110124,1,4,0:2:0:0:
412,124,110221,1,0,0:2:0:0:
444,76,110318,5,6,0:2:0:0:
388,60,110415,1,0,0:2:0:0:
332,76,110512,1,4,0:2:0:0:
300,128,110608,1,0,0:2:0:0:
300,184,110705,1,6,0:2:0:0:
332,232,110802,1,0,0:2:0:0:
384,256,110899,1,4,0:2:0:0:
440,244,110995,1,0,0:2:0:0:
476,200,111092,5,6,0:2:0:0:
424,176,111189,1,0,0:2:0:0:
368,192,111286,1,4,0:2:0:0:
332,232,111383,1,0,0:2:0:0:
300,280,111479,1,4,0:2:0:0:
252,312,111576,1,0,0:2:0:0:
196,312,111673,1,4,0:2:0:0:
144,284,111770,1,0,0:2:0:0:
112,236,111866,6,0,L|134:109,1,82.5,6|0,0:2|0:2,0:0:0:0:
236,128,112060,2,0,L|213:254,1,82.5,6|0,0:2|0:2,0:0:0:0:
0,268,112253,1,6,0:2:0:0:
9,212,112350,1,0,0:2:0:0:
19,157,112447,1,4,0:2:0:0:
29,102,112544,1,0,0:2:0:0:
38,48,112641,5,6,0:2:0:0:
56,44,112737,1,0,0:2:0:0:
72,40,112834,1,4,0:2:0:0:
88,36,112931,1,0,0:2:0:0:
136,56,113028,1,4,0:2:0:0:
154,52,113124,1,0,0:2:0:0:
170,48,113221,1,4,0:2:0:0:
186,44,113318,1,0,0:2:0:0:
236,64,113415,5,6,0:2:0:0:
265,57,113511,1,0,0:2:0:0:
291,50,113608,1,4,0:2:0:0:
317,44,113705,1,0,0:2:0:0:
396,77,113802,1,4,0:2:0:0:
426,70,113898,1,0,0:2:0:0:
452,64,113995,1,4,0:2:0:0:
478,57,114092,1,0,0:2:0:0:
464,152,114189,5,6,0:2:0:0:
500,196,114286,1,0,0:2:0:0:
492,252,114383,1,6,0:2:0:0:
444,284,114479,1,0,0:2:0:0:
388,272,114576,1,6,0:2:0:0:
352,224,114673,1,0,0:2:0:0:
304,192,114770,1,6,0:2:0:0:
248,192,114866,1,0,0:2:0:0:
204,228,114963,5,6,0:2:0:0:
140,284,115060,1,2,0:2:0:0:
60,272,115157,1,6,0:2:0:0:
20,200,115253,1,2,0:2:0:0:
48,124,115350,6,0,P|59:76|20:20,1,82.5,6|2,0:2|0:2,0:0:0:0:
463,45,115544,2,4,P|452:84|464:124,1,82.5,2|6,0:2|0:2,0:0:0:0:
256,364,115737,1,2,0:2:0:0:
