osu file format v14

[General]
AudioFilename: audio.mp3
AudioLeadIn: 0
PreviewTime: 89372
Countdown: 0
SampleSet: Normal
StackLeniency: 0.3
Mode: 0
LetterboxInBreaks: 0
WidescreenStoryboard: 0

[Editor]
Bookmarks: 22395,44721,67046,78209,89372,111697,122860,145186,167511
DistanceSpacing: 2
BeatDivisor: 4
GridSize: 4
TimelineZoom: 1

[Metadata]
Title:Dreamers Highway
TitleUnicode:Dreamers Highway
Artist:Atman
ArtistUnicode:Atman
Creator:Asonate
Version:Nighttime Walk
Source:
Tags:trap trapwolves edm
BeatmapID:1277136
BeatmapSetID:604403

[Difficulty]
HPDrainRate:4
CircleSize:4
OverallDifficulty:8
ApproachRate:9
SliderMultiplier:1.23
SliderTickRate:1

[Events]
//Background and Video events
0,0,"BG.png",0,0
//Break Periods
2,67246,72028
2,111897,122260
//Storyboard Layer 0 (Background)
//Storyboard Layer 1 (Fail)
//Storyboard Layer 2 (Pass)
//Storyboard Layer 3 (Foreground)
//Storyboard Sound Samples

[TimingPoints]
70,348.837209302326,4,1,0,30,1,0
22395,-133.333333333333,4,1,0,30,0,0
44023,-79.9999999999999,4,1,0,50,0,0
44721,-66.6666666666667,4,1,0,70,0,0
46814,-80,4,1,0,70,0,0
47163,-100,4,1,0,60,0,0
47511,-66.6666666666667,4,1,0,70,0,0
49604,-200,4,1,0,70,0,0
49692,-200,4,1,0,5,0,0
49779,-200,4,1,0,70,0,0
49867,-200,4,1,0,5,0,0
49953,-200,4,1,0,70,0,0
50041,-200,4,1,0,5,0,0
50128,-200,4,1,0,70,0,0
50216,-200,4,1,0,5,0,0
50302,-66.6666666666667,4,1,0,70,0,0
52395,-80,4,1,0,70,0,0
52744,-100,4,1,0,60,0,0
53093,-66.6666666666667,4,1,0,70,0,0
55186,-50,4,1,0,70,0,0
55447,-50,4,1,0,5,0,0
55535,-200,4,1,0,70,0,0
55796,-200,4,1,0,5,0,0
55883,-66.6666666666667,4,1,0,70,0,0
57976,-80,4,1,0,70,0,0
58325,-100,4,1,0,60,0,0
58674,-66.6666666666667,4,1,0,70,0,0
60767,-200,4,1,0,70,0,0
60854,-200,4,1,0,5,0,0
60942,-200,4,1,0,70,0,0
61029,-200,4,1,0,5,0,0
61116,-200,4,1,0,70,0,0
61378,-200,4,1,0,5,0,0
61465,-66.6666666666667,4,1,0,70,0,0
63558,-80,4,1,0,70,0,0
63907,-100,4,1,0,60,0,0
64256,-66.6666666666667,4,1,0,70,0,0
66349,-133.333333333333,4,1,0,70,0,0
67046,-100,4,1,0,50,0,0
78209,-133.333333333333,4,1,0,50,0,0
87976,-200,4,1,0,50,0,0
88500,-200,4,1,0,5,0,0
88674,-200,4,1,0,30,0,0
88761,-200,4,1,0,34,0,0
88849,-200,4,1,0,38,0,0
88936,-200,4,1,0,42,0,0
89023,-200,4,1,0,46,0,0
89110,-200,4,1,0,50,0,0
89197,-200,4,1,0,55,0,0
89285,-200,4,1,0,60,0,0
89372,-100,4,1,0,70,0,1
90418,-50,4,1,0,70,0,1
90506,-50,4,1,0,5,0,1
90593,-133.333333333333,4,1,0,70,0,1
90854,-133.333333333333,4,1,0,5,0,1
90942,-50,4,1,0,70,0,1
91029,-50,4,1,0,5,0,1
91116,-133.333333333333,4,1,0,70,0,1
91378,-133.333333333333,4,1,0,5,0,1
91465,-100,4,1,0,70,0,1
91726,-100,4,1,0,5,0,1
91814,-100,4,1,0,70,0,1
92163,-200,4,1,0,70,0,1
92424,-200,4,1,0,5,0,1
92511,-50,4,1,0,70,0,1
92599,-50,4,1,0,5,0,1
92686,-133.333333333333,4,1,0,70,0,1
92947,-133.333333333333,4,1,0,5,0,1
93035,-50,4,1,0,70,0,1
93122,-50,4,1,0,5,0,1
93209,-133.333333333333,4,1,0,70,0,1
93471,-133.333333333333,4,1,0,5,0,1
93558,-50,4,1,0,70,0,1
93645,-50,4,1,0,5,0,1
93732,-50,4,1,0,70,0,1
93820,-50,4,1,0,5,0,1
93907,-133.333333333333,4,1,0,70,0,1
94168,-133.333333333333,4,1,0,5,0,1
94256,-100,4,1,0,70,0,1
94517,-100,4,1,0,5,0,1
94604,-50,4,1,0,70,0,1
94692,-50,4,1,0,5,0,1
94779,-50,4,1,0,70,0,1
94866,-50,4,1,0,5,0,1
94953,-200,4,1,0,70,0,1
95040,-200,4,1,0,40,0,1
95651,-100,4,1,0,70,0,1
96349,-50,4,1,0,70,0,1
96436,-50,4,1,0,5,0,1
96523,-50,4,1,0,70,0,1
96610,-50,4,1,0,5,0,1
96697,-133.333333333333,4,1,0,70,0,1
96959,-133.333333333333,4,1,0,5,0,1
97046,-100,4,1,0,70,0,1
97308,-100,4,1,0,5,0,1
97395,-50,4,1,0,70,0,1
97482,-50,4,1,0,5,0,1
97570,-50,4,1,0,70,0,1
97657,-50,4,1,0,5,0,1
97744,-133.333333333333,4,1,0,70,0,1
98006,-133.333333333333,4,1,0,5,0,1
98093,-50,4,1,0,70,0,1
98180,-50,4,1,0,5,0,1
98267,-133.333333333333,4,1,0,70,0,1
98529,-133.333333333333,4,1,0,5,0,1
98616,-50,4,1,0,70,0,1
98703,-50,4,1,0,5,0,1
98790,-133.333333333333,4,1,0,70,0,1
99052,-133.333333333333,4,1,0,5,0,1
99139,-50,4,1,0,70,0,1
99226,-50,4,1,0,5,0,1
99314,-50,4,1,0,70,0,1
99401,-50,4,1,0,5,0,1
99488,-133.333333333333,4,1,0,70,0,1
99750,-133.333333333333,4,1,0,5,0,1
99837,-100,4,1,0,70,0,1
100099,-100,4,1,0,5,0,1
100186,-50,4,1,0,70,0,1
100273,-50,4,1,0,5,0,1
100360,-50,4,1,0,70,0,1
100447,-50,4,1,0,5,0,1
100535,-100,4,1,0,70,0,1
101581,-50,4,1,0,70,0,1
101756,-133.333333333333,4,1,0,70,0,1
102104,-50,4,1,0,70,0,1
102279,-133.333333333333,4,1,0,70,0,1
102628,-100,4,1,0,70,0,1
103325,-200,4,1,0,70,0,1
103587,-200,4,1,0,5,0,1
103674,-50,4,1,0,70,0,1
103761,-50,4,1,0,5,0,1
103849,-133.333333333333,4,1,0,70,0,1
104110,-133.333333333333,4,1,0,5,0,1
104197,-50,4,1,0,70,0,1
104285,-50,4,1,0,5,0,1
104372,-133.333333333333,4,1,0,70,0,1
104721,-50,4,1,0,70,0,1
105070,-133.333333333333,4,1,0,70,0,1
105418,-100,4,1,0,70,0,1
105767,-50,4,1,0,70,0,1
106116,-200,4,1,0,70,0,1
107511,-50,4,1,0,70,0,1
107599,-50,4,1,0,5,0,1
107686,-50,4,1,0,70,0,1
107773,-50,4,1,0,5,0,1
107860,-133.333333333333,4,1,0,70,0,1
108209,-100,4,1,0,70,0,1
108558,-50,4,1,0,70,0,1
108645,-50,4,1,0,5,0,1
108732,-50,4,1,0,70,0,1
108820,-50,4,1,0,5,0,1
108907,-133.333333333333,4,1,0,70,0,1
109168,-133.333333333333,4,1,0,5,0,1
109256,-50,4,1,0,70,0,1
109343,-50,4,1,0,5,0,1
109430,-133.333333333333,4,1,0,70,0,1
109692,-133.333333333333,4,1,0,5,0,1
109779,-50,4,1,0,70,0,1
109866,-50,4,1,0,5,0,1
109953,-133.333333333333,4,1,0,70,0,1
110302,-52.6315789473684,4,1,0,70,0,1
110389,-52.6315789473684,4,1,0,5,0,1
110476,-52.6315789473684,4,1,0,70,0,1
110564,-52.6315789473684,4,1,0,5,0,1
110651,-117.647058823529,4,1,0,70,0,1
110913,-117.647058823529,4,1,0,5,0,1
111000,-133.333333333333,4,1,0,70,0,1
111261,-133.333333333333,4,1,0,5,0,1
111349,-100,4,1,0,70,0,1
111436,-100,4,1,0,5,0,1
111523,-100,4,1,0,70,0,1
111610,-100,4,1,0,5,0,1
111697,-100,4,1,0,70,0,0
122860,-133.333333333333,4,1,0,70,0,0
144488,-79.9999999999999,4,1,0,70,0,0
145186,-66.6666666666667,4,1,0,70,0,0
145622,-66.6666666666667,4,1,0,5,0,0
145709,-66.6666666666667,4,1,0,70,0,0
146145,-66.6666666666667,4,1,0,5,0,0
146232,-80,4,1,0,70,0,0
147192,-80,4,1,0,5,0,0
147279,-80,4,1,0,70,0,0
147976,-66.6666666666667,4,1,0,70,0,0
148413,-66.6666666666667,4,1,0,5,0,0
148500,-66.6666666666667,4,1,0,70,0,0
148936,-66.6666666666667,4,1,0,5,0,0
149023,-66.6666666666667,4,1,0,70,0,0
149633,-66.6666666666667,4,1,0,5,0,0
149721,-100,4,1,0,70,0,0
149982,-100,4,1,0,5,0,0
150070,-200,4,1,0,70,0,0
150157,-200,4,1,0,5,0,0
150244,-200,4,1,0,70,0,0
150331,-200,4,1,0,5,0,0
150418,-200,4,1,0,70,0,0
150506,-200,4,1,0,5,0,0
150593,-200,4,1,0,70,0,0
150680,-200,4,1,0,5,0,0
150767,-66.6666666666667,4,1,0,70,0,0
151203,-66.6666666666667,4,1,0,5,0,0
151290,-66.6666666666667,4,1,0,70,0,0
151726,-66.6666666666667,4,1,0,5,0,0
151814,-66.6666666666667,4,1,0,70,0,0
155302,-200,4,1,0,70,0,0
155651,-66.6666666666667,4,1,0,70,0,0
157918,-200,4,1,0,70,0,0
158354,-200,4,1,0,5,0,0
158442,-200,4,1,0,70,0,0
159139,-66.6666666666667,4,1,0,70,0,0
159575,-66.6666666666667,4,1,0,5,0,0
159663,-66.6666666666667,4,1,0,70,0,0
160099,-66.6666666666667,4,1,0,5,0,0
160186,-66.6666666666667,4,1,0,70,0,0
160796,-66.6666666666667,4,1,0,5,0,0
160883,-100,4,1,0,70,0,0
161145,-100,4,1,0,5,0,0
161232,-200,4,1,0,70,0,0
161320,-200,4,1,0,5,0,0
161407,-200,4,1,0,70,0,0
161494,-200,4,1,0,5,0,0
161581,-200,4,1,0,70,0,0
161843,-200,4,1,0,5,0,0
161930,-66.6666666666667,4,1,0,70,0,0
162366,-66.6666666666667,4,1,0,5,0,0
162453,-66.6666666666667,4,1,0,70,0,0
162889,-66.6666666666667,4,1,0,5,0,0
162976,-66.6666666666667,4,1,0,70,0,0
166814,-200,4,1,0,70,0,0
167424,-200,4,1,0,5,0,0
167511,-66.6666666666667,4,1,0,70,0,0

[HitObjects]
92,92,70,5,2,0:0:0:0:
272,136,244,1,0,0:0:0:0:
92,92,418,1,0,0:0:0:0:
272,136,593,1,0,0:0:0:0:
92,92,767,2,0,P|108:144|104:176,1,61.5
76,272,1116,5,2,0:0:0:0:
96,268,1290,1,0,0:0:0:0:
164,312,1465,1,0,0:0:0:0:
184,316,1639,1,0,0:0:0:0:
252,272,1814,1,0,0:0:0:0:
272,268,1988,1,0,0:0:0:0:
340,312,2163,1,0,0:0:0:0:
360,316,2337,1,0,0:0:0:0:
428,272,2511,1,0,0:0:0:0:
448,268,2686,1,0,0:0:0:0:
284,176,2860,5,2,0:0:0:0:
272,268,3035,1,0,0:0:0:0:
186,119,3209,6,0,L|120:112,1,61.5,2|0,0:0|0:0,0:0:0:0:
198,211,3558,2,0,L|132:204,1,61.5
296,84,3907,5,2,0:0:0:0:
312,80,4081,1,0,0:0:0:0:
400,140,4256,1,0,0:0:0:0:
384,136,4430,1,0,0:0:0:0:
296,196,4604,1,0,0:0:0:0:
312,192,4779,1,0,0:0:0:0:
400,252,4953,1,0,0:0:0:0:
384,248,5128,1,0,0:0:0:0:
296,308,5302,1,0,0:0:0:0:
312,304,5476,1,0,0:0:0:0:
400,364,5651,5,2,0:0:0:0:
296,212,5825,1,0,0:0:0:0:
400,364,6000,1,0,0:0:0:0:
296,212,6174,1,0,0:0:0:0:
400,364,6349,2,0,P|396:312|400:288,1,61.5
444,216,6697,5,2,0:0:0:0:
440,196,6872,1,0,0:0:0:0:
360,168,7046,1,0,0:0:0:0:
350,149,7221,1,0,0:0:0:0:
266,143,7395,1,0,0:0:0:0:
251,127,7570,1,0,0:0:0:0:
169,143,7744,1,0,0:0:0:0:
151,131,7918,1,0,0:0:0:0:
75,168,8093,1,0,0:0:0:0:
54,162,8267,1,0,0:0:0:0:
188,288,8442,6,0,L|180:352,1,61.5,2|0,0:0|0:0,0:0:0:0:
164,248,8790,2,0,L|172:312,1,61.5
204,208,9139,2,0,L|196:272,1,61.5
169,143,9488,5,2,0:0:0:0:
151,131,9663,1,0,0:0:0:0:
175,142,9837,1,0,0:0:0:0:
144,131,10011,1,0,0:0:0:0:
184,138,10186,1,0,0:0:0:0:
135,135,10360,1,0,0:0:0:0:
195,129,10535,1,0,0:0:0:0:
124,144,10709,1,0,0:0:0:0:
209,112,10883,1,0,0:0:0:0:
110,161,11058,1,0,0:0:0:0:
221,82,11232,5,2,0:0:0:0:
172,264,11407,1,0,0:0:0:0:
221,82,11581,1,0,0:0:0:0:
172,264,11756,1,0,0:0:0:0:
221,82,11930,2,0,P|256:124|276:132,1,61.5
361,134,12279,5,2,0:0:0:0:
385,130,12453,1,0,0:0:0:0:
409,226,12628,1,0,0:0:0:0:
420,247,12802,1,0,0:0:0:0:
336,300,12976,1,0,0:0:0:0:
319,317,13151,1,0,0:0:0:0:
243,253,13325,1,0,0:0:0:0:
221,243,13500,1,0,0:0:0:0:
258,151,13674,1,0,0:0:0:0:
262,127,13849,1,0,0:0:0:0:
409,226,14023,5,2,0:0:0:0:
336,300,14197,1,0,0:0:0:0:
361,134,14372,6,0,L|353:66,1,61.5,2|0,0:0|0:0,0:0:0:0:
265,212,14721,2,0,L|257:144,1,61.5
336,300,15070,5,2,0:0:0:0:
319,317,15244,1,0,0:0:0:0:
265,212,15418,1,0,0:0:0:0:
252,232,15593,1,0,0:0:0:0:
388,256,15767,1,0,0:0:0:0:
375,276,15942,1,0,0:0:0:0:
296,189,16116,1,0,0:0:0:0:
289,212,16290,1,0,0:0:0:0:
426,199,16465,1,0,0:0:0:0:
419,222,16639,1,0,0:0:0:0:
320,159,16814,5,2,0:0:0:0:
384,332,16988,1,0,0:0:0:0:
320,159,17163,1,0,0:0:0:0:
384,332,17337,1,0,0:0:0:0:
320,159,17511,2,0,P|296:192|268:208,1,61.5
224,284,17860,5,2,0:0:0:0:
208,288,18035,1,0,0:0:0:0:
104,236,18209,1,0,0:0:0:0:
120,240,18383,1,0,0:0:0:0:
224,188,18558,1,0,0:0:0:0:
208,192,18732,1,0,0:0:0:0:
104,140,18907,1,0,0:0:0:0:
120,144,19081,1,0,0:0:0:0:
224,92,19256,1,0,0:0:0:0:
208,96,19430,1,0,0:0:0:0:
120,240,19604,6,0,L|128:320,1,61.5,2|0,0:0|0:0,0:0:0:0:
100,200,19953,2,0,L|108:280,1,61.5
80,160,20302,2,0,L|88:240,1,61.5
224,188,20651,5,2,0:0:0:0:
208,192,20825,1,0,0:0:0:0:
240,200,21000,1,0,0:0:0:0:
216,206,21174,1,0,0:0:0:0:
264,218,21349,1,0,0:0:0:0:
228,227,21523,1,0,0:0:0:0:
300,245,21697,1,0,0:0:0:0:
246,258,21872,1,0,0:0:0:0:
354,285,22046,1,0,0:0:0:0:
273,305,22221,1,0,0:0:0:0:
400,144,22395,6,0,P|408:96|336:28,1,138.375005278588,8|0,0:0|0:0,0:0:0:0:
283,118,23093,2,0,L|328:108,1,46.1250017595292,4|0,0:0|0:0,0:0:0:0:
159,31,23442,1,8,0:0:0:0:
152,24,23965,1,8,0:0:0:0:
208,208,24139,2,0,L|252:197,1,46.1250017595292,8|0,0:0|0:0,0:0:0:0:
384,248,24488,1,4,0:0:0:0:
388,236,24663,1,0,0:0:0:0:
388,223,24837,1,0,0:0:0:0:
384,210,25011,1,0,0:0:0:0:
340,136,25186,6,0,L|348:72,1,46.1250017595292,8|0,0:0|0:0,0:0:0:0:
166,90,25535,2,0,L|172:136,1,46.1250017595292,8|0,0:0|0:0,0:0:0:0:
275,36,25883,2,0,L|207:36,1,46.1250017595292,4|0,0:0|0:0,0:0:0:0:
256,212,26232,2,0,L|256:116,1,92.2500035190584,8|0,0:0|0:0,0:0:0:0:
212,292,26756,1,8,0:0:0:0:
333,236,26930,2,0,P|337:208|329:183,1,46.1250017595292,8|0,0:0|0:0,0:0:0:0:
256,119,27279,1,4,0:0:0:0:
249,109,27453,1,0,0:0:0:0:
249,96,27628,1,0,0:0:0:0:
243,86,27802,1,0,0:0:0:0:
206,210,27976,6,0,P|273:222|332:190,1,138.375005278588,8|0,0:0|0:0,0:0:0:0:
266,74,28674,2,0,P|258:96|256:119,1,46.1250017595292,4|0,0:0|0:0,0:0:0:0:
400,76,29023,1,8,0:0:0:0:
412,68,29546,1,8,0:0:0:0:
352,248,29721,2,0,L|364:308,1,46.1250017595292,8|0,0:0|0:0,0:0:0:0:
268,348,30070,1,4,0:0:0:0:
256,344,30244,1,0,0:0:0:0:
244,340,30418,1,0,0:0:0:0:
232,336,30593,1,0,0:0:0:0:
140,256,30767,6,0,L|148:320,1,46.1250017595292,8|0,0:0|0:0,0:0:0:0:
132,248,31116,2,0,L|140:312,1,46.1250017595292,8|0,0:0|0:0,0:0:0:0:
256,176,31465,2,0,L|248:240,1,46.1250017595292,4|0,0:0|0:0,0:0:0:0:
124,240,31814,2,0,L|135:334,1,92.2500035190584,8|0,0:0|0:0,0:0:0:0:
116,156,32337,1,8,0:0:0:0:
220,108,32511,2,0,L|212:172,1,46.1250017595292,8|0,0:0|0:0,0:0:0:0:
324,156,32860,1,4,0:0:0:0:
428,108,33035,1,0,0:0:0:0:
324,156,33209,1,0,0:0:0:0:
428,108,33383,1,0,0:0:0:0:
417,222,33558,5,8,0:0:0:0:
428,228,33907,1,8,0:0:0:0:
312,220,34081,1,12,0:0:0:0:
196,212,34256,1,4,0:0:0:0:
185,206,34604,1,8,0:0:0:0:
174,200,34953,1,12,0:0:0:0:
276,144,35128,1,8,0:0:0:0:
177,84,35302,1,8,0:0:0:0:
273,260,35651,1,4,0:0:0:0:
284,266,36000,1,12,0:0:0:0:
112,336,36349,5,8,0:0:0:0:
101,330,36697,1,8,0:0:0:0:
200,268,36872,1,12,0:0:0:0:
254,164,37046,1,4,0:0:0:0:
265,170,37395,1,8,0:0:0:0:
276,176,37744,1,12,0:0:0:0:
160,156,37918,1,8,0:0:0:0:
44,136,38093,1,8,0:0:0:0:
33,130,38442,1,4,0:0:0:0:
22,124,38790,1,12,0:0:0:0:
197,303,39139,5,10,0:0:0:0:
286,325,39314,1,0,0:0:0:0:
335,247,39488,1,8,0:0:0:0:
276,176,39663,1,0,0:0:0:0:
190,210,39837,5,12,0:0:0:0:
203,118,40011,1,0,0:0:0:0:
117,152,40186,1,8,0:0:0:0:
130,60,40360,1,0,0:0:0:0:
44,94,40535,5,10,0:0:0:0:
117,152,40709,1,0,0:0:0:0:
203,118,40883,1,8,0:0:0:0:
276,176,41058,1,0,0:0:0:0:
362,142,41232,5,14,0:0:0:0:
349,234,41407,1,0,0:0:0:0:
448,108,41581,1,8,0:0:0:0:
435,200,41756,1,0,0:0:0:0:
289,84,41930,5,10,0:0:0:0:
143,200,42104,1,4,0:0:0:0:
294,81,42279,5,10,0:0:0:0:
130,236,42453,1,4,0:0:0:0:
299,77,42628,5,10,0:0:0:0:
119,280,42802,1,4,0:0:0:0:
305,72,42976,5,10,0:0:0:0:
111,333,43151,1,4,0:0:0:0:
311,65,43325,5,10,0:0:0:0:
312,108,43413,1,8,0:0:0:0:
351,129,43500,1,8,0:0:0:0:
388,105,43587,1,8,0:0:0:0:
386,61,43674,1,8,0:0:0:0:
375,94,43761,1,8,0:0:0:0:
374,128,43849,1,8,0:0:0:0:
382,162,43936,1,8,0:0:0:0:
400,191,44023,6,0,P|392:232|348:272,1,76.875,14|0,0:0|0:0,0:0:0:0:
251,106,44372,2,0,B|260:85|260:85|310:64,1,76.875,14|0,0:0|0:0,0:0:0:0:
272,280,44721,5,8,0:0:0:0:
56,132,44895,1,0,0:0:0:0:
272,280,45070,1,8,0:0:0:0:
76,220,45244,1,0,0:0:0:0:
382,162,45418,5,4,0:0:0:0:
392,156,45767,5,8,0:0:0:0:
272,280,45942,1,0,0:0:0:0:
376,68,46116,1,0,0:0:0:0:
256,192,46290,1,8,0:0:0:0:
408,244,46465,5,12,0:0:0:0:
416,252,46814,6,0,L|324:244,1,76.875,4|0,0:0|0:0,0:0:0:0:
453,161,47163,2,0,L|375:154,1,61.5,4|0,0:0|0:0,0:0:0:0:
504,235,47511,5,8,0:0:0:0:
272,272,47686,1,0,0:0:0:0:
391,155,47860,1,8,0:0:0:0:
158,118,48035,1,0,0:0:0:0:
388,254,48209,5,4,0:0:0:0:
400,261,48558,5,8,0:0:0:0:
328,87,48732,1,0,0:0:0:0:
328,87,48820,1,0,0:0:0:0:
328,87,48907,1,0,0:0:0:0:
312,195,49081,5,8,0:0:0:0:
431,45,49256,1,12,0:0:0:0:
431,45,49430,1,0,0:0:0:0:
226,128,49604,6,0,L|200:123,1,15.375,6|0,0:0|0:0,0:0:0:0:
162,354,49779,2,0,L|178:352,1,15.375,2|0,0:0|0:0,0:0:0:0:
176,207,49953,2,0,L|161:210,1,15.375,2|0,0:0|0:0,0:0:0:0:
206,279,50128,2,0,L|222:282,1,15.375,2|0,0:0|0:0,0:0:0:0:
226,128,50302,5,8,0:0:0:0:
131,281,50476,1,0,0:0:0:0:
226,128,50651,1,8,0:0:0:0:
162,354,50825,1,0,0:0:0:0:
195,55,51000,5,4,0:0:0:0:
201,42,51349,5,8,0:0:0:0:
81,131,51523,1,0,0:0:0:0:
303,121,51697,1,0,0:0:0:0:
164,175,51872,1,8,0:0:0:0:
201,42,52046,5,12,0:0:0:0:
217,49,52395,2,0,L|109:71,1,76.875,4|0,0:0|0:0,0:0:0:0:
303,121,52744,2,0,L|216:138,1,61.5,4|0,0:0|0:0,0:0:0:0:
389,193,53093,5,8,0:0:0:0:
298,211,53267,2,0,L|389:193,1,92.2500035190584
475,265,53616,1,8,0:0:0:0:
303,121,53790,5,4,0:0:0:0:
317,110,54139,5,8,0:0:0:0:
286,292,54314,1,0,0:0:0:0:
331,99,54488,2,0,L|314:195,1,92.2500035190584
272,303,54837,1,12,0:0:0:0:
272,303,55011,1,0,0:0:0:0:
181,99,55186,6,0,P|116:157|141:241,1,184.5,4|0,0:0|0:0,0:0:0:0:
220,217,55535,6,0,P|211:195|195:178,1,46.125,2|0,0:0|0:0,0:0:0:0:
201,297,55883,5,8,0:0:0:0:
397,271,56058,1,0,0:0:0:0:
201,297,56232,1,8,0:0:0:0:
467,335,56407,1,0,0:0:0:0:
131,233,56581,5,4,0:0:0:0:
118,240,56930,5,8,0:0:0:0:
329,267,57104,1,0,0:0:0:0:
58,122,57279,1,0,0:0:0:0:
269,149,57453,1,8,0:0:0:0:
118,240,57628,5,12,0:0:0:0:
131,233,57976,6,0,L|144:142,1,76.875,4|0,0:0|0:0,0:0:0:0:
49,61,58325,2,0,L|57:121,1,61.5,4|0,0:0|0:0,0:0:0:0:
158,47,58674,5,8,0:0:0:0:
221,235,58849,1,0,0:0:0:0:
158,47,59023,1,8,0:0:0:0:
120,309,59197,1,0,0:0:0:0:
57,121,59372,5,4,0:0:0:0:
52,110,59721,5,8,0:0:0:0:
221,235,59895,1,0,0:0:0:0:
221,235,59982,1,0,0:0:0:0:
221,235,60070,1,0,0:0:0:0:
158,47,60244,1,8,0:0:0:0:
120,309,60418,1,12,0:0:0:0:
120,309,60593,1,0,0:0:0:0:
309,151,60767,6,0,L|314:136,1,15.375,6|0,0:0|0:0,0:0:0:0:
197,136,60942,2,0,L|203:151,1,15.375,2|0,0:0|0:0,0:0:0:0:
256,295,61116,2,0,L|256:249,1,46.125,2|0,0:0|0:0,0:0:0:0:
314,136,61465,5,8,0:0:0:0:
150,207,61639,1,0,0:0:0:0:
314,136,61814,1,8,0:0:0:0:
66,144,61988,1,0,0:0:0:0:
398,199,62163,5,4,0:0:0:0:
410,195,62511,5,8,0:0:0:0:
244,160,62686,1,0,0:0:0:0:
337,68,62860,1,0,0:0:0:0:
171,103,63035,1,8,0:0:0:0:
410,195,63209,5,12,0:0:0:0:
420,189,63558,2,0,L|332:178,1,76.875,4|0,0:0|0:0,0:0:0:0:
327,261,63907,2,0,L|239:250,1,61.5,4|0,0:0|0:0,0:0:0:0:
234,333,64256,5,8,0:0:0:0:
142,321,64430,2,0,L|234:333,1,92.2500035190584
327,261,64779,1,8,0:0:0:0:
52,295,64953,5,4,0:0:0:0:
41,301,65302,5,8,0:0:0:0:
67,118,65476,1,0,0:0:0:0:
52,295,65651,2,0,L|71:160,1,92.2500035190584
78,112,66000,1,12,0:0:0:0:
78,112,66174,1,0,0:0:0:0:
63,289,66349,6,0,L|90:99,1,184.500007038117,6|8,0:0|0:0,0:0:0:0:
256,192,72628,12,12,77511,0:0:0:0:
452,172,78209,6,0,L|401:259,1,92.2500035190584,8|4,0:0|0:0,0:0:0:0:
334,121,78732,2,0,L|305:217,1,92.2500035190584,8|4,0:0|0:0,0:0:0:0:
422,77,79256,1,8,0:0:0:0:
422,77,79430,1,4,0:0:0:0:
452,172,79604,6,0,L|401:259,1,92.2500035190584,8|4,0:0|0:0,0:0:0:0:
308,209,80128,2,0,L|236:280,1,92.2500035190584,8|4,0:0|0:0,0:0:0:0:
159,207,80651,1,8,0:0:0:0:
159,207,80825,1,4,0:0:0:0:
251,69,81000,6,0,L|341:85,1,92.2500035190584,8|4,0:0|0:0,0:0:0:0:
165,112,81523,2,0,L|74:128,1,92.2500035190584,8|4,0:0|0:0,0:0:0:0:
245,164,82046,1,8,0:0:0:0:
245,164,82221,1,4,0:0:0:0:
341,85,82395,6,0,L|431:101,1,92.2500035190584,8|4,0:0|0:0,0:0:0:0:
245,164,82918,1,8,0:0:0:0:
376,240,83093,2,0,L|364:303,1,46.1250017595292,8|4,0:0|0:0,0:0:0:0:
431,101,83442,2,0,L|442:164,1,46.1250017595292,8|4,0:0|0:0,0:0:0:0:
251,69,83790,5,8,0:0:0:0:
245,164,83965,1,4,0:0:0:0:
331,122,84139,1,4,0:0:0:0:
219,74,84314,5,8,0:0:0:0:
238,167,84489,1,4,0:0:0:0:
310,104,84663,1,4,0:0:0:0:
190,87,84837,5,8,0:0:0:0:
232,173,85012,1,4,0:0:0:0:
100,57,85186,5,8,0:0:0:0:
119,151,85360,1,4,0:0:0:0:
113,246,85535,1,4,0:0:0:0:
70,101,85709,5,8,0:0:0:0:
113,187,85883,1,4,0:0:0:0:
131,281,86058,1,4,0:0:0:0:
53,153,86232,5,8,0:0:0:0:
116,224,86406,1,4,0:0:0:0:
190,87,86581,5,8,0:0:0:0:
232,173,86756,1,4,0:0:0:0:
306,36,86930,1,4,0:0:0:0:
116,224,87104,5,8,0:0:0:0:
232,173,87279,1,4,0:0:0:0:
246,216,87366,1,4,0:0:0:0:
281,245,87453,1,4,0:0:0:0:
326,251,87540,1,4,0:0:0:0:
367,232,87627,1,12,0:0:0:0:
366,255,87715,1,4,0:0:0:0:
364,278,87802,1,4,0:0:0:0:
362,301,87889,1,4,0:0:0:0:
319,343,87976,2,0,L|326:251,1,92.2500035190584,14|0,0:0|0:0,0:0:0:0:
362,170,88674,5,4,0:0:0:0:
363,178,88761,1,4,0:0:0:0:
363,185,88848,1,4,0:0:0:0:
364,193,88935,1,4,0:0:0:0:
364,201,89023,1,4,0:0:0:0:
365,208,89110,1,4,0:0:0:0:
366,216,89197,1,4,0:0:0:0:
366,224,89284,1,4,0:0:0:0:
367,231,89372,6,0,B|387:243|411:215|411:215|391:171|343:191|343:191|307:183|307:183|275:195|275:195|252:180|216:184,1,246,14|0,0:0|0:0,0:0:0:0:
244,172,90418,6,0,L|236:248,1,61.5,8|0,0:0|0:0,0:0:0:0:
436,124,90593,2,0,L|428:48,1,69.1875026392938,4|0,0:0|0:0,0:0:0:0:
373,195,90942,2,0,P|437:219|453:215,1,61.5,8|0,0:0|0:0,0:0:0:0:
244,77,91116,2,0,P|210:81|181:101,1,69.1875026392938,4|0,0:0|0:0,0:0:0:0:
321,30,91465,6,0,P|334:74|323:119,1,92.25
79,89,91814,1,4,0:0:0:0:
71,79,92163,6,0,L|73:126,1,46.125,14|0,0:0|0:0,0:0:0:0:
155,91,92511,2,0,P|185:79|227:87,1,61.5,8|0,0:0|0:0,0:0:0:0:
243,226,92686,2,0,B|209:195|209:195|199:175,1,69.1875026392938,4|0,0:0|0:0,0:0:0:0:
331,223,93035,2,0,L|397:281,1,61.5,8|0,0:0|0:0,0:0:0:0:
277,153,93209,2,0,P|301:121|306:73,1,69.1875026392938,4|0,0:0|0:0,0:0:0:0:
199,175,93558,6,0,P|204:217|232:261,1,61.5,8|0,0:0|0:0,0:0:0:0:
125,73,93732,2,0,P|120:115|92:159,1,61.5,8|0,0:0|0:0,0:0:0:0:
160,299,93907,2,0,P|191:316|237:313,1,69.1875026392938,4|0,0:0|0:0,0:0:0:0:
326,210,94256,2,0,P|322:265|353:310,1,92.25,4|0,0:0|0:0,0:0:0:0:
472,287,94604,2,0,L|481:366,1,61.5,8|0,0:0|0:0,0:0:0:0:
400,243,94779,2,0,L|409:164,1,61.5,8|0,0:0|0:0,0:0:0:0:
338,296,94953,6,0,L|309:292,7,15.375,12|0|0|0|0|0|0|0,0:0|0:0|0:0|0:0|0:0|0:0|0:0|0:0,0:0:0:0:
224,316,95651,1,4,0:0:0:0:
230,328,96174,5,10,0:0:0:0:
241,252,96261,1,2,0:0:0:0:
252,176,96349,2,0,P|286:192|331:189,1,61.5,4|0,0:0|0:0,0:0:0:0:
416,53,96523,2,0,P|385:56|358:70,1,61.5,8|0,0:0|0:0,0:0:0:0:
452,240,96697,2,0,L|462:151,1,69.1875026392938,4|0,0:0|0:0,0:0:0:0:
379,340,97046,2,0,L|368:242,1,92.25,8|0,0:0|0:0,0:0:0:0:
289,341,97395,2,0,P|242:331|193:347,1,61.5,8|0,0:0|0:0,0:0:0:0:
155,203,97570,2,0,P|124:202|95:211,1,61.5,8|0,0:0|0:0,0:0:0:0:
108,356,97744,6,0,P|130:330|139:297,1,69.1875026392938,12|0,0:0|0:0,0:0:0:0:
89,150,98093,2,0,L|97:231,1,61.5,8|0,0:0|0:0,0:0:0:0:
216,150,98267,2,0,P|286:141|297:147,1,69.1875026392938,4|0,0:0|0:0,0:0:0:0:
368,248,98616,2,0,L|376:187,1,61.5,8|0,0:0|0:0,0:0:0:0:
200,75,98790,2,0,L|209:143,1,69.1875026392938,4|0,0:0|0:0,0:0:0:0:
263,40,99139,6,0,P|224:61|194:62,1,61.5,8|0,0:0|0:0,0:0:0:0:
121,186,99314,2,0,P|91:179|65:163,1,61.5,8|0,0:0|0:0,0:0:0:0:
224,156,99488,2,0,L|233:224,1,69.1875026392938,4|0,0:0|0:0,0:0:0:0:
288,343,99837,2,0,P|247:318|191:327,1,92.25,8|0,0:0|0:0,0:0:0:0:
114,250,100186,2,0,L|124:336,1,61.5,8|0,0:0|0:0,0:0:0:0:
241,163,100360,2,0,L|231:249,1,61.5,8|0,0:0|0:0,0:0:0:0:
134,69,100535,5,12,0:0:0:0:
433,137,100709,1,12,0:0:0:0:
65,163,100883,1,12,0:0:0:0:
364,231,101057,1,12,0:0:0:0:
122,61,101232,5,6,0:0:0:0:
110,53,101581,6,0,L|188:44,1,61.5,8|0,0:0|0:0,0:0:0:0:
269,166,101756,1,4,0:0:0:0:
288,153,101843,1,0,0:0:0:0:
309,145,101930,1,0,0:0:0:0:
332,142,102017,1,0,0:0:0:0:
408,195,102104,2,0,P|425:159|420:116,1,61.5,8|0,0:0|0:0,0:0:0:0:
328,222,102279,1,4,0:0:0:0:
310,236,102366,1,0,0:0:0:0:
289,245,102453,1,0,0:0:0:0:
266,247,102540,1,0,0:0:0:0:
183,205,102628,5,8,0:0:0:0:
184,220,102715,1,0,0:0:0:0:
185,235,102802,1,0,0:0:0:0:
187,250,102889,1,0,0:0:0:0:
120,293,102977,1,8,0:0:0:0:
119,309,103064,1,0,0:0:0:0:
117,324,103151,1,0,0:0:0:0:
116,339,103238,1,0,0:0:0:0:
68,356,103325,6,0,L|114:353,1,46.125,12|0,0:0|0:0,0:0:0:0:
187,250,103674,6,0,L|182:314,1,61.5,8|0,0:0|0:0,0:0:0:0:
267,217,103849,2,0,P|240:180|209:165,1,69.1875026392938,4|0,0:0|0:0,0:0:0:0:
250,361,104197,6,0,L|254:299,1,61.5,8|0,0:0|0:0,0:0:0:0:
347,249,104372,1,4,0:0:0:0:
345,225,104459,1,0,0:0:0:0:
343,202,104546,1,0,0:0:0:0:
341,179,104633,1,0,0:0:0:0:
382,96,104721,2,0,P|422:132|431:177,1,61.5,8|0,0:0|0:0,0:0:0:0:
339,325,104895,2,0,L|334:263,1,61.5,8|0,0:0|0:0,0:0:0:0:
248,328,105070,5,8,0:0:0:0:
225,332,105157,1,0,0:0:0:0:
202,330,105244,1,0,0:0:0:0:
181,321,105331,1,0,0:0:0:0:
139,240,105419,1,8,0:0:0:0:
121,254,105506,1,0,0:0:0:0:
99,262,105593,1,0,0:0:0:0:
75,263,105680,1,0,0:0:0:0:
61,315,105767,2,0,L|54:235,1,61.5,8|0,0:0|0:0,0:0:0:0:
145,119,105942,2,0,L|152:39,1,61.5,8|0,0:0|0:0,0:0:0:0:
232,208,106116,5,12,0:0:0:0:
247,213,106203,1,8,0:0:0:0:
263,213,106290,1,8,0:0:0:0:
279,207,106378,1,8,0:0:0:0:
293,196,106465,1,8,0:0:0:0:
304,179,106552,1,8,0:0:0:0:
310,157,106639,1,10,0:0:0:0:
310,131,106726,1,10,0:0:0:0:
302,102,106814,1,14,0:0:0:0:
293,92,107337,5,10,0:0:0:0:
370,83,107424,1,2,0:0:0:0:
447,74,107511,2,0,P|429:153|432:192,1,61.5,4|0,0:0|0:0,0:0:0:0:
292,191,107686,2,0,P|315:268|338:300,1,61.5,8|0,0:0|0:0,0:0:0:0:
428,311,107860,1,4,0:0:0:0:
284,368,108035,1,0,0:0:0:0:
282,355,108122,1,0,0:0:0:0:
280,342,108209,1,8,0:0:0:0:
252,328,108296,1,0,0:0:0:0:
222,322,108383,1,0,0:0:0:0:
191,322,108470,1,0,0:0:0:0:
105,363,108558,2,0,P|96:321|109:274,1,61.5,8|0,0:0|0:0,0:0:0:0:
36,172,108732,2,0,P|49:131|83:96,1,61.5,8|0,0:0|0:0,0:0:0:0:
183,240,108907,6,0,L|265:229,1,69.1875026392938,12|0,0:0|0:0,0:0:0:0:
358,347,109256,2,0,P|370:306|368:270,1,61.5,8|0,0:0|0:0,0:0:0:0:
244,162,109430,2,0,L|252:236,1,69.1875026392938,4|0,0:0|0:0,0:0:0:0:
346,144,109779,2,0,P|389:136|432:153,1,61.5,8|0,0:0|0:0,0:0:0:0:
276,303,109953,2,0,L|192:295,1,69.1875026392938,4|0,0:0|0:0,0:0:0:0:
104,182,110302,6,0,P|111:230|108:258,1,58.4249984398842,8|0,0:0|0:0,0:0:0:0:
228,81,110476,2,0,P|221:129|224:157,1,58.4249984398842,8|0,0:0|0:0,0:0:0:0:
59,56,110651,2,0,P|96:51|137:23,1,78.4125014955998,4|0,0:0|0:0,0:0:0:0:
228,81,111000,2,0,L|307:74,1,69.1875026392938,4|0,0:0|0:0,0:0:0:0:
410,34,111349,2,0,L|404:88,1,30.75,8|0,0:0|0:0,0:0:0:0:
329,183,111523,2,0,L|325:152,1,30.75,8|0,0:0|0:0,0:0:0:0:
429,234,111697,5,2,0:0:0:0:
429,234,122860,6,0,B|380:256|340:228|340:228|312:232|288:260,1,138.375005278588,8|0,0:0|0:0,0:0:0:0:
396,116,123558,2,0,L|389:162,1,46.1250017595292,4|0,0:0|0:0,0:0:0:0:
324,40,123907,1,8,0:0:0:0:
328,28,124430,1,8,0:0:0:0:
220,140,124604,2,0,P|232:112|232:88,1,46.1250017595292,8|0,0:0|0:0,0:0:0:0:
123,63,124953,1,4,0:0:0:0:
130,77,125127,1,0,0:0:0:0:
140,88,125301,1,0,0:0:0:0:
152,96,125476,1,0,0:0:0:0:
164,200,125651,6,0,L|104:208,1,46.1250017595292,8|0,0:0|0:0,0:0:0:0:
265,146,126000,2,0,L|205:138,1,46.1250017595292,8|0,0:0|0:0,0:0:0:0:
308,216,126349,2,0,P|336:188|344:168,1,46.1250017595292,4|0,0:0|0:0,0:0:0:0:
284,296,126697,2,0,L|375:283,1,92.2500035190584,8|0,0:0|0:0,0:0:0:0:
456,336,127221,1,8,0:0:0:0:
381,238,127395,2,0,L|372:300,1,46.1250017595292,8|0,0:0|0:0,0:0:0:0:
452,180,127744,1,4,0:0:0:0:
450,166,127918,1,0,0:0:0:0:
448,152,128093,1,0,0:0:0:0:
446,138,128267,1,0,0:0:0:0:
381,238,128442,6,0,P|340:264|244:236,1,138.375005278588,8|0,0:0|0:0,0:0:0:0:
168,152,129139,2,0,P|176:184|172:212,1,46.1250017595292,4|0,0:0|0:0,0:0:0:0:
140,316,129488,1,8,0:0:0:0:
136,328,130011,1,8,0:0:0:0:
255,247,130186,2,0,P|284:248|312:260,1,46.1250017595292
400,320,130535,1,0,0:0:0:0:
422,313,130709,1,0,0:0:0:0:
438,295,130883,1,0,0:0:0:0:
442,271,131058,1,0,0:0:0:0:
376,188,131232,6,0,L|384:140,1,46.1250017595292,8|0,0:0|0:0,0:0:0:0:
388,180,131581,2,0,L|396:132,1,46.1250017595292,8|0,0:0|0:0,0:0:0:0:
300,253,131930,2,0,L|292:205,1,46.1250017595292,4|0,0:0|0:0,0:0:0:0:
400,172,132279,2,0,L|415:78,1,92.2500035190584,8|0,0:0|0:0,0:0:0:0:
292,207,132802,1,8,0:0:0:0:
312,104,132976,2,0,L|304:56,1,46.1250017595292,8|0,0:0|0:0,0:0:0:0:
212,144,133325,1,0,0:0:0:0:
124,168,133500,1,0,0:0:0:0:
207,171,133674,1,0,0:0:0:0:
119,195,133849,1,0,0:0:0:0:
232,296,134023,5,8,0:0:0:0:
240,308,134372,1,8,0:0:0:0:
128,292,134546,1,12,0:0:0:0:
16,276,134721,1,4,0:0:0:0:
24,288,135070,1,8,0:0:0:0:
32,300,135418,1,12,0:0:0:0:
100,204,135593,1,8,0:0:0:0:
215,184,135767,1,8,0:0:0:0:
223,196,136116,1,4,0:0:0:0:
231,208,136465,1,12,0:0:0:0:
376,72,136814,5,8,0:0:0:0:
380,64,137163,1,8,0:0:0:0:
368,176,137337,1,12,0:0:0:0:
356,288,137511,1,4,0:0:0:0:
360,280,137860,1,8,0:0:0:0:
364,272,138209,1,12,0:0:0:0:
264,216,138383,1,8,0:0:0:0:
149,217,138558,1,8,0:0:0:0:
153,209,138907,1,4,0:0:0:0:
157,201,139256,1,12,0:0:0:0:
348,328,139604,5,10,0:0:0:0:
432,288,139779,1,0,0:0:0:0:
392,204,139953,1,8,0:0:0:0:
308,244,140128,1,0,0:0:0:0:
315,151,140302,5,12,0:0:0:0:
237,98,140476,1,0,0:0:0:0:
152,140,140651,1,8,0:0:0:0:
145,234,140825,1,0,0:0:0:0:
222,287,141000,5,10,0:0:0:0:
138,328,141174,1,0,0:0:0:0:
145,234,141349,1,8,0:0:0:0:
61,275,141523,1,0,0:0:0:0:
68,181,141697,5,14,0:0:0:0:
145,234,141872,1,0,0:0:0:0:
229,193,142046,1,8,0:0:0:0:
235,99,142221,1,0,0:0:0:0:
307,246,142395,5,10,0:0:0:0:
68,181,142570,1,4,0:0:0:0:
408,162,142744,5,10,0:0:0:0:
145,234,142919,1,4,0:0:0:0:
348,353,143093,5,10,0:0:0:0:
61,275,143268,1,4,0:0:0:0:
454,243,143442,5,10,0:0:0:0:
138,328,143616,1,4,0:0:0:0:
408,162,143790,5,10,0:0:0:0:
429,123,143877,1,8,0:0:0:0:
406,86,143964,1,8,0:0:0:0:
363,87,144051,1,8,0:0:0:0:
342,126,144139,1,8,0:0:0:0:
345,103,144226,1,8,0:0:0:0:
343,80,144313,1,8,0:0:0:0:
334,59,144400,1,8,0:0:0:0:
320,40,144488,6,0,P|284:64|224:60,1,76.875,14|0,0:0|0:0,0:0:0:0:
184,264,144837,2,0,P|141:255|101:210,1,76.875,14|0,0:0|0:0,0:0:0:0:
408,162,145186,6,0,B|420:128|464:120|464:120|464:176|416:200|416:200|432:232|408:296,1,230.625008797646,10|0,0:0|0:0,0:0:0:0:
344,232,145709,2,0,B|296:216|260:240|260:240|240:216|208:216|208:216|188:264|120:264,1,230.625008797646,10|0,0:0|0:0,0:0:0:0:
136,180,146232,2,0,B|120:112|180:56|180:56|256:80|272:152|272:152|297:115|340:114|340:114|382:91|385:39,1,422.8125,10|0,0:0|0:0,0:0:0:0:
302,42,147279,5,14,0:0:0:0:
210,342,147628,5,14,0:0:0:0:
208,348,147976,6,0,P|266:319|211:186,1,230.625008797646,8|0,0:0|0:0,0:0:0:0:
204,267,148500,1,8,0:0:0:0:
67,265,148674,2,0,B|108:261|108:261|148:273|148:273|204:267,1,138.375005278588,4|0,0:0|0:0,0:0:0:0:
223,188,149023,5,8,0:0:0:0:
208,348,149197,1,0,0:0:0:0:
189,107,149372,1,0,0:0:0:0:
204,267,149546,2,0,L|293:276,1,46.1250017595292,8|0,0:0|0:0,0:0:0:0:
320,172,149721,2,0,L|435:160,1,92.25,8|0,0:0|0:0,0:0:0:0:
483,211,150070,6,0,L|481:226,1,15.375,4|0,0:0|0:0,0:0:0:0:
397,49,150244,2,0,L|398:33,1,15.375
411,162,150418,2,0,L|409:177,1,15.375
469,98,150592,2,0,L|470:82,1,15.375
320,172,150767,6,0,P|266:178|237:32,1,230.625008797646,8|0,0:0|0:0,0:0:0:0:
284,99,151290,1,8,0:0:0:0:
178,207,151465,2,0,P|137:135|137:65,1,138.375005278588,4|0,0:0|0:0,0:0:0:0:
107,161,151814,6,0,L|2:148,1,92.2500035190584,8|0,0:0|0:0,0:0:0:0:
178,207,152163,1,0,0:0:0:0:
15,149,152337,1,0,0:0:0:0:
270,219,152511,1,0,0:0:0:0:
107,161,152685,1,8,0:0:0:0:
234,304,152860,5,4,0:0:0:0:
326,292,153034,1,4,0:0:0:0:
397,246,153208,1,4,0:0:0:0:
489,234,153382,1,4,0:0:0:0:
270,219,153558,5,12,0:0:0:0:
453,319,153732,1,8,0:0:0:0:
270,92,154081,5,12,0:0:0:0:
326,292,154255,1,4,0:0:0:0:
87,319,154604,5,8,0:0:0:0:
270,219,154778,1,0,0:0:0:0:
214,292,154954,1,0,0:0:0:0:
270,92,155128,1,8,0:0:0:0:
87,319,155302,6,0,L|91:372,1,46.125
179,208,155651,1,4,0:0:0:0:
214,292,155825,1,4,0:0:0:0:
270,219,156000,1,4,0:0:0:0:
305,303,156174,1,4,0:0:0:0:
179,208,156349,5,12,0:0:0:0:
178,198,156436,1,8,0:0:0:0:
177,189,156523,1,8,0:0:0:0:
176,180,156610,1,8,0:0:0:0:
176,171,156697,1,8,0:0:0:0:
175,162,156785,1,8,0:0:0:0:
144,88,156872,5,12,0:0:0:0:
145,101,156959,1,8,0:0:0:0:
146,115,157046,1,8,0:0:0:0:
147,129,157133,1,8,0:0:0:0:
148,143,157220,1,8,0:0:0:0:
149,156,157308,1,8,0:0:0:0:
197,222,157395,5,12,0:0:0:0:
195,203,157482,1,8,0:0:0:0:
194,185,157569,1,8,0:0:0:0:
192,166,157656,1,8,0:0:0:0:
191,148,157743,1,8,0:0:0:0:
190,130,157831,1,8,0:0:0:0:
125,83,157918,6,0,L|131:162,1,76.875,14|0,0:0|0:0,0:0:0:0:
135,235,158442,5,14,0:0:0:0:
376,148,158790,5,14,0:0:0:0:
384,140,159139,6,0,P|372:200|440:132,1,230.625008797646,8|0,0:0|0:0,0:0:0:0:
434,75,159663,1,8,0:0:0:0:
376,148,159837,2,0,B|283:150|283:150|219:122,1,138.375005278588,4|0,0:0|0:0,0:0:0:0:
182,193,160186,5,8,0:0:0:0:
300,69,160360,1,0,0:0:0:0:
99,173,160535,1,0,0:0:0:0:
217,49,160709,2,0,L|221:106,1,46.1250017595292,8|0,0:0|0:0,0:0:0:0:
376,148,160883,2,0,L|368:260,1,92.25,8|0,0:0|0:0,0:0:0:0:
310,334,161232,6,0,L|338:336,1,15.375,6|0,0:0|0:0,0:0:0:0:
202,334,161407,2,0,L|186:335,1,15.375,2|0,0:0|0:0,0:0:0:0:
256,241,161581,2,0,L|256:192,1,46.125,2|0,0:0|0:0,0:0:0:0:
230,120,161930,6,0,P|262:160|156:163,1,230.625008797646,8|0,0:0|0:0,0:0:0:0:
155,88,162453,1,8,0:0:0:0:
240,126,162628,2,0,B|340:118|340:118|280:158,1,138.375005278588,4|0,0:0|0:0,0:0:0:0:
457,130,162976,6,0,L|380:181,1,92.2500035190584,8|0,0:0|0:0,0:0:0:0:
308,139,163325,1,0,0:0:0:0:
473,303,163500,1,0,0:0:0:0:
380,181,163674,1,0,0:0:0:0:
401,261,163849,1,8,0:0:0:0:
204,139,164023,5,4,0:0:0:0:
132,181,164198,1,4,0:0:0:0:
111,261,164373,1,4,0:0:0:0:
39,303,164547,1,4,0:0:0:0:
380,181,164721,5,12,0:0:0:0:
337,338,164895,1,8,0:0:0:0:
132,181,165244,5,12,0:0:0:0:
175,338,165418,1,4,0:0:0:0:
256,84,165767,5,8,0:0:0:0:
256,252,165942,1,0,0:0:0:0:
308,146,166116,1,0,0:0:0:0:
132,181,166290,1,8,0:0:0:0:
380,181,166465,1,8,0:0:0:0:
204,146,166639,1,0,0:0:0:0:
256,316,166814,2,0,L|256:208,1,107.625,2|0,0:0|0:0,0:0:0:0:
256,84,167511,5,14,0:0:0:0:
