osu file format v14

[General]
AudioFilename: Flight Of The Manta.mp3
AudioLeadIn: 0
PreviewTime: 90574
Countdown: 1
SampleSet: Soft
StackLeniency: 0.7
Mode: 3
LetterboxInBreaks: 1
SpecialStyle: 0
WidescreenStoryboard: 0

[Editor]
Bookmarks: 33994,50836,59257,67678,80309,116099,151888,185571
DistanceSpacing: 0.8
BeatDivisor: 3
GridSize: 8
TimelineZoom: 0.9999998

[Metadata]
Title:Flight Of The Manta
TitleUnicode:Flight Of The Manta
Artist:Atlantis Chronicles
ArtistUnicode:Atlantis Chronicles
Creator:XeoStyle
Version:The sea is everything
Source:
Tags:Barton's Odyssey Modern Death Metal
BeatmapID:1298233
BeatmapSetID:615543

[Difficulty]
HPDrainRate:8
CircleSize:4
OverallDifficulty:8
ApproachRate:5
SliderMultiplier:1.4
SliderTickRate:1

[Events]
//Background and Video events
0,0,"manta.png",0,0
//Break Periods
//Storyboard Layer 0 (Background)
//Storyboard Layer 1 (Fail)
//Storyboard Layer 2 (Pass)
//Storyboard Layer 3 (Foreground)
//Storyboard Sound Samples

[TimingPoints]
310,263.157894736842,4,2,1,40,1,0
310,-100,4,2,1,40,0,1
7678,-100,4,2,1,40,0,0
8731,-100,4,2,1,40,0,1
25573,-100,4,2,1,5,0,0
33204,-100,4,2,1,40,0,0
34257,-100,4,2,1,5,0,0
35441,-100,4,2,1,40,0,0
90836,-100,4,2,1,40,0,1
107678,-100,4,2,1,40,0,0
149871,-100,4,2,1,5,0,0
151274,-100,4,2,1,40,0,0
151450,-100,4,2,1,5,0,0
151888,-100,4,2,1,40,0,0

[HitObjects]
64,192,46,5,2,0:0:0:0:
320,192,112,1,2,0:0:0:0:
64,192,178,1,2,0:0:0:0:
320,192,244,1,2,0:0:0:0:
64,192,310,1,2,0:0:0:0:
192,192,310,1,4,0:0:0:0:
448,192,310,1,0,0:0:0:0:
320,192,375,1,8,0:0:0:0:
192,192,441,1,2,0:0:0:0:
448,192,507,1,8,0:0:0:0:
64,192,507,1,0,0:0:0:0:
320,192,573,1,2,0:0:0:0:
192,192,638,1,8,0:0:0:0:
64,192,638,1,0,0:0:0:0:
448,192,704,1,2,0:0:0:0:
320,192,770,1,8,0:0:0:0:
192,192,770,1,0,0:0:0:0:
64,192,836,1,2,0:0:0:0:
320,192,902,1,0,0:0:0:0:
448,192,902,1,8,0:0:0:0:
192,192,967,1,2,0:0:0:0:
320,192,1033,1,8,0:0:0:0:
64,192,1033,1,0,0:0:0:0:
448,192,1099,1,2,0:0:0:0:
192,192,1165,1,8,0:0:0:0:
64,192,1165,1,0,0:0:0:0:
320,192,1231,1,2,0:0:0:0:
64,192,1296,1,0,0:0:0:0:
448,192,1296,1,8,0:0:0:0:
192,192,1362,1,2,0:0:0:0:
320,192,1428,1,8,0:0:0:0:
448,192,1428,1,0,0:0:0:0:
192,192,1494,1,2,0:0:0:0:
64,192,1559,1,0,0:0:0:0:
448,192,1559,1,8,0:0:0:0:
320,192,1625,1,2,0:0:0:0:
192,192,1691,1,8,0:0:0:0:
64,192,1691,1,0,0:0:0:0:
448,192,1757,1,2,0:0:0:0:
320,192,1823,1,8,0:0:0:0:
64,192,1823,1,0,0:0:0:0:
192,192,1888,1,2,0:0:0:0:
320,192,1954,1,0,0:0:0:0:
448,192,1954,1,8,0:0:0:0:
64,192,2020,1,2,0:0:0:0:
320,192,2086,1,8,0:0:0:0:
192,192,2086,1,0,0:0:0:0:
448,192,2152,1,2,0:0:0:0:
192,192,2217,1,8,0:0:0:0:
64,192,2217,1,0,0:0:0:0:
320,192,2283,1,2,0:0:0:0:
448,192,2349,1,0,0:0:0:0:
64,192,2349,1,8,0:0:0:0:
192,192,2415,1,2,0:0:0:0:
320,192,2481,1,8,0:0:0:0:
448,192,2481,1,0,0:0:0:0:
64,192,2546,1,2,0:0:0:0:
192,192,2612,1,0,0:0:0:0:
448,192,2612,1,8,0:0:0:0:
320,192,2678,1,2,0:0:0:0:
192,192,2744,1,0,0:0:0:0:
64,192,2744,1,8,0:0:0:0:
448,192,2809,1,2,0:0:0:0:
64,192,2875,1,0,0:0:0:0:
320,192,2875,1,8,0:0:0:0:
192,192,2941,1,2,0:0:0:0:
448,192,3007,1,8,0:0:0:0:
64,192,3007,1,0,0:0:0:0:
320,192,3073,1,2,0:0:0:0:
192,192,3138,1,8,0:0:0:0:
448,192,3138,1,0,0:0:0:0:
64,192,3204,1,2,0:0:0:0:
320,192,3270,1,8,0:0:0:0:
448,192,3270,1,0,0:0:0:0:
192,192,3336,1,2,0:0:0:0:
64,192,3402,1,8,0:0:0:0:
320,192,3402,1,0,0:0:0:0:
448,192,3467,1,2,0:0:0:0:
192,192,3533,1,8,0:0:0:0:
64,192,3533,1,0,0:0:0:0:
320,192,3599,1,2,0:0:0:0:
448,192,3665,1,8,0:0:0:0:
64,192,3665,1,0,0:0:0:0:
192,192,3731,1,2,0:0:0:0:
320,192,3796,1,8,0:0:0:0:
448,192,3796,1,0,0:0:0:0:
64,192,3862,1,2,0:0:0:0:
192,192,3928,1,0,0:0:0:0:
448,192,3928,1,8,0:0:0:0:
320,192,3994,1,2,0:0:0:0:
192,192,4059,1,8,0:0:0:0:
64,192,4059,1,0,0:0:0:0:
448,192,4125,1,2,0:0:0:0:
320,192,4191,1,8,0:0:0:0:
192,192,4191,1,0,0:0:0:0:
64,192,4257,1,2,0:0:0:0:
320,192,4323,1,0,0:0:0:0:
448,192,4323,1,8,0:0:0:0:
192,192,4388,1,2,0:0:0:0:
64,192,4454,1,0,0:0:0:0:
320,192,4454,1,8,0:0:0:0:
448,192,4520,1,2,0:0:0:0:
64,192,4586,1,0,0:0:0:0:
192,192,4586,1,8,0:0:0:0:
320,192,4652,1,2,0:0:0:0:
448,192,4717,1,8,0:0:0:0:
64,192,4717,1,0,0:0:0:0:
192,192,4783,1,2,0:0:0:0:
320,192,4849,1,8,0:0:0:0:
448,192,4849,1,0,0:0:0:0:
192,192,4915,1,2,0:0:0:0:
64,192,4981,1,0,0:0:0:0:
448,192,4981,1,8,0:0:0:0:
320,192,5046,1,2,0:0:0:0:
192,192,5112,1,8,0:0:0:0:
64,192,5112,1,0,0:0:0:0:
448,192,5178,1,2,0:0:0:0:
320,192,5244,1,8,0:0:0:0:
64,192,5244,1,0,0:0:0:0:
192,192,5309,1,2,0:0:0:0:
448,192,5375,1,8,0:0:0:0:
320,192,5375,1,0,0:0:0:0:
64,192,5441,1,2,0:0:0:0:
320,192,5507,1,8,0:0:0:0:
192,192,5507,1,0,0:0:0:0:
448,192,5573,1,2,0:0:0:0:
64,192,5638,1,0,0:0:0:0:
192,192,5638,1,8,0:0:0:0:
320,192,5704,1,2,0:0:0:0:
448,192,5770,1,0,0:0:0:0:
64,192,5770,1,8,0:0:0:0:
192,192,5836,1,2,0:0:0:0:
448,192,5902,1,0,0:0:0:0:
320,192,5902,1,8,0:0:0:0:
64,192,5967,1,2,0:0:0:0:
192,192,6033,1,0,0:0:0:0:
448,192,6033,1,8,0:0:0:0:
320,192,6099,1,2,0:0:0:0:
64,192,6165,1,8,0:0:0:0:
192,192,6165,1,0,0:0:0:0:
448,192,6231,1,2,0:0:0:0:
320,192,6296,1,8,0:0:0:0:
64,192,6296,1,0,0:0:0:0:
192,192,6362,1,2,0:0:0:0:
448,192,6428,1,2,0:0:0:0:
64,192,6494,1,2,0:0:0:0:
320,192,6559,1,2,0:0:0:0:
64,192,6625,1,0,0:0:0:0:
192,192,6625,1,8,0:0:0:0:
448,192,6691,1,0,0:0:0:0:
320,192,6691,1,8,0:0:0:0:
192,192,6757,1,2,0:0:0:0:
64,192,6823,1,2,0:0:0:0:
448,192,6888,1,2,0:0:0:0:
192,192,6954,1,2,0:0:0:0:
448,192,7020,1,2,0:0:0:0:
192,192,7086,1,2,0:0:0:0:
320,192,7152,1,2,0:0:0:0:
64,192,7217,1,2,0:0:0:0:
320,192,7283,1,8,0:0:0:0:
448,192,7283,1,0,0:0:0:0:
192,192,7349,1,8,0:0:0:0:
64,192,7349,1,0,0:0:0:0:
320,192,7415,1,8,0:0:0:0:
448,192,7415,1,0,0:0:0:0:
192,192,7481,1,2,0:0:0:0:
64,192,7546,1,2,0:0:0:0:
320,192,7612,1,2,0:0:0:0:
448,192,7678,1,0,0:0:0:0:
64,192,7678,1,8,0:0:0:0:
192,192,7678,1,8,0:0:0:0:
448,192,8731,128,0,9257:0:0:0:0:
64,192,8731,1,4,0:0:0:0:
320,192,8731,1,2,0:0:0:0:
192,192,8862,1,2,0:0:0:0:
320,192,8994,1,2,0:0:0:0:
64,192,9125,1,2,0:0:0:0:
192,192,9257,1,2,0:0:0:0:
320,192,9257,1,0,0:0:0:0:
64,192,9388,1,2,0:0:0:0:
448,192,9520,1,2,0:0:0:0:
192,192,9652,1,2,0:0:0:0:
448,192,9783,1,8,0:0:0:0:
320,192,9783,1,8,0:0:0:0:
64,192,9783,128,0,10309:0:0:0:0:
192,192,9915,5,2,0:0:0:0:
320,192,10046,1,2,0:0:0:0:
192,192,10178,1,0,0:0:0:0:
448,192,10178,1,0,0:0:0:0:
320,192,10309,1,2,0:0:0:0:
192,192,10441,1,0,0:0:0:0:
448,192,10441,1,0,0:0:0:0:
320,192,10573,1,2,0:0:0:0:
192,192,10704,1,0,0:0:0:0:
448,192,10704,1,0,0:0:0:0:
320,192,10836,1,2,0:0:0:0:
64,192,10836,1,0,0:0:0:0:
448,192,10967,1,2,0:0:0:0:
192,192,11099,1,2,0:0:0:0:
320,192,11231,1,2,0:0:0:0:
64,192,11362,1,0,0:0:0:0:
192,192,11362,1,2,0:0:0:0:
448,192,11494,1,2,0:0:0:0:
320,192,11625,1,0,0:0:0:0:
64,192,11625,1,0,0:0:0:0:
192,192,11757,1,2,0:0:0:0:
320,192,11888,1,8,0:0:0:0:
64,192,11888,1,0,0:0:0:0:
448,192,11888,1,8,0:0:0:0:
192,192,12020,1,2,0:0:0:0:
448,192,12152,1,0,0:0:0:0:
320,192,12152,1,0,0:0:0:0:
192,192,12283,1,0,0:0:0:0:
64,192,12283,1,0,0:0:0:0:
320,192,12415,1,2,0:0:0:0:
64,192,12546,1,0,0:0:0:0:
192,192,12546,1,0,0:0:0:0:
320,192,12678,1,0,0:0:0:0:
448,192,12678,1,0,0:0:0:0:
64,192,12809,1,0,0:0:0:0:
448,192,12941,1,4,0:0:0:0:
192,192,12941,128,0,13467:0:0:0:0:
320,192,12941,1,2,0:0:0:0:
64,192,13073,1,2,0:0:0:0:
448,192,13204,1,2,0:0:0:0:
320,192,13336,1,2,0:0:0:0:
64,192,13467,1,2,0:0:0:0:
448,192,13467,1,0,0:0:0:0:
320,192,13599,1,2,0:0:0:0:
64,192,13731,1,2,0:0:0:0:
192,192,13862,1,2,0:0:0:0:
448,192,13994,1,8,0:0:0:0:
64,192,13994,1,8,0:0:0:0:
320,192,13994,128,0,14520:0:0:0:0:
192,192,14125,5,2,0:0:0:0:
448,192,14257,1,2,0:0:0:0:
64,192,14388,1,0,0:0:0:0:
192,192,14388,1,0,0:0:0:0:
448,192,14520,1,2,0:0:0:0:
192,192,14652,1,0,0:0:0:0:
64,192,14652,1,0,0:0:0:0:
448,192,14783,1,2,0:0:0:0:
320,192,14849,1,2,0:0:0:0:
192,192,14915,1,2,0:0:0:0:
64,192,14981,1,2,0:0:0:0:
320,192,15046,1,2,0:0:0:0:
448,192,15046,1,2,0:0:0:0:
192,192,15112,1,2,0:0:0:0:
320,192,15178,1,2,0:0:0:0:
64,192,15244,1,2,0:0:0:0:
192,192,15309,1,2,0:0:0:0:
448,192,15309,1,2,0:0:0:0:
320,192,15375,1,2,0:0:0:0:
192,192,15441,1,2,0:0:0:0:
448,192,15507,1,2,0:0:0:0:
320,192,15573,1,2,0:0:0:0:
64,192,15573,1,2,0:0:0:0:
192,192,15638,1,2,0:0:0:0:
448,192,15704,1,2,0:0:0:0:
320,192,15770,1,2,0:0:0:0:
64,192,15836,1,8,0:0:0:0:
192,192,15836,1,4,0:0:0:0:
448,192,15836,1,0,0:0:0:0:
320,192,15902,1,2,0:0:0:0:
192,192,15967,1,2,0:0:0:0:
448,192,16033,1,2,0:0:0:0:
320,192,16099,1,8,0:0:0:0:
192,192,16099,1,0,0:0:0:0:
64,192,16099,1,4,0:0:0:0:
448,192,16165,1,2,0:0:0:0:
64,192,16231,1,2,0:0:0:0:
320,192,16296,1,2,0:0:0:0:
192,192,16362,1,2,0:0:0:0:
448,192,16362,1,2,0:0:0:0:
64,192,16428,1,2,0:0:0:0:
320,192,16494,1,2,0:0:0:0:
64,192,16559,1,2,0:0:0:0:
320,192,16625,1,2,0:0:0:0:
192,192,16625,1,2,0:0:0:0:
448,192,16691,1,2,0:0:0:0:
192,192,16757,1,2,0:0:0:0:
448,192,16823,1,2,0:0:0:0:
64,192,16888,1,2,0:0:0:0:
320,192,16888,1,2,0:0:0:0:
192,192,16954,1,2,0:0:0:0:
320,192,17020,1,2,0:0:0:0:
64,192,17086,1,2,0:0:0:0:
192,192,17152,1,2,0:0:0:0:
320,192,17152,1,4,0:0:0:0:
448,192,17152,1,0,0:0:0:0:
64,192,17217,1,2,0:0:0:0:
192,192,17283,1,2,0:0:0:0:
320,192,17349,1,2,0:0:0:0:
448,192,17415,1,2,0:0:0:0:
192,192,17481,1,2,0:0:0:0:
320,192,17546,1,2,0:0:0:0:
64,192,17612,1,2,0:0:0:0:
192,192,17678,1,0,0:0:0:0:
448,192,17678,1,0,0:0:0:0:
320,192,17678,1,2,0:0:0:0:
64,192,17744,1,2,0:0:0:0:
192,192,17809,1,2,0:0:0:0:
448,192,17875,1,2,0:0:0:0:
320,192,17941,1,2,0:0:0:0:
192,192,18007,1,2,0:0:0:0:
64,192,18073,1,2,0:0:0:0:
448,192,18138,1,2,0:0:0:0:
320,192,18204,1,0,0:0:0:0:
192,192,18204,1,8,0:0:0:0:
64,192,18204,1,8,0:0:0:0:
448,192,18270,1,2,0:0:0:0:
192,192,18336,1,2,0:0:0:0:
320,192,18402,1,2,0:0:0:0:
64,192,18467,1,2,0:0:0:0:
192,192,18533,1,2,0:0:0:0:
448,192,18599,1,2,0:0:0:0:
320,192,18665,1,2,0:0:0:0:
192,192,18731,1,0,0:0:0:0:
64,192,18731,1,2,0:0:0:0:
448,192,18731,1,0,0:0:0:0:
320,192,18796,1,2,0:0:0:0:
192,192,18862,1,2,0:0:0:0:
448,192,18928,1,2,0:0:0:0:
320,192,18994,1,2,0:0:0:0:
64,192,19059,1,2,0:0:0:0:
192,192,19125,1,2,0:0:0:0:
320,192,19191,1,2,0:0:0:0:
448,192,19257,1,0,0:0:0:0:
64,192,19257,1,2,0:0:0:0:
192,192,19257,1,0,0:0:0:0:
320,192,19323,1,2,0:0:0:0:
64,192,19388,1,2,0:0:0:0:
192,192,19454,1,2,0:0:0:0:
448,192,19520,1,2,0:0:0:0:
320,192,19586,1,2,0:0:0:0:
192,192,19652,1,2,0:0:0:0:
64,192,19717,1,2,0:0:0:0:
448,192,19783,1,0,0:0:0:0:
320,192,19783,1,0,0:0:0:0:
192,192,19849,1,2,0:0:0:0:
320,192,19915,1,0,0:0:0:0:
448,192,19915,1,0,0:0:0:0:
64,192,19981,1,2,0:0:0:0:
192,192,20046,1,2,0:0:0:0:
448,192,20112,1,2,0:0:0:0:
320,192,20178,1,2,0:0:0:0:
192,192,20244,1,2,0:0:0:0:
64,192,20309,1,0,0:0:0:0:
320,192,20309,1,8,0:0:0:0:
448,192,20309,1,8,0:0:0:0:
192,192,20375,1,2,0:0:0:0:
64,192,20441,1,2,0:0:0:0:
448,192,20507,1,2,0:0:0:0:
320,192,20573,1,2,0:0:0:0:
192,192,20638,1,2,0:0:0:0:
320,192,20704,1,0,0:0:0:0:
64,192,20704,1,0,0:0:0:0:
448,192,20770,1,2,0:0:0:0:
192,192,20836,1,2,0:0:0:0:
320,192,20902,1,2,0:0:0:0:
64,192,20967,1,0,0:0:0:0:
448,192,20967,1,0,0:0:0:0:
192,192,21033,1,2,0:0:0:0:
320,192,21099,1,2,0:0:0:0:
64,192,21165,1,2,0:0:0:0:
192,192,21231,1,0,0:0:0:0:
448,192,21231,1,0,0:0:0:0:
320,192,21296,1,2,0:0:0:0:
64,192,21362,1,2,0:0:0:0:
448,192,21428,1,2,0:0:0:0:
320,192,21494,1,2,0:0:0:0:
64,192,21559,1,2,0:0:0:0:
192,192,21625,1,2,0:0:0:0:
320,192,21691,1,2,0:0:0:0:
448,192,21757,1,2,0:0:0:0:
64,192,21823,1,2,0:0:0:0:
192,192,21888,1,0,0:0:0:0:
448,192,21888,1,0,0:0:0:0:
320,192,21888,1,2,0:0:0:0:
64,192,21954,1,2,0:0:0:0:
192,192,22020,1,2,0:0:0:0:
448,192,22086,1,2,0:0:0:0:
320,192,22152,1,2,0:0:0:0:
192,192,22217,1,2,0:0:0:0:
64,192,22283,1,2,0:0:0:0:
320,192,22349,1,2,0:0:0:0:
64,192,22415,1,0,0:0:0:0:
192,192,22415,1,2,0:0:0:0:
448,192,22415,1,0,0:0:0:0:
320,192,22481,1,2,0:0:0:0:
448,192,22546,1,2,0:0:0:0:
192,192,22612,1,2,0:0:0:0:
320,192,22678,1,2,0:0:0:0:
64,192,22744,1,2,0:0:0:0:
448,192,22809,1,2,0:0:0:0:
192,192,22875,1,2,0:0:0:0:
320,192,22941,1,2,0:0:0:0:
64,192,22941,1,0,0:0:0:0:
448,192,22941,1,0,0:0:0:0:
192,192,23007,1,2,0:0:0:0:
320,192,23073,1,2,0:0:0:0:
64,192,23138,1,2,0:0:0:0:
192,192,23204,1,2,0:0:0:0:
448,192,23270,1,2,0:0:0:0:
320,192,23336,1,2,0:0:0:0:
192,192,23402,1,2,0:0:0:0:
64,192,23467,1,0,0:0:0:0:
320,192,23467,1,8,0:0:0:0:
448,192,23467,1,8,0:0:0:0:
192,192,23533,1,2,0:0:0:0:
448,192,23599,1,2,0:0:0:0:
64,192,23665,1,2,0:0:0:0:
192,192,23731,1,2,0:0:0:0:
320,192,23731,1,2,0:0:0:0:
448,192,23796,1,2,0:0:0:0:
192,192,23862,1,2,0:0:0:0:
448,192,23928,1,2,0:0:0:0:
64,192,23994,1,2,0:0:0:0:
320,192,23994,1,2,0:0:0:0:
192,192,24059,1,2,0:0:0:0:
448,192,24125,1,0,0:0:0:0:
320,192,24125,1,8,0:0:0:0:
192,192,24191,1,8,0:0:0:0:
64,192,24191,1,0,0:0:0:0:
448,192,24257,1,2,0:0:0:0:
64,192,24323,1,2,0:0:0:0:
320,192,24388,1,2,0:0:0:0:
192,192,24454,1,2,0:0:0:0:
448,192,24520,1,2,0:0:0:0:
320,192,24608,1,2,0:0:0:0:
192,192,24695,1,8,0:0:0:0:
64,192,24695,1,0,0:0:0:0:
448,192,24783,1,0,0:0:0:0:
320,192,24783,1,8,0:0:0:0:
192,192,24871,1,2,0:0:0:0:
64,192,24959,1,2,0:0:0:0:
320,192,25046,1,8,0:0:0:0:
448,192,25046,1,0,0:0:0:0:
64,192,25134,1,0,0:0:0:0:
192,192,25134,1,8,0:0:0:0:
320,192,25222,1,2,0:0:0:0:
448,192,25309,1,2,0:0:0:0:
192,192,25397,1,2,0:0:0:0:
320,192,25485,1,2,0:0:0:0:
64,192,25573,128,0,26362:0:0:0:0:
320,192,26362,128,0,27415:0:0:0:0:
192,192,26625,128,0,27415:0:0:0:0:
64,192,27415,128,0,28467:0:0:0:0:
448,192,27678,128,0,28731:0:0:0:0:
192,192,28467,1,0,0:0:0:0:
64,192,28731,1,0,0:0:0:0:
320,192,28796,128,0,29125:0:0:0:0:
192,192,29125,128,0,29191:0:0:0:0:
448,192,29783,128,0,29849:0:0:0:0:
64,192,30046,128,0,30836:0:0:0:0:
448,192,30309,1,0,0:0:0:0:
192,192,30573,1,0,0:0:0:0:
448,192,30836,128,0,33994:0:0:0:0:
320,192,31099,1,0,0:0:0:0:
192,192,31362,1,0,0:0:0:0:
64,192,31625,1,0,0:0:0:0:
320,192,31888,128,0,32415:0:0:0:0:
64,192,32415,128,0,33204:0:0:0:0:
192,192,33204,1,0,0:0:0:0:
320,192,33270,1,0,0:0:0:0:
192,192,33336,1,0,0:0:0:0:
320,192,33402,1,0,0:0:0:0:
192,192,33467,1,0,0:0:0:0:
64,192,33467,1,4,0:0:0:0:
64,192,33994,1,0,0:0:0:0:
192,192,33994,1,4,0:0:0:0:
320,192,33994,1,2,0:0:0:0:
320,192,34125,1,2,0:0:0:0:
192,192,34125,1,4,0:0:0:0:
64,192,34125,1,0,0:0:0:0:
448,192,34257,1,0,0:0:0:0:
64,192,34388,1,0,0:0:0:0:
448,192,34520,1,0,0:0:0:0:
64,192,34652,1,0,0:0:0:0:
192,192,34783,1,0,0:0:0:0:
64,192,34915,1,0,0:0:0:0:
320,192,35046,1,0,0:0:0:0:
64,192,35178,1,0,0:0:0:0:
64,192,35309,1,0,0:0:0:0:
192,192,35441,1,0,0:0:0:0:
320,192,35441,1,8,0:0:0:0:
448,192,35441,1,8,0:0:0:0:
192,192,35573,1,2,0:0:0:0:
320,192,35704,1,8,0:0:0:0:
448,192,35704,1,0,0:0:0:0:
64,192,35704,1,8,0:0:0:0:
448,192,35836,1,2,0:0:0:0:
192,192,35967,1,8,0:0:0:0:
320,192,35967,1,8,0:0:0:0:
64,192,35967,1,0,0:0:0:0:
448,192,36099,1,2,0:0:0:0:
320,192,36099,1,4,0:0:0:0:
64,192,36099,1,0,0:0:0:0:
192,192,36165,1,8,0:0:0:0:
320,192,36231,1,2,0:0:0:0:
64,192,36296,1,8,0:0:0:0:
448,192,36296,1,0,0:0:0:0:
192,192,36362,1,2,0:0:0:0:
320,192,36428,1,8,0:0:0:0:
448,192,36428,1,0,0:0:0:0:
64,192,36494,1,2,0:0:0:0:
192,192,36559,1,8,0:0:0:0:
320,192,36559,1,0,0:0:0:0:
448,192,36625,1,2,0:0:0:0:
64,192,36691,1,8,0:0:0:0:
192,192,36691,1,0,0:0:0:0:
320,192,36757,1,2,0:0:0:0:
192,192,36823,1,8,0:0:0:0:
448,192,36823,1,0,0:0:0:0:
64,192,36888,1,2,0:0:0:0:
320,192,36954,1,8,0:0:0:0:
448,192,36954,1,0,0:0:0:0:
192,192,37020,1,2,0:0:0:0:
448,192,37086,1,0,0:0:0:0:
64,192,37086,1,8,0:0:0:0:
320,192,37152,1,2,0:0:0:0:
192,192,37217,1,8,0:0:0:0:
64,192,37217,1,0,0:0:0:0:
320,192,37283,1,2,0:0:0:0:
448,192,37349,1,0,0:0:0:0:
64,192,37349,1,8,0:0:0:0:
192,192,37415,1,2,0:0:0:0:
448,192,37481,1,0,0:0:0:0:
320,192,37481,1,8,0:0:0:0:
64,192,37546,1,2,0:0:0:0:
192,192,37612,1,8,0:0:0:0:
448,192,37612,1,0,0:0:0:0:
320,192,37678,1,2,0:0:0:0:
192,192,37744,1,0,0:0:0:0:
64,192,37744,1,8,0:0:0:0:
448,192,37809,1,2,0:0:0:0:
320,192,37875,1,0,0:0:0:0:
192,192,37875,1,8,0:0:0:0:
64,192,37941,1,2,0:0:0:0:
320,192,38007,1,8,0:0:0:0:
448,192,38007,1,0,0:0:0:0:
192,192,38073,1,2,0:0:0:0:
448,192,38138,1,8,0:0:0:0:
64,192,38138,1,0,0:0:0:0:
320,192,38204,1,2,0:0:0:0:
64,192,38270,1,0,0:0:0:0:
192,192,38270,1,8,0:0:0:0:
448,192,38336,1,2,0:0:0:0:
320,192,38402,1,8,0:0:0:0:
64,192,38402,1,0,0:0:0:0:
192,192,38467,1,2,0:0:0:0:
320,192,38533,1,0,0:0:0:0:
448,192,38533,1,8,0:0:0:0:
64,192,38599,1,2,0:0:0:0:
320,192,38665,1,0,0:0:0:0:
192,192,38665,1,8,0:0:0:0:
448,192,38731,1,2,0:0:0:0:
192,192,38796,1,0,0:0:0:0:
64,192,38796,1,8,0:0:0:0:
320,192,38862,1,2,0:0:0:0:
192,192,38928,1,8,0:0:0:0:
448,192,38928,1,0,0:0:0:0:
64,192,38994,1,2,0:0:0:0:
448,192,39059,1,0,0:0:0:0:
320,192,39059,1,8,0:0:0:0:
192,192,39125,1,2,0:0:0:0:
448,192,39191,1,0,0:0:0:0:
64,192,39191,1,8,0:0:0:0:
320,192,39257,1,0,0:0:0:0:
192,192,39356,1,8,0:0:0:0:
64,192,39356,1,0,0:0:0:0:
64,192,39487,1,0,0:0:0:0:
192,192,39487,1,8,0:0:0:0:
320,192,39652,1,2,0:0:0:0:
64,192,39783,1,2,0:0:0:0:
448,192,39849,1,8,0:0:0:0:
192,192,39849,1,8,0:0:0:0:
320,192,39915,1,8,0:0:0:0:
192,192,39981,1,8,0:0:0:0:
64,192,39981,1,8,0:0:0:0:
320,192,40046,1,0,0:0:0:0:
448,192,40046,1,0,0:0:0:0:
448,192,40309,1,4,0:0:0:0:
320,192,40309,1,0,0:0:0:0:
192,192,40309,1,2,0:0:0:0:
320,192,40441,1,8,0:0:0:0:
64,192,40441,1,0,0:0:0:0:
448,192,40573,1,0,0:0:0:0:
192,192,40573,1,2,0:0:0:0:
64,192,40638,1,2,0:0:0:0:
192,192,40704,1,0,0:0:0:0:
320,192,40704,1,8,0:0:0:0:
448,192,40836,1,2,0:0:0:0:
320,192,40836,1,0,0:0:0:0:
64,192,40836,1,0,0:0:0:0:
448,192,40967,1,0,0:0:0:0:
192,192,40967,1,8,0:0:0:0:
64,192,41099,1,0,0:0:0:0:
320,192,41099,1,2,0:0:0:0:
192,192,41165,1,2,0:0:0:0:
64,192,41231,1,0,0:0:0:0:
448,192,41231,1,8,0:0:0:0:
320,192,41362,1,8,0:0:0:0:
448,192,41362,1,0,0:0:0:0:
192,192,41428,1,2,0:0:0:0:
64,192,41494,1,0,0:0:0:0:
448,192,41494,1,8,0:0:0:0:
320,192,41559,1,2,0:0:0:0:
192,192,41625,1,2,0:0:0:0:
64,192,41625,1,2,0:0:0:0:
448,192,41691,1,2,0:0:0:0:
320,192,41757,1,2,0:0:0:0:
64,192,41823,1,2,0:0:0:0:
192,192,41888,1,4,0:0:0:0:
448,192,41888,1,2,0:0:0:0:
320,192,42020,1,2,0:0:0:0:
64,192,42020,1,4,0:0:0:0:
64,192,42152,1,0,0:0:0:0:
448,192,42152,1,4,0:0:0:0:
192,192,42152,1,4,0:0:0:0:
448,192,42415,1,0,0:0:0:0:
64,192,42415,1,2,0:0:0:0:
192,192,42415,1,4,0:0:0:0:
320,192,42481,1,8,0:0:0:0:
192,192,42546,1,2,0:0:0:0:
448,192,42612,1,8,0:0:0:0:
64,192,42612,1,0,0:0:0:0:
320,192,42678,1,2,0:0:0:0:
64,192,42744,1,0,0:0:0:0:
192,192,42744,1,8,0:0:0:0:
448,192,42809,1,2,0:0:0:0:
192,192,42875,1,0,0:0:0:0:
320,192,42875,1,8,0:0:0:0:
64,192,42941,1,2,0:0:0:0:
448,192,43007,1,8,0:0:0:0:
320,192,43007,1,0,0:0:0:0:
192,192,43073,1,2,0:0:0:0:
448,192,43138,1,8,0:0:0:0:
64,192,43138,1,0,0:0:0:0:
320,192,43204,1,2,0:0:0:0:
64,192,43270,1,0,0:0:0:0:
192,192,43270,1,8,0:0:0:0:
320,192,43336,1,2,0:0:0:0:
192,192,43402,1,0,0:0:0:0:
448,192,43402,1,8,0:0:0:0:
64,192,43467,1,2,0:0:0:0:
320,192,43533,1,8,0:0:0:0:
448,192,43533,1,0,0:0:0:0:
192,192,43599,1,2,0:0:0:0:
448,192,43665,1,8,0:0:0:0:
64,192,43665,1,0,0:0:0:0:
320,192,43731,1,2,0:0:0:0:
192,192,43796,1,2,0:0:0:0:
448,192,43862,1,2,0:0:0:0:
320,192,43928,1,2,0:0:0:0:
64,192,43994,1,0,0:0:0:0:
192,192,43994,1,8,0:0:0:0:
320,192,44059,1,8,0:0:0:0:
448,192,44059,1,0,0:0:0:0:
192,192,44125,1,8,0:0:0:0:
64,192,44125,1,0,0:0:0:0:
448,192,44191,1,8,0:0:0:0:
320,192,44257,1,2,0:0:0:0:
192,192,44257,1,4,0:0:0:0:
64,192,44257,1,0,0:0:0:0:
448,192,44520,1,2,0:0:0:0:
320,192,44520,1,0,0:0:0:0:
192,192,44520,1,4,0:0:0:0:
64,192,44586,1,2,0:0:0:0:
320,192,44652,1,0,0:0:0:0:
192,192,44652,1,2,0:0:0:0:
448,192,44717,1,2,0:0:0:0:
192,192,44783,1,0,0:0:0:0:
64,192,44783,1,2,0:0:0:0:
320,192,44849,1,2,0:0:0:0:
64,192,44915,1,2,0:0:0:0:
448,192,44915,1,0,0:0:0:0:
192,192,44981,1,2,0:0:0:0:
448,192,45046,1,0,0:0:0:0:
320,192,45046,1,2,0:0:0:0:
64,192,45112,1,2,0:0:0:0:
192,192,45178,1,0,0:0:0:0:
320,192,45178,1,2,0:0:0:0:
448,192,45244,1,2,0:0:0:0:
192,192,45309,1,2,0:0:0:0:
64,192,45309,1,0,0:0:0:0:
320,192,45375,1,2,0:0:0:0:
64,192,45441,1,2,0:0:0:0:
448,192,45441,1,0,0:0:0:0:
192,192,45507,1,2,0:0:0:0:
320,192,45573,1,2,0:0:0:0:
448,192,45573,1,0,0:0:0:0:
192,192,45638,1,2,0:0:0:0:
448,192,45704,1,0,0:0:0:0:
64,192,45704,1,2,0:0:0:0:
320,192,45770,1,2,0:0:0:0:
64,192,45836,1,0,0:0:0:0:
192,192,45836,1,2,0:0:0:0:
448,192,45902,1,2,0:0:0:0:
192,192,45967,1,0,0:0:0:0:
320,192,45967,1,2,0:0:0:0:
64,192,46033,1,2,0:0:0:0:
320,192,46099,1,8,0:0:0:0:
448,192,46099,1,0,0:0:0:0:
192,192,46165,1,8,0:0:0:0:
64,192,46165,1,0,0:0:0:0:
320,192,46231,1,8,0:0:0:0:
448,192,46231,1,0,0:0:0:0:
192,192,46296,1,8,0:0:0:0:
64,192,46296,1,0,0:0:0:0:
320,192,46362,1,2,0:0:0:0:
448,192,46362,1,2,0:0:0:0:
192,192,46428,1,2,0:0:0:0:
64,192,46494,1,2,0:0:0:0:
448,192,46559,1,2,0:0:0:0:
64,192,46625,1,2,0:0:0:0:
320,192,46625,1,2,0:0:0:0:
192,192,46888,1,0,0:0:0:0:
448,192,46888,1,4,0:0:0:0:
64,192,46888,1,2,0:0:0:0:
320,192,46954,1,2,0:0:0:0:
192,192,47020,1,8,0:0:0:0:
64,192,47020,1,0,0:0:0:0:
448,192,47086,1,2,0:0:0:0:
320,192,47152,1,8,0:0:0:0:
64,192,47152,1,0,0:0:0:0:
192,192,47217,1,2,0:0:0:0:
320,192,47283,1,0,0:0:0:0:
448,192,47283,1,8,0:0:0:0:
192,192,47349,1,2,0:0:0:0:
64,192,47415,1,8,0:0:0:0:
448,192,47415,1,0,0:0:0:0:
320,192,47481,1,2,0:0:0:0:
192,192,47546,1,8,0:0:0:0:
64,192,47546,1,0,0:0:0:0:
448,192,47612,1,2,0:0:0:0:
64,192,47678,1,4,0:0:0:0:
320,192,47678,1,8,0:0:0:0:
192,192,47744,1,2,0:0:0:0:
320,192,47809,1,2,0:0:0:0:
448,192,47875,1,2,0:0:0:0:
64,192,47941,1,2,0:0:0:0:
192,192,48007,1,2,0:0:0:0:
320,192,48073,1,0,0:0:0:0:
64,192,48073,1,4,0:0:0:0:
448,192,48073,1,8,0:0:0:0:
192,192,48138,1,2,0:0:0:0:
320,192,48204,1,2,0:0:0:0:
448,192,48270,1,2,0:0:0:0:
64,192,48336,1,2,0:0:0:0:
192,192,48402,1,2,0:0:0:0:
320,192,48467,1,0,0:0:0:0:
448,192,48467,1,4,0:0:0:0:
64,192,48467,1,8,0:0:0:0:
64,192,48731,1,2,0:0:0:0:
448,192,48731,1,2,0:0:0:0:
192,192,48818,1,2,0:0:0:0:
320,192,48906,1,2,0:0:0:0:
448,192,48994,1,2,0:0:0:0:
192,192,48994,1,2,0:0:0:0:
64,192,49081,1,2,0:0:0:0:
320,192,49169,1,2,0:0:0:0:
192,192,49257,1,8,0:0:0:0:
64,192,49257,1,0,0:0:0:0:
320,192,49345,1,8,0:0:0:0:
448,192,49345,1,0,0:0:0:0:
192,192,49432,1,2,0:0:0:0:
64,192,49520,1,2,0:0:0:0:
448,192,49608,1,2,0:0:0:0:
320,192,49695,1,2,0:0:0:0:
64,192,49783,1,0,0:0:0:0:
192,192,49783,1,8,0:0:0:0:
320,192,49871,1,8,0:0:0:0:
448,192,49871,1,0,0:0:0:0:
192,192,49959,1,8,0:0:0:0:
64,192,49959,1,0,0:0:0:0:
320,192,50046,1,8,0:0:0:0:
448,192,50046,1,0,0:0:0:0:
192,192,50134,1,8,0:0:0:0:
64,192,50134,1,0,0:0:0:0:
320,192,50222,1,8,0:0:0:0:
192,192,50309,1,0,0:0:0:0:
64,192,50309,1,2,0:0:0:0:
448,192,50309,1,4,0:0:0:0:
320,192,50397,1,2,0:0:0:0:
64,192,50485,1,2,0:0:0:0:
448,192,50485,1,4,0:0:0:0:
192,192,50573,1,2,0:0:0:0:
448,192,50660,1,0,0:0:0:0:
320,192,50660,1,4,0:0:0:0:
64,192,50660,1,2,0:0:0:0:
192,192,50748,1,2,0:0:0:0:
448,192,50836,1,2,0:0:0:0:
64,192,50924,1,2,0:0:0:0:
448,192,51011,1,2,0:0:0:0:
192,192,51099,1,2,0:0:0:0:
320,192,51187,1,2,0:0:0:0:
192,192,51274,1,2,0:0:0:0:
448,192,51362,1,2,0:0:0:0:
64,192,51450,1,2,0:0:0:0:
448,192,51538,1,2,0:0:0:0:
192,192,51625,1,2,0:0:0:0:
320,192,51713,1,2,0:0:0:0:
192,192,51801,1,2,0:0:0:0:
64,192,51888,128,0,52415:0:0:0:0:
448,192,51888,1,8,0:0:0:0:
320,192,51888,1,8,0:0:0:0:
448,192,52415,1,2,0:0:0:0:
192,192,52502,1,2,0:0:0:0:
448,192,52590,1,2,0:0:0:0:
64,192,52678,1,2,0:0:0:0:
320,192,52766,1,2,0:0:0:0:
64,192,52853,1,2,0:0:0:0:
448,192,52941,1,2,0:0:0:0:
192,192,53029,1,2,0:0:0:0:
448,192,53117,1,2,0:0:0:0:
64,192,53204,1,2,0:0:0:0:
320,192,53292,1,2,0:0:0:0:
64,192,53380,1,2,0:0:0:0:
192,192,53467,128,0,53994:0:0:0:0:
320,192,53467,1,8,0:0:0:0:
448,192,53467,1,8,0:0:0:0:
320,192,53994,1,8,0:0:0:0:
448,192,53994,1,8,0:0:0:0:
64,192,54059,1,2,0:0:0:0:
320,192,54125,1,8,0:0:0:0:
448,192,54125,1,8,0:0:0:0:
192,192,54191,1,2,0:0:0:0:
64,192,54257,1,2,0:0:0:0:
320,192,54323,1,2,0:0:0:0:
192,192,54388,1,8,0:0:0:0:
64,192,54388,1,8,0:0:0:0:
448,192,54454,1,2,0:0:0:0:
192,192,54520,1,8,0:0:0:0:
64,192,54520,1,8,0:0:0:0:
320,192,54586,1,2,0:0:0:0:
448,192,54652,1,2,0:0:0:0:
64,192,54717,1,2,0:0:0:0:
320,192,54783,1,8,0:0:0:0:
448,192,54783,1,8,0:0:0:0:
192,192,54849,1,2,0:0:0:0:
320,192,54915,1,8,0:0:0:0:
448,192,54915,1,8,0:0:0:0:
64,192,54981,1,2,0:0:0:0:
192,192,55046,1,2,0:0:0:0:
448,192,55134,1,2,0:0:0:0:
192,192,55222,1,2,0:0:0:0:
320,192,55309,1,2,0:0:0:0:
64,192,55397,1,2,0:0:0:0:
320,192,55485,1,2,0:0:0:0:
192,192,55573,1,2,0:0:0:0:
448,192,55660,1,2,0:0:0:0:
192,192,55748,1,2,0:0:0:0:
320,192,55836,1,2,0:0:0:0:
64,192,55924,1,2,0:0:0:0:
320,192,56011,1,2,0:0:0:0:
192,192,56099,128,0,56625:0:0:0:0:
448,192,56099,1,8,0:0:0:0:
64,192,56099,1,8,0:0:0:0:
448,192,56625,1,2,0:0:0:0:
64,192,56713,1,2,0:0:0:0:
448,192,56801,1,2,0:0:0:0:
192,192,56888,1,2,0:0:0:0:
320,192,56976,1,2,0:0:0:0:
192,192,57064,1,2,0:0:0:0:
448,192,57152,1,2,0:0:0:0:
64,192,57239,1,2,0:0:0:0:
448,192,57327,1,2,0:0:0:0:
192,192,57415,1,2,0:0:0:0:
320,192,57502,1,2,0:0:0:0:
192,192,57590,1,2,0:0:0:0:
320,192,57678,1,8,0:0:0:0:
64,192,57678,128,0,58204:0:0:0:0:
448,192,57678,128,0,57941:0:0:0:0:
192,192,58204,1,0,0:0:0:0:
448,192,58204,1,0,0:0:0:0:
320,192,58292,1,8,0:0:0:0:
448,192,58380,1,8,0:0:0:0:
192,192,58467,1,0,0:0:0:0:
64,192,58467,1,0,0:0:0:0:
320,192,58555,1,8,0:0:0:0:
192,192,58643,1,8,0:0:0:0:
448,192,58731,1,0,0:0:0:0:
64,192,58731,1,0,0:0:0:0:
320,192,58818,1,8,0:0:0:0:
64,192,58906,1,8,0:0:0:0:
192,192,58994,1,0,0:0:0:0:
320,192,58994,1,0,0:0:0:0:
448,192,59081,1,8,0:0:0:0:
192,192,59169,1,8,0:0:0:0:
64,192,59257,1,2,0:0:0:0:
320,192,59257,1,0,0:0:0:0:
448,192,59345,1,2,0:0:0:0:
64,192,59432,1,2,0:0:0:0:
320,192,59520,1,2,0:0:0:0:
192,192,59608,1,2,0:0:0:0:
320,192,59695,1,2,0:0:0:0:
64,192,59783,1,0,0:0:0:0:
192,192,59783,1,8,0:0:0:0:
448,192,59871,1,2,0:0:0:0:
64,192,59959,1,2,0:0:0:0:
320,192,60046,1,2,0:0:0:0:
192,192,60134,1,2,0:0:0:0:
320,192,60222,1,2,0:0:0:0:
448,192,60309,128,0,60836:0:0:0:0:
64,192,60309,1,8,0:0:0:0:
192,192,60309,128,0,60704:0:0:0:0:
64,192,60836,1,8,0:0:0:0:
192,192,60836,1,0,0:0:0:0:
320,192,60924,1,2,0:0:0:0:
64,192,61011,1,2,0:0:0:0:
448,192,61099,1,2,0:0:0:0:
192,192,61187,1,2,0:0:0:0:
448,192,61274,1,2,0:0:0:0:
64,192,61362,1,8,0:0:0:0:
192,192,61362,1,0,0:0:0:0:
320,192,61450,1,2,0:0:0:0:
64,192,61538,1,2,0:0:0:0:
448,192,61625,1,2,0:0:0:0:
192,192,61713,1,2,0:0:0:0:
448,192,61801,1,2,0:0:0:0:
192,192,61888,1,8,0:0:0:0:
320,192,61888,128,0,62283:0:0:0:0:
64,192,61888,128,0,62415:0:0:0:0:
192,192,62415,1,2,0:0:0:0:
320,192,62415,1,0,0:0:0:0:
448,192,62481,1,2,0:0:0:0:
64,192,62546,1,2,0:0:0:0:
192,192,62612,1,2,0:0:0:0:
320,192,62678,1,2,0:0:0:0:
448,192,62678,1,0,0:0:0:0:
320,192,62941,1,2,0:0:0:0:
448,192,62941,1,0,0:0:0:0:
448,192,63073,1,0,0:0:0:0:
320,192,63073,1,2,0:0:0:0:
320,192,63204,1,2,0:0:0:0:
448,192,63204,1,0,0:0:0:0:
320,192,63336,1,2,0:0:0:0:
448,192,63336,1,0,0:0:0:0:
320,192,63467,1,8,0:0:0:0:
448,192,63467,1,0,0:0:0:0:
64,192,63555,1,2,0:0:0:0:
320,192,63643,1,2,0:0:0:0:
192,192,63731,1,2,0:0:0:0:
448,192,63818,1,2,0:0:0:0:
192,192,63906,1,2,0:0:0:0:
320,192,63994,1,8,0:0:0:0:
448,192,63994,1,0,0:0:0:0:
64,192,64081,1,2,0:0:0:0:
320,192,64169,1,2,0:0:0:0:
192,192,64257,1,2,0:0:0:0:
448,192,64345,1,2,0:0:0:0:
192,192,64432,1,2,0:0:0:0:
320,192,64520,1,8,0:0:0:0:
64,192,64520,128,0,64915:0:0:0:0:
448,192,64520,128,0,65046:0:0:0:0:
64,192,65046,1,8,0:0:0:0:
192,192,65046,1,0,0:0:0:0:
320,192,65112,1,2,0:0:0:0:
64,192,65178,1,2,0:0:0:0:
448,192,65244,1,2,0:0:0:0:
192,192,65309,1,2,0:0:0:0:
448,192,65375,1,2,0:0:0:0:
64,192,65441,1,2,0:0:0:0:
320,192,65507,1,2,0:0:0:0:
448,192,65573,1,0,0:0:0:0:
64,192,65573,1,8,0:0:0:0:
192,192,65638,1,2,0:0:0:0:
320,192,65704,1,2,0:0:0:0:
192,192,65770,1,2,0:0:0:0:
448,192,65836,1,8,0:0:0:0:
320,192,65836,1,0,0:0:0:0:
320,192,66099,1,0,0:0:0:0:
448,192,66099,1,0,0:0:0:0:
64,192,66165,1,2,0:0:0:0:
192,192,66231,1,2,0:0:0:0:
320,192,66296,1,2,0:0:0:0:
192,192,66362,1,0,0:0:0:0:
448,192,66362,1,0,0:0:0:0:
64,192,66428,1,2,0:0:0:0:
320,192,66494,1,2,0:0:0:0:
192,192,66559,1,2,0:0:0:0:
320,192,66625,1,8,0:0:0:0:
448,192,66625,1,0,0:0:0:0:
64,192,66691,1,0,0:0:0:0:
192,192,66691,1,8,0:0:0:0:
320,192,66757,1,8,0:0:0:0:
448,192,66757,1,0,0:0:0:0:
64,192,66823,1,0,0:0:0:0:
192,192,66823,1,8,0:0:0:0:
320,192,66888,1,8,0:0:0:0:
448,192,66888,1,0,0:0:0:0:
192,192,66954,1,8,0:0:0:0:
64,192,66954,1,0,0:0:0:0:
448,192,67020,1,2,0:0:0:0:
320,192,67086,1,2,0:0:0:0:
192,192,67152,1,2,0:0:0:0:
64,192,67152,1,2,0:0:0:0:
320,192,67217,1,2,0:0:0:0:
64,192,67283,1,2,0:0:0:0:
192,192,67349,1,2,0:0:0:0:
320,192,67415,1,0,0:0:0:0:
64,192,67415,1,4,0:0:0:0:
448,192,67415,1,2,0:0:0:0:
64,192,67678,1,2,0:0:0:0:
192,192,67678,1,0,0:0:0:0:
448,192,67678,1,4,0:0:0:0:
320,192,67744,1,8,0:0:0:0:
192,192,67809,1,2,0:0:0:0:
448,192,67875,1,8,0:0:0:0:
64,192,67875,1,0,0:0:0:0:
320,192,67941,1,2,0:0:0:0:
192,192,68007,1,8,0:0:0:0:
64,192,68007,1,0,0:0:0:0:
448,192,68073,1,2,0:0:0:0:
320,192,68138,1,0,0:0:0:0:
64,192,68138,1,8,0:0:0:0:
192,192,68204,1,2,0:0:0:0:
320,192,68270,1,8,0:0:0:0:
448,192,68270,1,0,0:0:0:0:
64,192,68336,1,2,0:0:0:0:
192,192,68402,1,8,0:0:0:0:
320,192,68402,1,0,0:0:0:0:
448,192,68467,1,2,0:0:0:0:
192,192,68533,1,8,0:0:0:0:
64,192,68533,1,0,0:0:0:0:
320,192,68599,1,2,0:0:0:0:
448,192,68665,1,0,0:0:0:0:
192,192,68665,1,8,0:0:0:0:
64,192,68731,1,2,0:0:0:0:
320,192,68796,1,0,0:0:0:0:
448,192,68796,1,8,0:0:0:0:
192,192,68862,1,2,0:0:0:0:
448,192,68928,1,0,0:0:0:0:
64,192,68928,1,8,0:0:0:0:
320,192,68994,1,2,0:0:0:0:
64,192,69059,1,0,0:0:0:0:
192,192,69059,1,8,0:0:0:0:
448,192,69125,1,2,0:0:0:0:
320,192,69191,1,8,0:0:0:0:
192,192,69191,1,0,0:0:0:0:
64,192,69257,1,2,0:0:0:0:
320,192,69323,1,0,0:0:0:0:
448,192,69323,1,8,0:0:0:0:
192,192,69388,1,2,0:0:0:0:
64,192,69454,1,0,0:0:0:0:
320,192,69454,1,8,0:0:0:0:
448,192,69520,1,2,0:0:0:0:
192,192,69586,1,8,0:0:0:0:
64,192,69586,1,0,0:0:0:0:
320,192,69652,1,2,0:0:0:0:
64,192,69717,1,8,0:0:0:0:
448,192,69717,1,0,0:0:0:0:
192,192,69783,1,2,0:0:0:0:
320,192,69849,1,8,0:0:0:0:
448,192,69849,1,0,0:0:0:0:
64,192,69915,1,2,0:0:0:0:
192,192,69981,1,0,0:0:0:0:
448,192,69981,1,8,0:0:0:0:
320,192,70046,1,2,0:0:0:0:
192,192,70112,1,8,0:0:0:0:
64,192,70112,1,0,0:0:0:0:
448,192,70178,1,2,0:0:0:0:
192,192,70244,1,0,0:0:0:0:
320,192,70244,1,8,0:0:0:0:
64,192,70309,1,2,0:0:0:0:
320,192,70375,1,0,0:0:0:0:
448,192,70375,1,8,0:0:0:0:
192,192,70441,1,2,0:0:0:0:
64,192,70507,1,0,0:0:0:0:
320,192,70507,1,8,0:0:0:0:
448,192,70573,1,2,0:0:0:0:
192,192,70638,1,0,0:0:0:0:
64,192,70638,1,8,0:0:0:0:
320,192,70704,1,2,0:0:0:0:
448,192,70770,1,0,0:0:0:0:
64,192,70770,1,8,0:0:0:0:
192,192,70836,1,2,0:0:0:0:
320,192,70902,1,8,0:0:0:0:
448,192,70902,1,0,0:0:0:0:
64,192,70967,1,2,0:0:0:0:
192,192,71033,1,8,0:0:0:0:
320,192,71033,1,0,0:0:0:0:
448,192,71099,1,2,0:0:0:0:
64,192,71165,1,8,0:0:0:0:
192,192,71165,1,0,0:0:0:0:
320,192,71231,1,2,0:0:0:0:
192,192,71296,1,8,0:0:0:0:
448,192,71296,1,0,0:0:0:0:
64,192,71362,1,2,0:0:0:0:
448,192,71428,1,8,0:0:0:0:
320,192,71428,1,0,0:0:0:0:
192,192,71494,1,2,0:0:0:0:
448,192,71559,1,0,0:0:0:0:
64,192,71559,1,8,0:0:0:0:
320,192,71625,1,2,0:0:0:0:
192,192,71691,1,8,0:0:0:0:
64,192,71691,1,0,0:0:0:0:
320,192,71757,1,2,0:0:0:0:
64,192,71823,1,8,0:0:0:0:
448,192,71823,1,0,0:0:0:0:
192,192,71888,1,2,0:0:0:0:
448,192,71954,1,0,0:0:0:0:
320,192,71954,1,8,0:0:0:0:
64,192,72020,1,2,0:0:0:0:
448,192,72086,1,8,0:0:0:0:
192,192,72086,1,0,0:0:0:0:
320,192,72152,1,2,0:0:0:0:
64,192,72217,1,0,0:0:0:0:
192,192,72217,1,8,0:0:0:0:
448,192,72283,1,2,0:0:0:0:
320,192,72349,1,8,0:0:0:0:
192,192,72349,1,0,0:0:0:0:
64,192,72415,1,2,0:0:0:0:
448,192,72481,1,0,0:0:0:0:
320,192,72481,1,8,0:0:0:0:
192,192,72546,1,2,0:0:0:0:
64,192,72612,1,0,0:0:0:0:
320,192,72612,1,8,0:0:0:0:
448,192,72678,1,2,0:0:0:0:
192,192,72744,1,2,0:0:0:0:
320,192,72809,1,2,0:0:0:0:
64,192,72875,1,2,0:0:0:0:
192,192,72941,1,2,0:0:0:0:
448,192,72941,1,2,0:0:0:0:
320,192,73007,1,2,0:0:0:0:
64,192,73073,1,2,0:0:0:0:
192,192,73138,1,2,0:0:0:0:
448,192,73204,1,2,0:0:0:0:
320,192,73204,1,2,0:0:0:0:
64,192,73270,1,2,0:0:0:0:
192,192,73336,1,2,0:0:0:0:
448,192,73336,1,2,0:0:0:0:
320,192,73402,1,2,0:0:0:0:
192,192,73467,1,2,0:0:0:0:
64,192,73533,1,2,0:0:0:0:
448,192,73599,1,2,0:0:0:0:
320,192,73665,1,2,0:0:0:0:
192,192,73731,1,8,0:0:0:0:
64,192,73731,1,0,0:0:0:0:
192,192,73862,1,8,0:0:0:0:
64,192,73862,1,0,0:0:0:0:
64,192,73994,1,4,0:0:0:0:
192,192,73994,1,0,0:0:0:0:
320,192,73994,1,2,0:0:0:0:
320,192,74125,1,8,0:0:0:0:
448,192,74125,1,0,0:0:0:0:
64,192,74257,1,0,0:0:0:0:
192,192,74257,1,2,0:0:0:0:
448,192,74323,1,2,0:0:0:0:
320,192,74388,1,0,0:0:0:0:
192,192,74388,1,8,0:0:0:0:
192,192,74520,1,0,0:0:0:0:
448,192,74520,1,0,0:0:0:0:
64,192,74520,1,2,0:0:0:0:
320,192,74652,1,8,0:0:0:0:
64,192,74652,1,0,0:0:0:0:
192,192,74783,1,2,0:0:0:0:
448,192,74783,1,0,0:0:0:0:
320,192,74849,1,2,0:0:0:0:
64,192,74915,1,2,0:0:0:0:
192,192,74981,1,2,0:0:0:0:
448,192,75046,1,0,0:0:0:0:
320,192,75046,1,8,0:0:0:0:
64,192,75178,1,2,0:0:0:0:
192,192,75309,1,8,0:0:0:0:
448,192,75309,1,0,0:0:0:0:
320,192,75441,1,2,0:0:0:0:
192,192,75573,1,2,0:0:0:0:
64,192,75573,1,0,0:0:0:0:
448,192,75638,1,8,0:0:0:0:
320,192,75704,1,2,0:0:0:0:
64,192,75704,1,0,0:0:0:0:
192,192,75770,1,8,0:0:0:0:
448,192,75836,1,8,0:0:0:0:
320,192,75836,1,0,0:0:0:0:
320,192,75967,1,0,0:0:0:0:
448,192,75967,1,8,0:0:0:0:
64,192,76099,1,2,0:0:0:0:
192,192,76099,1,4,0:0:0:0:
448,192,76099,1,0,0:0:0:0:
320,192,76231,1,8,0:0:0:0:
448,192,76231,1,0,0:0:0:0:
192,192,76362,1,2,0:0:0:0:
320,192,76428,1,2,0:0:0:0:
64,192,76494,1,8,0:0:0:0:
448,192,76494,1,0,0:0:0:0:
192,192,76625,1,2,0:0:0:0:
320,192,76757,1,8,0:0:0:0:
64,192,76757,1,0,0:0:0:0:
448,192,76888,1,2,0:0:0:0:
320,192,76954,1,2,0:0:0:0:
448,192,77020,1,8,0:0:0:0:
192,192,77020,1,0,0:0:0:0:
64,192,77152,1,2,0:0:0:0:
320,192,77283,1,0,0:0:0:0:
448,192,77283,1,8,0:0:0:0:
192,192,77415,1,2,0:0:0:0:
320,192,77481,1,2,0:0:0:0:
192,192,77546,1,0,0:0:0:0:
448,192,77546,1,8,0:0:0:0:
64,192,77678,1,2,0:0:0:0:
320,192,77809,1,8,0:0:0:0:
192,192,77809,1,0,0:0:0:0:
448,192,77941,1,2,0:0:0:0:
192,192,78073,1,8,0:0:0:0:
64,192,78073,1,0,0:0:0:0:
320,192,78204,1,4,0:0:0:0:
448,192,78204,1,2,0:0:0:0:
192,192,78292,1,2,0:0:0:0:
320,192,78380,1,2,0:0:0:0:
448,192,78467,1,0,0:0:0:0:
192,192,78467,1,0,0:0:0:0:
64,192,78555,1,2,0:0:0:0:
320,192,78643,1,2,0:0:0:0:
192,192,78731,1,2,0:0:0:0:
64,192,78731,1,2,0:0:0:0:
448,192,78818,1,2,0:0:0:0:
192,192,78906,1,2,0:0:0:0:
448,192,78994,1,0,0:0:0:0:
320,192,78994,1,2,0:0:0:0:
64,192,79081,1,2,0:0:0:0:
192,192,79169,1,2,0:0:0:0:
320,192,79257,1,2,0:0:0:0:
64,192,79257,1,0,0:0:0:0:
448,192,79345,1,2,0:0:0:0:
192,192,79432,1,2,0:0:0:0:
320,192,79520,1,2,0:0:0:0:
448,192,79520,1,0,0:0:0:0:
192,192,79608,1,2,0:0:0:0:
320,192,79695,1,2,0:0:0:0:
448,192,79783,1,0,0:0:0:0:
64,192,79783,1,2,0:0:0:0:
192,192,79871,1,2,0:0:0:0:
320,192,79959,1,2,0:0:0:0:
192,192,80046,1,0,0:0:0:0:
64,192,80046,1,8,0:0:0:0:
448,192,80046,1,8,0:0:0:0:
448,192,80309,1,2,0:0:0:0:
320,192,80309,1,4,0:0:0:0:
64,192,80309,1,0,0:0:0:0:
64,192,80441,1,0,0:0:0:0:
192,192,80441,1,8,0:0:0:0:
320,192,80573,1,2,0:0:0:0:
192,192,80638,1,2,0:0:0:0:
448,192,80704,1,8,0:0:0:0:
64,192,80704,1,0,0:0:0:0:
320,192,80836,1,2,0:0:0:0:
192,192,80967,1,8,0:0:0:0:
448,192,80967,1,0,0:0:0:0:
64,192,81099,1,2,0:0:0:0:
192,192,81165,1,2,0:0:0:0:
320,192,81231,1,0,0:0:0:0:
64,192,81231,1,8,0:0:0:0:
448,192,81362,1,0,0:0:0:0:
192,192,81362,1,8,0:0:0:0:
320,192,81428,1,8,0:0:0:0:
64,192,81494,1,8,0:0:0:0:
192,192,81494,1,0,0:0:0:0:
64,192,81625,1,8,0:0:0:0:
192,192,81625,1,0,0:0:0:0:
192,192,81757,1,0,0:0:0:0:
64,192,81757,1,8,0:0:0:0:
320,192,81888,1,4,0:0:0:0:
448,192,81888,1,2,0:0:0:0:
64,192,81888,1,0,0:0:0:0:
448,192,82152,1,0,0:0:0:0:
320,192,82152,1,4,0:0:0:0:
64,192,82415,1,2,0:0:0:0:
448,192,82481,1,0,0:0:0:0:
320,192,82481,1,8,0:0:0:0:
192,192,82546,1,2,0:0:0:0:
64,192,82612,1,0,0:0:0:0:
448,192,82612,1,8,0:0:0:0:
320,192,82678,1,2,0:0:0:0:
192,192,82744,1,8,0:0:0:0:
64,192,82744,1,0,0:0:0:0:
448,192,82809,1,2,0:0:0:0:
320,192,82875,1,8,0:0:0:0:
192,192,82875,1,0,0:0:0:0:
64,192,82941,1,2,0:0:0:0:
448,192,83007,1,8,0:0:0:0:
320,192,83007,1,0,0:0:0:0:
192,192,83073,1,2,0:0:0:0:
64,192,83138,1,0,0:0:0:0:
320,192,83138,1,8,0:0:0:0:
448,192,83204,1,2,0:0:0:0:
192,192,83270,1,8,0:0:0:0:
64,192,83270,1,0,0:0:0:0:
320,192,83336,1,2,0:0:0:0:
64,192,83402,1,8,0:0:0:0:
448,192,83402,1,0,0:0:0:0:
192,192,83467,1,2,0:0:0:0:
320,192,83533,1,8,0:0:0:0:
448,192,83533,1,0,0:0:0:0:
64,192,83599,1,2,0:0:0:0:
192,192,83665,1,8,0:0:0:0:
320,192,83665,1,0,0:0:0:0:
448,192,83731,1,2,0:0:0:0:
192,192,83796,1,0,0:0:0:0:
64,192,83796,1,8,0:0:0:0:
320,192,83862,1,2,0:0:0:0:
448,192,83928,1,8,0:0:0:0:
64,192,83928,1,0,0:0:0:0:
192,192,83994,1,2,0:0:0:0:
320,192,84059,1,8,0:0:0:0:
448,192,84059,1,0,0:0:0:0:
192,192,84125,1,2,0:0:0:0:
64,192,84191,1,0,0:0:0:0:
448,192,84191,1,8,0:0:0:0:
320,192,84257,1,2,0:0:0:0:
192,192,84323,1,8,0:0:0:0:
64,192,84323,1,0,0:0:0:0:
448,192,84388,1,2,0:0:0:0:
320,192,84454,1,8,0:0:0:0:
64,192,84454,1,0,0:0:0:0:
192,192,84520,1,2,0:0:0:0:
320,192,84586,1,0,0:0:0:0:
448,192,84586,1,8,0:0:0:0:
64,192,84652,1,2,0:0:0:0:
192,192,84717,1,8,0:0:0:0:
320,192,84717,1,0,0:0:0:0:
448,192,84783,1,2,0:0:0:0:
64,192,84849,1,8,0:0:0:0:
192,192,84849,1,0,0:0:0:0:
320,192,84915,1,2,0:0:0:0:
448,192,84981,1,0,0:0:0:0:
192,192,84981,1,8,0:0:0:0:
64,192,85046,1,2,0:0:0:0:
320,192,85112,1,8,0:0:0:0:
448,192,85112,1,0,0:0:0:0:
192,192,85178,1,2,0:0:0:0:
448,192,85244,1,8,0:0:0:0:
64,192,85244,1,0,0:0:0:0:
320,192,85309,1,2,0:0:0:0:
192,192,85375,1,8,0:0:0:0:
64,192,85375,1,0,0:0:0:0:
448,192,85441,1,2,0:0:0:0:
192,192,85507,1,0,0:0:0:0:
320,192,85507,1,8,0:0:0:0:
64,192,85573,1,2,0:0:0:0:
320,192,85638,1,0,0:0:0:0:
448,192,85638,1,8,0:0:0:0:
192,192,85704,1,2,0:0:0:0:
64,192,85770,1,8,0:0:0:0:
448,192,85770,1,0,0:0:0:0:
320,192,85836,1,2,0:0:0:0:
192,192,85902,1,8,0:0:0:0:
64,192,85902,1,0,0:0:0:0:
448,192,85967,1,2,0:0:0:0:
320,192,86033,1,0,0:0:0:0:
64,192,86033,1,8,0:0:0:0:
192,192,86099,1,2,0:0:0:0:
448,192,86165,1,2,0:0:0:0:
320,192,86231,1,2,0:0:0:0:
192,192,86296,1,2,0:0:0:0:
64,192,86362,1,8,0:0:0:0:
320,192,86362,1,0,0:0:0:0:
448,192,86362,1,8,0:0:0:0:
320,192,86625,1,4,0:0:0:0:
448,192,86625,1,8,0:0:0:0:
192,192,86691,1,2,0:0:0:0:
448,192,86757,1,2,0:0:0:0:
64,192,86823,1,2,0:0:0:0:
192,192,86888,1,2,0:0:0:0:
320,192,86954,1,2,0:0:0:0:
448,192,87020,1,8,0:0:0:0:
64,192,87020,1,4,0:0:0:0:
192,192,87086,1,2,0:0:0:0:
320,192,87152,1,2,0:0:0:0:
64,192,87217,1,2,0:0:0:0:
448,192,87283,1,2,0:0:0:0:
320,192,87349,1,2,0:0:0:0:
192,192,87415,1,8,0:0:0:0:
64,192,87415,1,8,0:0:0:0:
448,192,87481,1,2,0:0:0:0:
192,192,87546,1,8,0:0:0:0:
64,192,87546,1,8,0:0:0:0:
448,192,87612,1,2,0:0:0:0:
64,192,87678,1,8,0:0:0:0:
192,192,87678,1,12,0:0:0:0:
320,192,87744,1,2,0:0:0:0:
448,192,87809,1,2,0:0:0:0:
192,192,87875,1,2,0:0:0:0:
320,192,87941,1,2,0:0:0:0:
64,192,88007,1,2,0:0:0:0:
192,192,88073,1,8,0:0:0:0:
448,192,88073,1,8,0:0:0:0:
320,192,88073,1,4,0:0:0:0:
64,192,88138,1,2,0:0:0:0:
192,192,88204,1,2,0:0:0:0:
320,192,88270,1,2,0:0:0:0:
448,192,88336,1,2,0:0:0:0:
192,192,88402,1,2,0:0:0:0:
64,192,88467,1,2,0:0:0:0:
448,192,88533,1,2,0:0:0:0:
320,192,88599,1,2,0:0:0:0:
192,192,88665,1,2,0:0:0:0:
64,192,88731,1,8,0:0:0:0:
448,192,88731,1,8,0:0:0:0:
320,192,88796,1,8,0:0:0:0:
192,192,88862,1,8,0:0:0:0:
448,192,88862,1,8,0:0:0:0:
64,192,88928,1,8,0:0:0:0:
320,192,88994,1,8,0:0:0:0:
192,192,88994,1,8,0:0:0:0:
448,192,89059,1,8,0:0:0:0:
64,192,89125,1,8,0:0:0:0:
320,192,89125,1,8,0:0:0:0:
192,192,89191,1,8,0:0:0:0:
448,192,89257,1,8,0:0:0:0:
64,192,89257,1,8,0:0:0:0:
320,192,89323,1,8,0:0:0:0:
192,192,89388,1,8,0:0:0:0:
448,192,89388,1,8,0:0:0:0:
64,192,89454,1,8,0:0:0:0:
192,192,89520,1,8,0:0:0:0:
320,192,89520,1,8,0:0:0:0:
448,192,89586,1,8,0:0:0:0:
320,192,89652,1,8,0:0:0:0:
64,192,89652,1,8,0:0:0:0:
192,192,89717,1,8,0:0:0:0:
448,192,89783,1,8,0:0:0:0:
64,192,89783,1,8,0:0:0:0:
320,192,89849,1,8,0:0:0:0:
192,192,89915,1,8,0:0:0:0:
448,192,89915,1,8,0:0:0:0:
64,192,89981,1,8,0:0:0:0:
320,192,90046,1,8,0:0:0:0:
192,192,90046,1,8,0:0:0:0:
448,192,90112,1,8,0:0:0:0:
64,192,90178,1,8,0:0:0:0:
320,192,90178,1,8,0:0:0:0:
192,192,90244,1,8,0:0:0:0:
64,192,90309,1,8,0:0:0:0:
448,192,90309,1,8,0:0:0:0:
320,192,90375,1,8,0:0:0:0:
192,192,90441,1,8,0:0:0:0:
448,192,90507,1,8,0:0:0:0:
320,192,90573,1,8,0:0:0:0:
64,192,90573,1,8,0:0:0:0:
192,192,90573,1,4,0:0:0:0:
448,192,90836,1,4,0:0:0:0:
64,192,90836,128,0,91362:0:0:0:0:
192,192,90836,1,2,0:0:0:0:
320,192,90967,1,2,0:0:0:0:
192,192,91099,1,2,0:0:0:0:
448,192,91231,1,2,0:0:0:0:
320,192,91362,1,2,0:0:0:0:
192,192,91362,1,0,0:0:0:0:
448,192,91494,1,2,0:0:0:0:
64,192,91625,1,2,0:0:0:0:
320,192,91757,1,2,0:0:0:0:
448,192,91888,128,0,92415:0:0:0:0:
64,192,91888,1,8,0:0:0:0:
192,192,91888,1,8,0:0:0:0:
320,192,92020,5,2,0:0:0:0:
192,192,92152,1,2,0:0:0:0:
320,192,92283,1,0,0:0:0:0:
64,192,92283,1,0,0:0:0:0:
192,192,92415,1,2,0:0:0:0:
64,192,92546,1,0,0:0:0:0:
320,192,92546,1,0,0:0:0:0:
192,192,92678,1,2,0:0:0:0:
64,192,92809,1,0,0:0:0:0:
320,192,92809,1,0,0:0:0:0:
192,192,92941,1,2,0:0:0:0:
448,192,92941,1,0,0:0:0:0:
64,192,93073,1,2,0:0:0:0:
320,192,93204,1,2,0:0:0:0:
192,192,93336,1,2,0:0:0:0:
320,192,93467,1,2,0:0:0:0:
448,192,93467,1,0,0:0:0:0:
64,192,93599,1,2,0:0:0:0:
448,192,93731,1,0,0:0:0:0:
192,192,93731,1,0,0:0:0:0:
320,192,93862,1,2,0:0:0:0:
448,192,93994,1,0,0:0:0:0:
64,192,93994,1,8,0:0:0:0:
192,192,93994,1,8,0:0:0:0:
320,192,94125,1,2,0:0:0:0:
64,192,94257,1,0,0:0:0:0:
192,192,94257,1,0,0:0:0:0:
320,192,94388,1,0,0:0:0:0:
448,192,94388,1,0,0:0:0:0:
192,192,94520,1,2,0:0:0:0:
320,192,94652,1,0,0:0:0:0:
448,192,94652,1,0,0:0:0:0:
64,192,94783,1,0,0:0:0:0:
192,192,94783,1,0,0:0:0:0:
448,192,94915,1,0,0:0:0:0:
320,192,95046,128,0,95573:0:0:0:0:
192,192,95046,1,2,0:0:0:0:
64,192,95046,1,4,0:0:0:0:
448,192,95178,1,2,0:0:0:0:
64,192,95309,1,2,0:0:0:0:
192,192,95441,1,2,0:0:0:0:
64,192,95573,1,0,0:0:0:0:
448,192,95573,1,2,0:0:0:0:
192,192,95704,1,2,0:0:0:0:
448,192,95836,1,2,0:0:0:0:
320,192,95967,1,2,0:0:0:0:
448,192,96099,1,8,0:0:0:0:
64,192,96099,1,8,0:0:0:0:
192,192,96099,128,0,96625:0:0:0:0:
320,192,96231,5,2,0:0:0:0:
64,192,96362,1,2,0:0:0:0:
320,192,96494,1,0,0:0:0:0:
448,192,96494,1,0,0:0:0:0:
64,192,96625,1,2,0:0:0:0:
320,192,96757,1,0,0:0:0:0:
448,192,96757,1,0,0:0:0:0:
64,192,96888,1,2,0:0:0:0:
192,192,96954,1,2,0:0:0:0:
320,192,97020,1,2,0:0:0:0:
448,192,97086,1,2,0:0:0:0:
64,192,97152,1,2,0:0:0:0:
192,192,97152,1,2,0:0:0:0:
320,192,97217,1,2,0:0:0:0:
192,192,97283,1,2,0:0:0:0:
448,192,97349,1,2,0:0:0:0:
320,192,97415,1,2,0:0:0:0:
64,192,97415,1,2,0:0:0:0:
192,192,97481,1,2,0:0:0:0:
448,192,97546,1,2,0:0:0:0:
320,192,97612,1,2,0:0:0:0:
192,192,97678,1,2,0:0:0:0:
448,192,97678,1,2,0:0:0:0:
64,192,97744,1,2,0:0:0:0:
320,192,97809,1,2,0:0:0:0:
192,192,97875,1,2,0:0:0:0:
448,192,97941,1,0,0:0:0:0:
64,192,97941,1,0,0:0:0:0:
320,192,98007,1,2,0:0:0:0:
192,192,98073,1,0,0:0:0:0:
448,192,98073,1,0,0:0:0:0:
64,192,98138,1,2,0:0:0:0:
320,192,98204,1,0,0:0:0:0:
448,192,98204,1,0,0:0:0:0:
192,192,98336,1,2,0:0:0:0:
64,192,98336,1,2,0:0:0:0:
192,192,98467,1,2,0:0:0:0:
320,192,98467,1,2,0:0:0:0:
320,192,99257,1,2,0:0:0:0:
64,192,99257,1,0,0:0:0:0:
192,192,99257,1,4,0:0:0:0:
448,192,99323,1,2,0:0:0:0:
320,192,99388,1,2,0:0:0:0:
192,192,99454,1,2,0:0:0:0:
64,192,99520,1,2,0:0:0:0:
320,192,99586,1,2,0:0:0:0:
192,192,99652,1,2,0:0:0:0:
448,192,99717,1,2,0:0:0:0:
320,192,99783,1,0,0:0:0:0:
64,192,99783,1,0,0:0:0:0:
192,192,99783,1,2,0:0:0:0:
448,192,99849,1,2,0:0:0:0:
320,192,99915,1,2,0:0:0:0:
64,192,99981,1,2,0:0:0:0:
192,192,100046,1,2,0:0:0:0:
320,192,100112,1,2,0:0:0:0:
448,192,100178,1,2,0:0:0:0:
64,192,100244,1,2,0:0:0:0:
320,192,100309,1,8,0:0:0:0:
448,192,100309,1,8,0:0:0:0:
192,192,100309,1,0,0:0:0:0:
64,192,100375,1,2,0:0:0:0:
320,192,100441,1,2,0:0:0:0:
192,192,100507,1,2,0:0:0:0:
448,192,100573,1,2,0:0:0:0:
320,192,100638,1,2,0:0:0:0:
64,192,100704,1,2,0:0:0:0:
192,192,100770,1,2,0:0:0:0:
64,192,100836,1,0,0:0:0:0:
448,192,100836,1,2,0:0:0:0:
320,192,100836,1,0,0:0:0:0:
192,192,100902,1,2,0:0:0:0:
320,192,100967,1,2,0:0:0:0:
64,192,101033,1,2,0:0:0:0:
192,192,101099,1,2,0:0:0:0:
448,192,101165,1,2,0:0:0:0:
320,192,101231,1,2,0:0:0:0:
192,192,101296,1,2,0:0:0:0:
64,192,101362,1,0,0:0:0:0:
320,192,101362,1,0,0:0:0:0:
448,192,101362,1,2,0:0:0:0:
192,192,101428,1,2,0:0:0:0:
448,192,101494,1,2,0:0:0:0:
320,192,101559,1,2,0:0:0:0:
64,192,101625,1,2,0:0:0:0:
192,192,101625,1,0,0:0:0:0:
320,192,101691,1,2,0:0:0:0:
448,192,101757,1,2,0:0:0:0:
192,192,101823,1,2,0:0:0:0:
320,192,101888,1,2,0:0:0:0:
64,192,101888,1,0,0:0:0:0:
448,192,101954,1,2,0:0:0:0:
192,192,102020,1,0,0:0:0:0:
320,192,102086,1,2,0:0:0:0:
64,192,102152,1,2,0:0:0:0:
448,192,102217,1,2,0:0:0:0:
192,192,102283,1,2,0:0:0:0:
320,192,102349,1,2,0:0:0:0:
448,192,102415,1,0,0:0:0:0:
192,192,102415,1,8,0:0:0:0:
64,192,102415,1,8,0:0:0:0:
320,192,102481,1,2,0:0:0:0:
448,192,102546,1,2,0:0:0:0:
64,192,102612,1,2,0:0:0:0:
192,192,102678,1,2,0:0:0:0:
320,192,102744,1,2,0:0:0:0:
448,192,102809,1,0,0:0:0:0:
192,192,102809,1,0,0:0:0:0:
64,192,102875,1,2,0:0:0:0:
320,192,102941,1,2,0:0:0:0:
192,192,103007,1,2,0:0:0:0:
64,192,103073,1,0,0:0:0:0:
448,192,103073,1,0,0:0:0:0:
320,192,103138,1,2,0:0:0:0:
192,192,103204,1,2,0:0:0:0:
448,192,103270,1,2,0:0:0:0:
64,192,103336,1,0,0:0:0:0:
320,192,103336,1,0,0:0:0:0:
192,192,103402,1,2,0:0:0:0:
448,192,103467,1,2,0:0:0:0:
64,192,103533,1,2,0:0:0:0:
192,192,103599,1,2,0:0:0:0:
448,192,103665,1,2,0:0:0:0:
320,192,103731,1,2,0:0:0:0:
192,192,103796,1,2,0:0:0:0:
64,192,103862,1,2,0:0:0:0:
448,192,103928,1,2,0:0:0:0:
320,192,103994,1,0,0:0:0:0:
64,192,103994,1,0,0:0:0:0:
192,192,103994,1,2,0:0:0:0:
448,192,104059,1,2,0:0:0:0:
320,192,104125,1,2,0:0:0:0:
64,192,104191,1,2,0:0:0:0:
192,192,104257,1,2,0:0:0:0:
320,192,104323,1,2,0:0:0:0:
448,192,104388,1,2,0:0:0:0:
192,192,104454,1,2,0:0:0:0:
320,192,104520,1,2,0:0:0:0:
64,192,104520,1,0,0:0:0:0:
448,192,104520,1,0,0:0:0:0:
192,192,104586,1,2,0:0:0:0:
64,192,104652,1,2,0:0:0:0:
320,192,104717,1,2,0:0:0:0:
192,192,104783,1,2,0:0:0:0:
448,192,104849,1,2,0:0:0:0:
64,192,104915,1,2,0:0:0:0:
320,192,104981,1,2,0:0:0:0:
64,192,105046,1,0,0:0:0:0:
448,192,105046,1,0,0:0:0:0:
192,192,105046,1,2,0:0:0:0:
320,192,105112,1,2,0:0:0:0:
192,192,105178,1,2,0:0:0:0:
448,192,105244,1,2,0:0:0:0:
320,192,105309,1,2,0:0:0:0:
64,192,105375,1,2,0:0:0:0:
192,192,105441,1,2,0:0:0:0:
320,192,105507,1,2,0:0:0:0:
192,192,105573,1,8,0:0:0:0:
448,192,105573,1,0,0:0:0:0:
64,192,105573,1,8,0:0:0:0:
320,192,105638,1,2,0:0:0:0:
64,192,105704,1,2,0:0:0:0:
448,192,105770,1,2,0:0:0:0:
192,192,105836,1,2,0:0:0:0:
320,192,105836,1,2,0:0:0:0:
64,192,105902,1,2,0:0:0:0:
320,192,105967,1,2,0:0:0:0:
64,192,106033,1,2,0:0:0:0:
192,192,106099,1,2,0:0:0:0:
448,192,106099,1,2,0:0:0:0:
320,192,106165,1,2,0:0:0:0:
192,192,106231,1,8,0:0:0:0:
64,192,106231,1,0,0:0:0:0:
320,192,106296,1,8,0:0:0:0:
448,192,106296,1,0,0:0:0:0:
64,192,106362,1,2,0:0:0:0:
448,192,106428,1,2,0:0:0:0:
192,192,106494,1,2,0:0:0:0:
320,192,106559,1,2,0:0:0:0:
64,192,106625,1,2,0:0:0:0:
192,192,106713,1,2,0:0:0:0:
320,192,106801,1,8,0:0:0:0:
448,192,106801,1,0,0:0:0:0:
192,192,106888,1,8,0:0:0:0:
64,192,106888,1,0,0:0:0:0:
320,192,106976,1,2,0:0:0:0:
448,192,107064,1,2,0:0:0:0:
192,192,107152,1,8,0:0:0:0:
64,192,107152,1,0,0:0:0:0:
320,192,107239,1,8,0:0:0:0:
448,192,107239,1,0,0:0:0:0:
192,192,107327,1,2,0:0:0:0:
64,192,107415,1,2,0:0:0:0:
320,192,107502,1,2,0:0:0:0:
192,192,107590,1,2,0:0:0:0:
448,192,107678,128,0,108731:0:0:0:0:
64,192,107678,1,0,0:0:0:0:
320,192,107678,1,4,0:0:0:0:
64,192,107941,1,0,0:0:0:0:
320,192,108073,1,0,0:0:0:0:
64,192,108204,1,0,0:0:0:0:
320,192,108467,1,0,0:0:0:0:
192,192,108599,1,0,0:0:0:0:
64,192,108731,128,0,109520:0:0:0:0:
320,192,108731,1,0,0:0:0:0:
192,192,108994,1,0,0:0:0:0:
448,192,109125,1,0,0:0:0:0:
192,192,109257,1,0,0:0:0:0:
448,192,109520,1,0,0:0:0:0:
320,192,109652,1,0,0:0:0:0:
192,192,109783,128,0,110836:0:0:0:0:
64,192,109783,1,0,0:0:0:0:
448,192,109783,1,0,0:0:0:0:
320,192,110046,1,0,0:0:0:0:
64,192,110178,1,0,0:0:0:0:
320,192,110309,1,0,0:0:0:0:
64,192,110573,1,0,0:0:0:0:
320,192,110704,1,0,0:0:0:0:
64,192,110836,1,0,0:0:0:0:
448,192,110836,128,0,111165:0:0:0:0:
64,192,111099,1,0,0:0:0:0:
192,192,111165,128,0,111888:0:0:0:0:
320,192,111231,1,0,0:0:0:0:
64,192,111362,1,0,0:0:0:0:
448,192,111625,1,0,0:0:0:0:
64,192,111757,1,0,0:0:0:0:
448,192,111888,1,0,0:0:0:0:
320,192,111888,128,0,113204:0:0:0:0:
64,192,112152,1,0,0:0:0:0:
192,192,112283,1,0,0:0:0:0:
64,192,112415,1,0,0:0:0:0:
448,192,112678,1,0,0:0:0:0:
192,192,112809,1,0,0:0:0:0:
448,192,112941,1,0,0:0:0:0:
64,192,113204,128,0,113270:0:0:0:0:
192,192,113204,1,0,0:0:0:0:
320,192,113336,1,0,0:0:0:0:
192,192,113467,1,0,0:0:0:0:
448,192,113533,128,0,113599:0:0:0:0:
320,192,113599,128,0,113665:0:0:0:0:
64,192,113731,1,0,0:0:0:0:
320,192,113862,1,0,0:0:0:0:
448,192,113994,128,0,115046:0:0:0:0:
64,192,113994,128,0,114059:0:0:0:0:
192,192,114257,128,0,114323:0:0:0:0:
320,192,114257,1,0,0:0:0:0:
64,192,114388,1,0,0:0:0:0:
320,192,114520,1,0,0:0:0:0:
64,192,114783,1,0,0:0:0:0:
192,192,114915,1,0,0:0:0:0:
64,192,115046,1,0,0:0:0:0:
320,192,115046,1,0,0:0:0:0:
64,192,115573,1,8,0:0:0:0:
448,192,115573,1,8,0:0:0:0:
320,192,116099,1,2,0:0:0:0:
192,192,116099,1,0,0:0:0:0:
64,192,116099,1,4,0:0:0:0:
448,192,116187,1,2,0:0:0:0:
320,192,116274,1,2,0:0:0:0:
192,192,116274,1,2,0:0:0:0:
64,192,116362,1,2,0:0:0:0:
448,192,116362,1,2,0:0:0:0:
448,192,116625,1,4,0:0:0:0:
320,192,116625,1,0,0:0:0:0:
64,192,116625,1,2,0:0:0:0:
192,192,116713,1,2,0:0:0:0:
320,192,116801,1,2,0:0:0:0:
448,192,116801,1,2,0:0:0:0:
192,192,116888,1,2,0:0:0:0:
64,192,116888,1,2,0:0:0:0:
320,192,117152,1,4,0:0:0:0:
192,192,117152,1,0,0:0:0:0:
448,192,117152,1,8,0:0:0:0:
64,192,117239,1,2,0:0:0:0:
448,192,117327,1,2,0:0:0:0:
192,192,117327,1,2,0:0:0:0:
320,192,117415,1,2,0:0:0:0:
64,192,117415,1,2,0:0:0:0:
448,192,117678,1,2,0:0:0:0:
64,192,117678,1,4,0:0:0:0:
192,192,117678,1,0,0:0:0:0:
320,192,117766,1,2,0:0:0:0:
192,192,117853,1,2,0:0:0:0:
64,192,117853,1,2,0:0:0:0:
448,192,117941,1,2,0:0:0:0:
320,192,117941,1,2,0:0:0:0:
64,192,118204,1,0,0:0:0:0:
192,192,118204,1,8,0:0:0:0:
64,192,118292,1,0,0:0:0:0:
192,192,118292,1,8,0:0:0:0:
320,192,118380,1,2,0:0:0:0:
448,192,118467,1,2,0:0:0:0:
192,192,118555,1,2,0:0:0:0:
320,192,118643,1,2,0:0:0:0:
64,192,118731,1,2,0:0:0:0:
192,192,118818,1,2,0:0:0:0:
64,192,118906,1,2,0:0:0:0:
320,192,118994,1,8,0:0:0:0:
448,192,118994,1,0,0:0:0:0:
320,192,119081,1,8,0:0:0:0:
448,192,119081,1,0,0:0:0:0:
192,192,119169,1,2,0:0:0:0:
64,192,119257,1,2,0:0:0:0:
320,192,119345,1,2,0:0:0:0:
192,192,119432,1,2,0:0:0:0:
448,192,119520,1,2,0:0:0:0:
320,192,119608,1,2,0:0:0:0:
448,192,119695,1,2,0:0:0:0:
64,192,119783,1,0,0:0:0:0:
192,192,119783,1,8,0:0:0:0:
320,192,119871,1,2,0:0:0:0:
192,192,119959,1,2,0:0:0:0:
448,192,120046,1,2,0:0:0:0:
320,192,120134,1,2,0:0:0:0:
64,192,120222,1,2,0:0:0:0:
320,192,120309,1,2,0:0:0:0:
448,192,120309,1,2,0:0:0:0:
192,192,120375,1,2,0:0:0:0:
64,192,120441,1,2,0:0:0:0:
448,192,120441,1,2,0:0:0:0:
192,192,120704,1,2,0:0:0:0:
320,192,120704,1,2,0:0:0:0:
448,192,120770,1,2,0:0:0:0:
64,192,120836,1,2,0:0:0:0:
192,192,120836,1,2,0:0:0:0:
64,192,121099,1,2,0:0:0:0:
192,192,121099,1,2,0:0:0:0:
448,192,121165,1,2,0:0:0:0:
320,192,121231,1,2,0:0:0:0:
192,192,121231,1,2,0:0:0:0:
64,192,121362,1,0,0:0:0:0:
320,192,121362,1,8,0:0:0:0:
448,192,121362,1,8,0:0:0:0:
192,192,121494,1,2,0:0:0:0:
64,192,121494,1,2,0:0:0:0:
320,192,121559,1,2,0:0:0:0:
448,192,121625,1,2,0:0:0:0:
192,192,121625,1,2,0:0:0:0:
64,192,121888,1,2,0:0:0:0:
320,192,121888,1,2,0:0:0:0:
192,192,121954,1,2,0:0:0:0:
448,192,122020,1,2,0:0:0:0:
64,192,122020,1,2,0:0:0:0:
320,192,122415,1,8,0:0:0:0:
448,192,122415,1,0,0:0:0:0:
192,192,122502,1,2,0:0:0:0:
448,192,122502,1,0,0:0:0:0:
320,192,122590,1,2,0:0:0:0:
64,192,122678,1,2,0:0:0:0:
448,192,122766,1,2,0:0:0:0:
192,192,122853,1,2,0:0:0:0:
448,192,122941,1,2,0:0:0:0:
320,192,123029,1,2,0:0:0:0:
448,192,123117,1,2,0:0:0:0:
192,192,123204,1,8,0:0:0:0:
64,192,123204,1,0,0:0:0:0:
320,192,123292,1,2,0:0:0:0:
64,192,123292,1,0,0:0:0:0:
192,192,123380,1,2,0:0:0:0:
448,192,123467,1,2,0:0:0:0:
64,192,123555,1,2,0:0:0:0:
320,192,123643,1,2,0:0:0:0:
64,192,123731,1,2,0:0:0:0:
192,192,123818,1,2,0:0:0:0:
64,192,123906,1,2,0:0:0:0:
320,192,123994,1,8,0:0:0:0:
448,192,123994,1,0,0:0:0:0:
192,192,124081,1,2,0:0:0:0:
448,192,124081,1,0,0:0:0:0:
320,192,124169,1,2,0:0:0:0:
64,192,124257,1,4,0:0:0:0:
448,192,124257,1,8,0:0:0:0:
192,192,124257,1,0,0:0:0:0:
192,192,124520,1,2,0:0:0:0:
320,192,124520,1,0,0:0:0:0:
448,192,124520,1,4,0:0:0:0:
64,192,124608,1,2,0:0:0:0:
192,192,124695,1,2,0:0:0:0:
320,192,124695,1,2,0:0:0:0:
448,192,124783,1,2,0:0:0:0:
64,192,124783,1,2,0:0:0:0:
448,192,125046,1,2,0:0:0:0:
192,192,125046,1,0,0:0:0:0:
64,192,125046,1,4,0:0:0:0:
320,192,125134,1,2,0:0:0:0:
64,192,125222,1,2,0:0:0:0:
192,192,125222,1,2,0:0:0:0:
320,192,125309,1,2,0:0:0:0:
448,192,125309,1,2,0:0:0:0:
192,192,125573,1,4,0:0:0:0:
320,192,125573,1,0,0:0:0:0:
64,192,125573,1,8,0:0:0:0:
448,192,125660,1,2,0:0:0:0:
64,192,125748,1,2,0:0:0:0:
320,192,125748,1,2,0:0:0:0:
192,192,125836,1,2,0:0:0:0:
448,192,125836,1,2,0:0:0:0:
64,192,126099,1,2,0:0:0:0:
320,192,126099,1,0,0:0:0:0:
448,192,126099,1,4,0:0:0:0:
192,192,126187,1,2,0:0:0:0:
448,192,126274,1,2,0:0:0:0:
320,192,126274,1,2,0:0:0:0:
192,192,126362,1,2,0:0:0:0:
64,192,126362,1,2,0:0:0:0:
320,192,126625,1,2,0:0:0:0:
64,192,126625,1,2,0:0:0:0:
192,192,126713,1,8,0:0:0:0:
192,192,126801,1,8,0:0:0:0:
64,192,126888,1,2,0:0:0:0:
448,192,126888,1,2,0:0:0:0:
320,192,126976,1,8,0:0:0:0:
320,192,127064,1,8,0:0:0:0:
192,192,127152,1,2,0:0:0:0:
64,192,127152,1,2,0:0:0:0:
448,192,127239,1,8,0:0:0:0:
448,192,127327,1,8,0:0:0:0:
320,192,127415,1,2,0:0:0:0:
64,192,127415,1,2,0:0:0:0:
192,192,127502,1,8,0:0:0:0:
192,192,127590,1,8,0:0:0:0:
320,192,127678,1,2,0:0:0:0:
448,192,127678,1,2,0:0:0:0:
64,192,127766,1,8,0:0:0:0:
64,192,127853,1,8,0:0:0:0:
192,192,127941,1,2,0:0:0:0:
448,192,127941,1,2,0:0:0:0:
320,192,128029,1,8,0:0:0:0:
320,192,128117,1,8,0:0:0:0:
192,192,128204,1,8,0:0:0:0:
64,192,128204,1,0,0:0:0:0:
320,192,128292,1,8,0:0:0:0:
448,192,128292,1,0,0:0:0:0:
64,192,128380,1,0,0:0:0:0:
192,192,128380,1,8,0:0:0:0:
320,192,128467,1,8,0:0:0:0:
448,192,128467,1,0,0:0:0:0:
64,192,128555,1,0,0:0:0:0:
192,192,128555,1,8,0:0:0:0:
320,192,128643,1,8,0:0:0:0:
448,192,128643,1,0,0:0:0:0:
320,192,128994,1,2,0:0:0:0:
192,192,128994,1,2,0:0:0:0:
64,192,129059,1,2,0:0:0:0:
448,192,129125,1,2,0:0:0:0:
320,192,129125,1,2,0:0:0:0:
192,192,129257,1,0,0:0:0:0:
448,192,129388,1,2,0:0:0:0:
320,192,129388,1,2,0:0:0:0:
64,192,129454,1,2,0:0:0:0:
320,192,129520,1,2,0:0:0:0:
192,192,129520,1,2,0:0:0:0:
320,192,129783,1,0,0:0:0:0:
448,192,129783,1,8,0:0:0:0:
64,192,129783,1,8,0:0:0:0:
192,192,129849,1,2,0:0:0:0:
64,192,129915,1,2,0:0:0:0:
320,192,129915,1,2,0:0:0:0:
192,192,130178,1,2,0:0:0:0:
448,192,130178,1,2,0:0:0:0:
320,192,130244,1,2,0:0:0:0:
448,192,130309,1,2,0:0:0:0:
64,192,130309,1,2,0:0:0:0:
192,192,130573,1,2,0:0:0:0:
64,192,130573,1,2,0:0:0:0:
320,192,130660,1,2,0:0:0:0:
448,192,130748,1,2,0:0:0:0:
64,192,130748,1,2,0:0:0:0:
192,192,130836,1,0,0:0:0:0:
320,192,130836,1,0,0:0:0:0:
64,192,130924,1,2,0:0:0:0:
192,192,131011,1,2,0:0:0:0:
448,192,131099,1,2,0:0:0:0:
64,192,131187,1,2,0:0:0:0:
192,192,131274,1,2,0:0:0:0:
448,192,131362,1,2,0:0:0:0:
320,192,131362,1,4,0:0:0:0:
192,192,131450,1,0,0:0:0:0:
64,192,131538,1,0,0:0:0:0:
448,192,131625,1,2,0:0:0:0:
320,192,131713,1,0,0:0:0:0:
192,192,131801,1,0,0:0:0:0:
320,192,131888,1,8,0:0:0:0:
448,192,131888,1,0,0:0:0:0:
192,192,131976,1,8,0:0:0:0:
64,192,131976,1,0,0:0:0:0:
320,192,132064,1,8,0:0:0:0:
448,192,132064,1,0,0:0:0:0:
192,192,132152,1,8,0:0:0:0:
64,192,132152,1,0,0:0:0:0:
320,192,132239,1,8,0:0:0:0:
448,192,132239,1,0,0:0:0:0:
64,192,132327,1,8,0:0:0:0:
192,192,132415,1,4,0:0:0:0:
448,192,132415,1,2,0:0:0:0:
320,192,132415,1,0,0:0:0:0:
64,192,132502,1,0,0:0:0:0:
320,192,132590,1,0,0:0:0:0:
192,192,132678,1,2,0:0:0:0:
448,192,132678,1,4,0:0:0:0:
64,192,132766,1,0,0:0:0:0:
448,192,132853,1,0,0:0:0:0:
320,192,132941,1,2,0:0:0:0:
192,192,132941,1,0,0:0:0:0:
64,192,132941,1,4,0:0:0:0:
448,192,133029,1,2,0:0:0:0:
192,192,133117,1,2,0:0:0:0:
320,192,133117,1,2,0:0:0:0:
64,192,133204,1,2,0:0:0:0:
448,192,133204,1,2,0:0:0:0:
448,192,133467,1,4,0:0:0:0:
320,192,133467,1,0,0:0:0:0:
64,192,133467,1,2,0:0:0:0:
192,192,133555,1,2,0:0:0:0:
448,192,133643,1,2,0:0:0:0:
320,192,133643,1,2,0:0:0:0:
64,192,133731,1,2,0:0:0:0:
192,192,133731,1,2,0:0:0:0:
192,192,133994,1,0,0:0:0:0:
448,192,133994,1,8,0:0:0:0:
320,192,133994,1,4,0:0:0:0:
64,192,134081,1,2,0:0:0:0:
192,192,134169,1,2,0:0:0:0:
448,192,134169,1,2,0:0:0:0:
64,192,134257,1,2,0:0:0:0:
320,192,134257,1,2,0:0:0:0:
448,192,134520,1,2,0:0:0:0:
192,192,134520,1,0,0:0:0:0:
64,192,134520,1,4,0:0:0:0:
320,192,134608,1,2,0:0:0:0:
192,192,134695,1,2,0:0:0:0:
64,192,134695,1,2,0:0:0:0:
320,192,134783,1,2,0:0:0:0:
448,192,134783,1,2,0:0:0:0:
448,192,135046,1,2,0:0:0:0:
320,192,135046,1,0,0:0:0:0:
64,192,135046,1,4,0:0:0:0:
192,192,135134,1,2,0:0:0:0:
448,192,135222,1,2,0:0:0:0:
320,192,135309,1,2,0:0:0:0:
64,192,135397,1,2,0:0:0:0:
448,192,135485,1,2,0:0:0:0:
64,192,135573,1,0,0:0:0:0:
192,192,135573,1,0,0:0:0:0:
320,192,135660,1,2,0:0:0:0:
192,192,135748,1,2,0:0:0:0:
448,192,135836,1,2,0:0:0:0:
64,192,135924,1,2,0:0:0:0:
320,192,136011,1,2,0:0:0:0:
64,192,136099,1,8,0:0:0:0:
448,192,136099,1,0,0:0:0:0:
192,192,136187,1,2,0:0:0:0:
320,192,136274,1,2,0:0:0:0:
64,192,136362,1,2,0:0:0:0:
448,192,136450,1,2,0:0:0:0:
320,192,136538,1,2,0:0:0:0:
192,192,136625,1,0,0:0:0:0:
64,192,136625,1,0,0:0:0:0:
320,192,136713,1,2,0:0:0:0:
64,192,136801,1,2,0:0:0:0:
448,192,136888,1,2,0:0:0:0:
192,192,136976,1,2,0:0:0:0:
64,192,137064,1,2,0:0:0:0:
448,192,137152,1,2,0:0:0:0:
320,192,137152,1,2,0:0:0:0:
192,192,137217,1,2,0:0:0:0:
64,192,137283,1,2,0:0:0:0:
448,192,137283,1,2,0:0:0:0:
320,192,137546,1,2,0:0:0:0:
192,192,137546,1,2,0:0:0:0:
448,192,137612,1,2,0:0:0:0:
64,192,137678,1,2,0:0:0:0:
192,192,137678,1,2,0:0:0:0:
192,192,137941,1,2,0:0:0:0:
64,192,137941,1,2,0:0:0:0:
448,192,138007,1,2,0:0:0:0:
192,192,138073,1,2,0:0:0:0:
320,192,138073,1,2,0:0:0:0:
64,192,138204,1,0,0:0:0:0:
448,192,138204,1,8,0:0:0:0:
320,192,138204,1,8,0:0:0:0:
192,192,138336,1,2,0:0:0:0:
64,192,138336,1,2,0:0:0:0:
320,192,138402,1,2,0:0:0:0:
192,192,138467,1,2,0:0:0:0:
448,192,138467,1,2,0:0:0:0:
320,192,138731,1,2,0:0:0:0:
64,192,138731,1,2,0:0:0:0:
192,192,138796,1,2,0:0:0:0:
448,192,138862,1,2,0:0:0:0:
64,192,138862,1,2,0:0:0:0:
64,192,139257,1,2,0:0:0:0:
448,192,139257,1,4,0:0:0:0:
192,192,139257,1,0,0:0:0:0:
320,192,139345,1,2,0:0:0:0:
64,192,139432,1,2,0:0:0:0:
192,192,139520,1,2,0:0:0:0:
448,192,139608,1,2,0:0:0:0:
64,192,139695,1,2,0:0:0:0:
448,192,139783,1,0,0:0:0:0:
320,192,139783,1,0,0:0:0:0:
192,192,139871,1,2,0:0:0:0:
320,192,139959,1,2,0:0:0:0:
64,192,140046,1,2,0:0:0:0:
448,192,140134,1,2,0:0:0:0:
192,192,140222,1,2,0:0:0:0:
64,192,140309,1,0,0:0:0:0:
448,192,140309,1,8,0:0:0:0:
320,192,140397,1,2,0:0:0:0:
192,192,140485,1,2,0:0:0:0:
448,192,140573,1,2,0:0:0:0:
64,192,140660,1,2,0:0:0:0:
192,192,140748,1,2,0:0:0:0:
448,192,140836,1,0,0:0:0:0:
320,192,140836,1,0,0:0:0:0:
64,192,140924,1,0,0:0:0:0:
64,192,141011,1,0,0:0:0:0:
192,192,141099,1,0,0:0:0:0:
448,192,141099,1,0,0:0:0:0:
320,192,141187,1,0,0:0:0:0:
320,192,141274,1,0,0:0:0:0:
192,192,141362,1,0,0:0:0:0:
448,192,141362,1,0,0:0:0:0:
64,192,141362,1,0,0:0:0:0:
320,192,141450,1,2,0:0:0:0:
192,192,141538,1,2,0:0:0:0:
64,192,141538,1,2,0:0:0:0:
448,192,141625,1,2,0:0:0:0:
320,192,141625,1,2,0:0:0:0:
64,192,141888,1,2,0:0:0:0:
448,192,141888,1,4,0:0:0:0:
320,192,141888,1,0,0:0:0:0:
192,192,141976,1,2,0:0:0:0:
64,192,142064,1,2,0:0:0:0:
448,192,142064,1,2,0:0:0:0:
320,192,142152,1,2,0:0:0:0:
192,192,142152,1,2,0:0:0:0:
64,192,142415,1,8,0:0:0:0:
320,192,142415,1,0,0:0:0:0:
192,192,142415,1,4,0:0:0:0:
448,192,142502,1,2,0:0:0:0:
64,192,142590,1,2,0:0:0:0:
320,192,142590,1,2,0:0:0:0:
192,192,142678,1,2,0:0:0:0:
448,192,142678,1,2,0:0:0:0:
320,192,142941,1,0,0:0:0:0:
64,192,142941,1,2,0:0:0:0:
448,192,142941,1,4,0:0:0:0:
192,192,143029,1,2,0:0:0:0:
448,192,143117,1,2,0:0:0:0:
320,192,143117,1,2,0:0:0:0:
192,192,143204,1,2,0:0:0:0:
64,192,143204,1,2,0:0:0:0:
192,192,143467,1,0,0:0:0:0:
448,192,143467,1,4,0:0:0:0:
64,192,143467,1,2,0:0:0:0:
320,192,143555,1,2,0:0:0:0:
64,192,143643,1,2,0:0:0:0:
192,192,143731,1,2,0:0:0:0:
448,192,143818,1,2,0:0:0:0:
64,192,143906,1,2,0:0:0:0:
448,192,143994,1,0,0:0:0:0:
320,192,143994,1,0,0:0:0:0:
192,192,144081,1,2,0:0:0:0:
320,192,144169,1,2,0:0:0:0:
64,192,144257,1,2,0:0:0:0:
448,192,144345,1,2,0:0:0:0:
192,192,144432,1,2,0:0:0:0:
448,192,144520,1,8,0:0:0:0:
64,192,144520,1,0,0:0:0:0:
320,192,144608,1,2,0:0:0:0:
192,192,144695,1,2,0:0:0:0:
448,192,144783,1,2,0:0:0:0:
64,192,144871,1,2,0:0:0:0:
192,192,144959,1,2,0:0:0:0:
448,192,145046,1,0,0:0:0:0:
320,192,145046,1,8,0:0:0:0:
64,192,145134,1,0,0:0:0:0:
192,192,145134,1,8,0:0:0:0:
320,192,145222,1,8,0:0:0:0:
448,192,145222,1,0,0:0:0:0:
192,192,145309,1,8,0:0:0:0:
64,192,145309,1,0,0:0:0:0:
448,192,145397,1,0,0:0:0:0:
320,192,145397,1,8,0:0:0:0:
192,192,145485,1,8,0:0:0:0:
64,192,145485,1,0,0:0:0:0:
192,192,145836,1,2,0:0:0:0:
320,192,145836,1,2,0:0:0:0:
64,192,145902,1,2,0:0:0:0:
448,192,145967,1,2,0:0:0:0:
320,192,145967,1,2,0:0:0:0:
192,192,146099,1,0,0:0:0:0:
448,192,146231,1,2,0:0:0:0:
320,192,146231,1,2,0:0:0:0:
64,192,146296,1,2,0:0:0:0:
192,192,146362,1,2,0:0:0:0:
320,192,146362,1,2,0:0:0:0:
448,192,146625,1,8,0:0:0:0:
64,192,146625,1,8,0:0:0:0:
320,192,146625,1,0,0:0:0:0:
192,192,146691,1,2,0:0:0:0:
64,192,146757,1,2,0:0:0:0:
320,192,146757,1,2,0:0:0:0:
192,192,147020,1,2,0:0:0:0:
448,192,147020,1,2,0:0:0:0:
320,192,147086,1,2,0:0:0:0:
448,192,147152,1,2,0:0:0:0:
64,192,147152,1,2,0:0:0:0:
320,192,147415,1,2,0:0:0:0:
64,192,147415,1,2,0:0:0:0:
192,192,147481,1,2,0:0:0:0:
320,192,147546,1,2,0:0:0:0:
448,192,147546,1,2,0:0:0:0:
192,192,147678,1,8,0:0:0:0:
64,192,147678,1,0,0:0:0:0:
64,192,147766,1,0,0:0:0:0:
192,192,147766,1,8,0:0:0:0:
320,192,147853,1,2,0:0:0:0:
448,192,147941,1,2,0:0:0:0:
192,192,148029,1,2,0:0:0:0:
320,192,148117,1,2,0:0:0:0:
64,192,148204,1,2,0:0:0:0:
192,192,148292,1,2,0:0:0:0:
64,192,148380,1,2,0:0:0:0:
448,192,148467,1,0,0:0:0:0:
320,192,148467,1,8,0:0:0:0:
320,192,148555,1,8,0:0:0:0:
448,192,148555,1,0,0:0:0:0:
192,192,148643,1,2,0:0:0:0:
64,192,148731,1,2,0:0:0:0:
320,192,148818,1,2,0:0:0:0:
192,192,148906,1,2,0:0:0:0:
448,192,148994,1,2,0:0:0:0:
320,192,149081,1,2,0:0:0:0:
448,192,149169,1,2,0:0:0:0:
192,192,149257,1,8,0:0:0:0:
64,192,149257,1,0,0:0:0:0:
320,192,149323,1,2,0:0:0:0:
192,192,149388,1,2,0:0:0:0:
448,192,149454,1,2,0:0:0:0:
64,192,149520,1,2,0:0:0:0:
192,192,149586,1,2,0:0:0:0:
448,192,149652,1,2,0:0:0:0:
320,192,149717,1,2,0:0:0:0:
192,192,149783,1,12,0:0:0:0:
64,192,149783,1,8,0:0:0:0:
448,192,149783,1,4,0:0:0:0:
320,192,149871,1,0,0:0:0:0:
192,192,149959,1,0,0:0:0:0:
448,192,150046,1,0,0:0:0:0:
64,192,150134,1,0,0:0:0:0:
192,192,150222,1,0,0:0:0:0:
448,192,150309,1,0,0:0:0:0:
64,192,150397,1,0,0:0:0:0:
192,192,150485,1,0,0:0:0:0:
320,192,150573,1,0,0:0:0:0:
64,192,150660,1,0,0:0:0:0:
192,192,150748,1,0,0:0:0:0:
448,192,150836,1,0,0:0:0:0:
64,192,150924,1,0,0:0:0:0:
320,192,151011,1,0,0:0:0:0:
192,192,151099,1,0,0:0:0:0:
448,192,151187,1,0,0:0:0:0:
64,192,151274,1,2,0:0:0:0:
320,192,151274,1,0,0:0:0:0:
192,192,151362,1,8,0:0:0:0:
448,192,151362,1,8,0:0:0:0:
64,192,151450,1,0,0:0:0:0:
192,192,151538,1,0,0:0:0:0:
448,192,151625,1,0,0:0:0:0:
64,192,151713,1,0,0:0:0:0:
192,192,151801,1,0,0:0:0:0:
320,192,151888,1,0,0:0:0:0:
448,192,151888,1,2,0:0:0:0:
64,192,151888,1,4,0:0:0:0:
192,192,151976,1,2,0:0:0:0:
320,192,152064,1,2,0:0:0:0:
64,192,152152,1,2,0:0:0:0:
192,192,152239,1,2,0:0:0:0:
448,192,152327,1,2,0:0:0:0:
320,192,152415,1,0,0:0:0:0:
64,192,152415,1,0,0:0:0:0:
192,192,152502,1,2,0:0:0:0:
320,192,152590,1,2,0:0:0:0:
64,192,152678,1,2,0:0:0:0:
448,192,152766,1,2,0:0:0:0:
192,192,152853,1,2,0:0:0:0:
448,192,152941,1,8,0:0:0:0:
64,192,152941,1,0,0:0:0:0:
320,192,152941,1,8,0:0:0:0:
192,192,153029,1,2,0:0:0:0:
320,192,153117,1,2,0:0:0:0:
448,192,153204,1,2,0:0:0:0:
64,192,153292,1,2,0:0:0:0:
320,192,153380,1,2,0:0:0:0:
192,192,153467,1,0,0:0:0:0:
64,192,153467,1,0,0:0:0:0:
448,192,153555,1,2,0:0:0:0:
320,192,153643,1,2,0:0:0:0:
192,192,153731,1,2,0:0:0:0:
448,192,153818,1,2,0:0:0:0:
320,192,153906,1,2,0:0:0:0:
192,192,153994,1,0,0:0:0:0:
448,192,153994,1,0,0:0:0:0:
64,192,154081,1,2,0:0:0:0:
320,192,154169,1,2,0:0:0:0:
192,192,154257,1,2,0:0:0:0:
448,192,154345,1,2,0:0:0:0:
320,192,154432,1,2,0:0:0:0:
64,192,154520,1,2,0:0:0:0:
192,192,154520,1,2,0:0:0:0:
320,192,154608,1,2,0:0:0:0:
448,192,154695,1,2,0:0:0:0:
192,192,154783,1,2,0:0:0:0:
64,192,154871,1,2,0:0:0:0:
320,192,154959,1,2,0:0:0:0:
192,192,155046,1,8,0:0:0:0:
448,192,155046,1,0,0:0:0:0:
64,192,155046,1,8,0:0:0:0:
320,192,155134,1,2,0:0:0:0:
192,192,155222,1,2,0:0:0:0:
448,192,155309,1,2,0:0:0:0:
320,192,155397,1,2,0:0:0:0:
64,192,155485,1,2,0:0:0:0:
192,192,155573,1,0,0:0:0:0:
448,192,155573,1,0,0:0:0:0:
320,192,155660,1,2,0:0:0:0:
448,192,155748,1,2,0:0:0:0:
64,192,155836,1,2,0:0:0:0:
192,192,155924,1,2,0:0:0:0:
320,192,156011,1,2,0:0:0:0:
64,192,156099,1,0,0:0:0:0:
192,192,156099,1,0,0:0:0:0:
448,192,156187,1,2,0:0:0:0:
320,192,156274,1,2,0:0:0:0:
64,192,156362,1,2,0:0:0:0:
448,192,156450,1,2,0:0:0:0:
192,192,156538,1,2,0:0:0:0:
320,192,156625,1,0,0:0:0:0:
448,192,156625,1,0,0:0:0:0:
64,192,156713,1,2,0:0:0:0:
192,192,156801,1,2,0:0:0:0:
320,192,156888,1,2,0:0:0:0:
64,192,156976,1,2,0:0:0:0:
192,192,157064,1,2,0:0:0:0:
448,192,157152,1,0,0:0:0:0:
64,192,157152,1,8,0:0:0:0:
320,192,157152,1,8,0:0:0:0:
192,192,157239,1,2,0:0:0:0:
320,192,157327,1,2,0:0:0:0:
64,192,157415,1,2,0:0:0:0:
448,192,157502,1,2,0:0:0:0:
192,192,157590,1,2,0:0:0:0:
64,192,157678,1,0,0:0:0:0:
448,192,157678,1,0,0:0:0:0:
320,192,157766,1,2,0:0:0:0:
192,192,157853,1,2,0:0:0:0:
320,192,157941,1,2,0:0:0:0:
64,192,158029,1,2,0:0:0:0:
448,192,158117,1,2,0:0:0:0:
320,192,158204,1,0,0:0:0:0:
64,192,158204,1,0,0:0:0:0:
192,192,158292,1,2,0:0:0:0:
320,192,158380,1,2,0:0:0:0:
64,192,158467,1,2,0:0:0:0:
192,192,158555,1,2,0:0:0:0:
448,192,158643,1,2,0:0:0:0:
320,192,158731,1,0,0:0:0:0:
192,192,158731,1,0,0:0:0:0:
64,192,158818,1,2,0:0:0:0:
448,192,158906,1,2,0:0:0:0:
320,192,158994,1,2,0:0:0:0:
192,192,159081,1,2,0:0:0:0:
448,192,159169,1,2,0:0:0:0:
192,192,159257,1,0,0:0:0:0:
64,192,159257,1,8,0:0:0:0:
320,192,159257,1,8,0:0:0:0:
448,192,159345,1,2,0:0:0:0:
64,192,159432,1,0,0:0:0:0:
320,192,159432,1,0,0:0:0:0:
192,192,159520,1,2,0:0:0:0:
320,192,159608,1,0,0:0:0:0:
448,192,159608,1,0,0:0:0:0:
192,192,159695,1,2,0:0:0:0:
64,192,159783,1,0,0:0:0:0:
448,192,159783,1,0,0:0:0:0:
320,192,159871,1,2,0:0:0:0:
192,192,159959,1,2,0:0:0:0:
448,192,160046,1,2,0:0:0:0:
64,192,160134,1,2,0:0:0:0:
192,192,160222,1,2,0:0:0:0:
320,192,160309,1,0,0:0:0:0:
448,192,160309,1,2,0:0:0:0:
64,192,160309,1,4,0:0:0:0:
192,192,160397,1,2,0:0:0:0:
320,192,160485,1,2,0:0:0:0:
64,192,160573,1,2,0:0:0:0:
192,192,160660,1,2,0:0:0:0:
448,192,160748,1,2,0:0:0:0:
320,192,160836,1,0,0:0:0:0:
64,192,160836,1,0,0:0:0:0:
192,192,160924,1,2,0:0:0:0:
448,192,161011,1,2,0:0:0:0:
64,192,161099,1,2,0:0:0:0:
192,192,161187,1,2,0:0:0:0:
320,192,161274,1,2,0:0:0:0:
448,192,161362,1,8,0:0:0:0:
64,192,161362,1,0,0:0:0:0:
192,192,161362,1,8,0:0:0:0:
320,192,161450,1,2,0:0:0:0:
64,192,161538,1,2,0:0:0:0:
192,192,161538,1,0,0:0:0:0:
448,192,161625,1,2,0:0:0:0:
192,192,161713,1,2,0:0:0:0:
448,192,161801,1,2,0:0:0:0:
64,192,161888,1,2,0:0:0:0:
320,192,161888,1,0,0:0:0:0:
192,192,161976,1,2,0:0:0:0:
64,192,162064,1,2,0:0:0:0:
448,192,162064,1,0,0:0:0:0:
320,192,162152,1,2,0:0:0:0:
64,192,162239,1,0,0:0:0:0:
192,192,162239,1,2,0:0:0:0:
320,192,162327,1,2,0:0:0:0:
64,192,162415,1,0,0:0:0:0:
448,192,162415,1,2,0:0:0:0:
192,192,162502,1,2,0:0:0:0:
320,192,162590,1,0,0:0:0:0:
448,192,162590,1,2,0:0:0:0:
64,192,162678,1,2,0:0:0:0:
320,192,162766,1,2,0:0:0:0:
64,192,162853,1,2,0:0:0:0:
192,192,162941,1,0,0:0:0:0:
448,192,162941,1,2,0:0:0:0:
320,192,163029,1,2,0:0:0:0:
448,192,163117,1,2,0:0:0:0:
64,192,163117,1,0,0:0:0:0:
192,192,163204,1,2,0:0:0:0:
64,192,163292,1,0,0:0:0:0:
320,192,163292,1,2,0:0:0:0:
192,192,163380,1,2,0:0:0:0:
448,192,163467,1,8,0:0:0:0:
320,192,163467,1,0,0:0:0:0:
64,192,163467,1,8,0:0:0:0:
192,192,163555,1,2,0:0:0:0:
320,192,163643,1,2,0:0:0:0:
64,192,163731,1,2,0:0:0:0:
192,192,163818,1,2,0:0:0:0:
448,192,163906,1,2,0:0:0:0:
320,192,163994,1,0,0:0:0:0:
64,192,163994,1,0,0:0:0:0:
192,192,164081,1,2,0:0:0:0:
448,192,164169,1,2,0:0:0:0:
320,192,164257,1,2,0:0:0:0:
192,192,164345,1,2,0:0:0:0:
64,192,164432,1,2,0:0:0:0:
320,192,164520,1,0,0:0:0:0:
448,192,164520,1,0,0:0:0:0:
192,192,164608,1,2,0:0:0:0:
320,192,164695,1,2,0:0:0:0:
64,192,164783,1,2,0:0:0:0:
448,192,164871,1,2,0:0:0:0:
192,192,164959,1,2,0:0:0:0:
320,192,165046,1,0,0:0:0:0:
64,192,165046,1,0,0:0:0:0:
448,192,165134,1,2,0:0:0:0:
192,192,165222,1,2,0:0:0:0:
320,192,165309,1,2,0:0:0:0:
64,192,165397,1,2,0:0:0:0:
448,192,165485,1,2,0:0:0:0:
192,192,165573,1,8,0:0:0:0:
64,192,165573,1,0,0:0:0:0:
320,192,165573,1,8,0:0:0:0:
448,192,165660,1,2,0:0:0:0:
192,192,165748,1,2,0:0:0:0:
320,192,165836,1,2,0:0:0:0:
64,192,165924,1,2,0:0:0:0:
192,192,166011,1,2,0:0:0:0:
448,192,166099,1,0,0:0:0:0:
320,192,166099,1,0,0:0:0:0:
192,192,166187,1,2,0:0:0:0:
320,192,166274,1,2,0:0:0:0:
64,192,166362,1,2,0:0:0:0:
448,192,166450,1,2,0:0:0:0:
320,192,166538,1,2,0:0:0:0:
64,192,166625,1,2,0:0:0:0:
448,192,166713,1,2,0:0:0:0:
64,192,166801,1,2,0:0:0:0:
448,192,166888,1,2,0:0:0:0:
64,192,166976,1,2,0:0:0:0:
448,192,167064,1,2,0:0:0:0:
192,192,167152,1,2,0:0:0:0:
448,192,167239,1,2,0:0:0:0:
192,192,167327,1,2,0:0:0:0:
448,192,167415,1,2,0:0:0:0:
192,192,167502,1,2,0:0:0:0:
448,192,167590,1,2,0:0:0:0:
64,192,167678,1,2,0:0:0:0:
320,192,167766,1,2,0:0:0:0:
64,192,167853,1,2,0:0:0:0:
320,192,167941,1,2,0:0:0:0:
64,192,168029,1,2,0:0:0:0:
320,192,168117,1,2,0:0:0:0:
448,192,168160,1,8,0:0:0:0:
192,192,168204,1,8,0:0:0:0:
64,192,168204,1,8,0:0:0:0:
192,192,168336,1,2,0:0:0:0:
64,192,168731,1,2,0:0:0:0:
448,192,168731,1,4,0:0:0:0:
192,192,168731,1,0,0:0:0:0:
320,192,168818,1,2,0:0:0:0:
192,192,168906,1,2,0:0:0:0:
448,192,168994,1,2,0:0:0:0:
320,192,169081,1,2,0:0:0:0:
64,192,169169,1,2,0:0:0:0:
192,192,169257,1,0,0:0:0:0:
448,192,169257,1,0,0:0:0:0:
320,192,169345,1,2,0:0:0:0:
192,192,169432,1,2,0:0:0:0:
448,192,169520,1,2,0:0:0:0:
64,192,169608,1,2,0:0:0:0:
320,192,169695,1,2,0:0:0:0:
448,192,169783,1,0,0:0:0:0:
192,192,169783,1,8,0:0:0:0:
64,192,169783,1,8,0:0:0:0:
320,192,169871,1,2,0:0:0:0:
192,192,169959,1,2,0:0:0:0:
64,192,170046,1,2,0:0:0:0:
448,192,170134,1,2,0:0:0:0:
192,192,170222,1,2,0:0:0:0:
448,192,170309,1,0,0:0:0:0:
320,192,170309,1,0,0:0:0:0:
64,192,170397,1,2,0:0:0:0:
192,192,170485,1,2,0:0:0:0:
320,192,170573,1,2,0:0:0:0:
64,192,170660,1,2,0:0:0:0:
192,192,170748,1,2,0:0:0:0:
64,192,170836,1,0,0:0:0:0:
320,192,170836,1,0,0:0:0:0:
448,192,170924,1,2,0:0:0:0:
192,192,171011,1,2,0:0:0:0:
320,192,171099,1,2,0:0:0:0:
64,192,171187,1,2,0:0:0:0:
192,192,171274,1,2,0:0:0:0:
320,192,171362,1,2,0:0:0:0:
448,192,171362,1,2,0:0:0:0:
192,192,171450,1,2,0:0:0:0:
64,192,171538,1,2,0:0:0:0:
320,192,171625,1,2,0:0:0:0:
448,192,171713,1,2,0:0:0:0:
192,192,171801,1,2,0:0:0:0:
448,192,171888,1,8,0:0:0:0:
64,192,171888,1,0,0:0:0:0:
320,192,171888,1,8,0:0:0:0:
192,192,171976,1,2,0:0:0:0:
320,192,172064,1,2,0:0:0:0:
64,192,172152,1,2,0:0:0:0:
192,192,172239,1,2,0:0:0:0:
448,192,172327,1,2,0:0:0:0:
64,192,172415,1,0,0:0:0:0:
320,192,172415,1,0,0:0:0:0:
192,192,172502,1,2,0:0:0:0:
64,192,172590,1,2,0:0:0:0:
448,192,172678,1,2,0:0:0:0:
320,192,172766,1,2,0:0:0:0:
192,192,172853,1,2,0:0:0:0:
448,192,172941,1,0,0:0:0:0:
320,192,172941,1,0,0:0:0:0:
64,192,173029,1,2,0:0:0:0:
192,192,173117,1,2,0:0:0:0:
448,192,173204,1,2,0:0:0:0:
64,192,173292,1,2,0:0:0:0:
320,192,173380,1,2,0:0:0:0:
64,192,173467,1,0,0:0:0:0:
192,192,173467,1,0,0:0:0:0:
448,192,173555,1,2,0:0:0:0:
320,192,173643,1,2,0:0:0:0:
192,192,173731,1,2,0:0:0:0:
448,192,173818,1,2,0:0:0:0:
320,192,173906,1,2,0:0:0:0:
192,192,173994,1,8,0:0:0:0:
448,192,173994,1,8,0:0:0:0:
64,192,173994,1,0,0:0:0:0:
320,192,174081,1,2,0:0:0:0:
192,192,174169,1,2,0:0:0:0:
448,192,174257,1,2,0:0:0:0:
64,192,174345,1,2,0:0:0:0:
320,192,174432,1,2,0:0:0:0:
64,192,174520,1,0,0:0:0:0:
448,192,174520,1,0,0:0:0:0:
192,192,174608,1,2,0:0:0:0:
320,192,174695,1,2,0:0:0:0:
192,192,174783,1,2,0:0:0:0:
448,192,174871,1,2,0:0:0:0:
64,192,174959,1,2,0:0:0:0:
448,192,175046,1,0,0:0:0:0:
192,192,175046,1,0,0:0:0:0:
320,192,175134,1,2,0:0:0:0:
192,192,175222,1,2,0:0:0:0:
448,192,175309,1,2,0:0:0:0:
320,192,175397,1,2,0:0:0:0:
64,192,175485,1,2,0:0:0:0:
192,192,175573,1,0,0:0:0:0:
320,192,175573,1,0,0:0:0:0:
448,192,175660,1,2,0:0:0:0:
64,192,175748,1,2,0:0:0:0:
192,192,175836,1,2,0:0:0:0:
320,192,175924,1,2,0:0:0:0:
64,192,176011,1,2,0:0:0:0:
448,192,176099,1,8,0:0:0:0:
192,192,176099,1,8,0:0:0:0:
320,192,176099,1,0,0:0:0:0:
64,192,176187,1,2,0:0:0:0:
192,192,176274,1,0,0:0:0:0:
448,192,176274,1,0,0:0:0:0:
320,192,176362,1,2,0:0:0:0:
192,192,176450,1,0,0:0:0:0:
64,192,176450,1,0,0:0:0:0:
320,192,176538,1,2,0:0:0:0:
448,192,176625,1,0,0:0:0:0:
64,192,176625,1,0,0:0:0:0:
192,192,176713,1,2,0:0:0:0:
320,192,176801,1,2,0:0:0:0:
64,192,176888,1,2,0:0:0:0:
448,192,176976,1,2,0:0:0:0:
320,192,177064,1,2,0:0:0:0:
448,192,177152,1,4,0:0:0:0:
192,192,177152,1,0,0:0:0:0:
64,192,177152,1,2,0:0:0:0:
320,192,177239,1,2,0:0:0:0:
192,192,177327,1,2,0:0:0:0:
448,192,177415,1,2,0:0:0:0:
320,192,177502,1,2,0:0:0:0:
64,192,177590,1,2,0:0:0:0:
448,192,177678,1,0,0:0:0:0:
192,192,177678,1,0,0:0:0:0:
320,192,177766,1,2,0:0:0:0:
64,192,177853,1,2,0:0:0:0:
448,192,177941,1,2,0:0:0:0:
320,192,178029,1,2,0:0:0:0:
192,192,178117,1,2,0:0:0:0:
64,192,178204,1,8,0:0:0:0:
320,192,178204,1,8,0:0:0:0:
448,192,178204,1,0,0:0:0:0:
192,192,178292,1,2,0:0:0:0:
448,192,178380,1,2,0:0:0:0:
320,192,178380,1,0,0:0:0:0:
64,192,178467,1,2,0:0:0:0:
320,192,178555,1,2,0:0:0:0:
64,192,178643,1,2,0:0:0:0:
448,192,178731,1,2,0:0:0:0:
192,192,178731,1,0,0:0:0:0:
320,192,178818,1,2,0:0:0:0:
448,192,178906,1,2,0:0:0:0:
64,192,178906,1,0,0:0:0:0:
192,192,178994,1,2,0:0:0:0:
320,192,179081,1,2,0:0:0:0:
448,192,179081,1,0,0:0:0:0:
192,192,179169,1,2,0:0:0:0:
64,192,179257,1,2,0:0:0:0:
448,192,179257,1,0,0:0:0:0:
320,192,179345,1,2,0:0:0:0:
64,192,179432,1,2,0:0:0:0:
192,192,179432,1,0,0:0:0:0:
448,192,179520,1,2,0:0:0:0:
192,192,179608,1,2,0:0:0:0:
448,192,179695,1,2,0:0:0:0:
64,192,179783,1,2,0:0:0:0:
320,192,179783,1,0,0:0:0:0:
192,192,179871,1,2,0:0:0:0:
64,192,179959,1,2,0:0:0:0:
448,192,179959,1,0,0:0:0:0:
320,192,180046,1,2,0:0:0:0:
192,192,180134,1,2,0:0:0:0:
448,192,180134,1,0,0:0:0:0:
320,192,180222,1,2,0:0:0:0:
64,192,180309,1,8,0:0:0:0:
448,192,180309,1,8,0:0:0:0:
192,192,180309,1,0,0:0:0:0:
320,192,180397,1,2,0:0:0:0:
192,192,180485,1,2,0:0:0:0:
448,192,180573,1,2,0:0:0:0:
320,192,180660,1,2,0:0:0:0:
64,192,180748,1,2,0:0:0:0:
192,192,180836,1,0,0:0:0:0:
448,192,180836,1,0,0:0:0:0:
320,192,180924,1,2,0:0:0:0:
64,192,181011,1,2,0:0:0:0:
192,192,181099,1,2,0:0:0:0:
320,192,181187,1,2,0:0:0:0:
448,192,181274,1,2,0:0:0:0:
192,192,181362,1,0,0:0:0:0:
64,192,181362,1,0,0:0:0:0:
320,192,181450,1,2,0:0:0:0:
192,192,181538,1,2,0:0:0:0:
448,192,181625,1,2,0:0:0:0:
64,192,181713,1,2,0:0:0:0:
320,192,181801,1,2,0:0:0:0:
448,192,181888,1,0,0:0:0:0:
192,192,181888,1,0,0:0:0:0:
64,192,181976,1,2,0:0:0:0:
320,192,182064,1,2,0:0:0:0:
192,192,182152,1,2,0:0:0:0:
448,192,182239,1,2,0:0:0:0:
64,192,182327,1,2,0:0:0:0:
192,192,182415,1,8,0:0:0:0:
448,192,182415,1,0,0:0:0:0:
320,192,182415,1,8,0:0:0:0:
64,192,182502,1,2,0:0:0:0:
320,192,182590,1,2,0:0:0:0:
192,192,182678,1,2,0:0:0:0:
448,192,182766,1,2,0:0:0:0:
320,192,182853,1,2,0:0:0:0:
64,192,182941,1,0,0:0:0:0:
192,192,182941,1,0,0:0:0:0:
320,192,183029,1,2,0:0:0:0:
192,192,183117,1,2,0:0:0:0:
448,192,183204,1,2,0:0:0:0:
64,192,183292,1,2,0:0:0:0:
192,192,183380,1,2,0:0:0:0:
448,192,183467,1,2,0:0:0:0:
64,192,183555,1,2,0:0:0:0:
448,192,183643,1,2,0:0:0:0:
64,192,183731,1,2,0:0:0:0:
448,192,183818,1,2,0:0:0:0:
64,192,183906,1,2,0:0:0:0:
448,192,183994,1,2,0:0:0:0:
64,192,184081,1,2,0:0:0:0:
320,192,184169,1,2,0:0:0:0:
64,192,184257,1,2,0:0:0:0:
320,192,184345,1,2,0:0:0:0:
64,192,184432,1,2,0:0:0:0:
320,192,184520,1,2,0:0:0:0:
64,192,184608,1,2,0:0:0:0:
448,192,184695,1,2,0:0:0:0:
192,192,184783,1,2,0:0:0:0:
448,192,184871,1,2,0:0:0:0:
192,192,184959,1,2,0:0:0:0:
448,192,185046,1,2,0:0:0:0:
192,192,185134,1,2,0:0:0:0:
448,192,185222,1,2,0:0:0:0:
192,192,185309,1,2,0:0:0:0:
448,192,185397,1,2,0:0:0:0:
192,192,185485,1,2,0:0:0:0:
320,192,185573,1,4,0:0:0:0:
448,192,185573,1,0,0:0:0:0:
64,192,185573,1,4,0:0:0:0:
