osu file format v14

[General]
AudioFilename: audio.mp3
AudioLeadIn: 0
PreviewTime: -1
Countdown: 1
SampleSet: Normal
StackLeniency: 0.7
Mode: 0
LetterboxInBreaks: 0
WidescreenStoryboard: 0

[Editor]
DistanceSpacing: 0.9
BeatDivisor: 4
GridSize: 32
TimelineZoom: 1

[Metadata]
Title:A Song For Mary
TitleUnicode:A Song For Mary
Artist:Ateneo
ArtistUnicode:Ateneo
Creator:Miyazumi
Version:Mary For You
Source:
Tags:Ateneo, FrJett
BeatmapID:1861895
BeatmapSetID:890627

[Difficulty]
HPDrainRate:5
CircleSize:6.3
OverallDifficulty:10
ApproachRate:9
SliderMultiplier:1.4
SliderTickRate:1

[Events]
//Background and Video events
0,0,"G8P3V3AJTB3PJVJUG4XMYDZAF84CYLF3F4TXPPYC-5a7e35ab.jpg",0,0
//Break Periods
//Storyboard Layer 0 (Background)
//Storyboard Layer 1 (Fail)
//Storyboard Layer 2 (Pass)
//Storyboard Layer 3 (Foreground)
//Storyboard Sound Samples

[TimingPoints]
0,530.973451327434,4,1,0,100,1,0

[HitObjects]
143,157,13008,6,0,B|88:321|216:338|223:341|346:319|329:270|328:269|324:262|327:263|322:256|324:257|320:252|322:253|318:248|306:132|302:92|404:222,1,525
399,215,15265,1,0,0:0:0:0:
352,187,16327,1,0,0:0:0:0:
190,192,17389,1,0,0:0:0:0:
352,187,17920,1,0,0:0:0:0:
190,192,18451,1,0,0:0:0:0:
352,187,18849,1,0,0:0:0:0:
190,192,19513,1,0,0:0:0:0:
349,190,20442,1,0,0:0:0:0:
190,192,21504,1,0,0:0:0:0:
58,130,23230,5,0,0:0:0:0:
99,179,23628,2,0,B|214:321|448:161|263:362|229:36|335:83|458:327|488:160|155:51,1,595
0,285,27477,5,0,0:0:0:0:
64,159,28008,1,0,0:0:0:0:
128,289,28539,1,0,0:0:0:0:
191,157,29070,1,0,0:0:0:0:
253,286,29601,1,0,0:0:0:0:
320,157,30132,1,0,0:0:0:0:
383,283,30663,1,0,0:0:0:0:
449,156,31194,1,0,0:0:0:0:
512,284,31725,1,0,0:0:0:0:
143,210,32389,6,0,B|223:251|359:262|197:116|306:58|555:225|628:284|137:51|286:9|518:295|458:356|128:75|181:143|132:136|106:150,3,560
152,148,39292,1,0,0:0:0:0:
172,154,39823,1,0,0:0:0:0:
193,126,40353,5,0,0:0:0:0:
193,289,40884,1,0,0:0:0:0:
322,289,41415,1,0,0:0:0:0:
321,126,41946,1,0,0:0:0:0:
193,126,42477,5,0,0:0:0:0:
193,289,43008,1,0,0:0:0:0:
322,289,43539,1,0,0:0:0:0:
321,126,44070,1,0,0:0:0:0:
193,126,44601,5,0,0:0:0:0:
193,289,45132,1,0,0:0:0:0:
322,289,45663,1,0,0:0:0:0:
321,126,46194,1,0,0:0:0:0:
193,126,46725,5,0,0:0:0:0:
193,289,47256,1,0,0:0:0:0:
322,289,47787,1,0,0:0:0:0:
321,126,48318,1,0,0:0:0:0:
193,126,48849,1,0,0:0:0:0:
256,192,49380,12,0,55884,0:0:0:0:
24,66,57876,6,0,L|489:65,2,455
295,95,61725,6,0,B|203:360|158:92|158:92|113:93|140:384|0:84,1,630
354,14,64380,2,0,B|349:244|351:269|520:267|473:141|361:134,1,420
124,196,66504,5,0,0:0:0:0:
162,196,67699,1,0,0:0:0:0:
187,195,68761,1,0,0:0:0:0:
225,193,69292,1,0,0:0:0:0:
256,193,69823,1,0,0:0:0:0:
287,193,70353,1,0,0:0:0:0:
323,192,70884,1,0,0:0:0:0:
355,193,71946,1,0,0:0:0:0:
390,192,73008,1,0,0:0:0:0:
48,185,75132,6,0,B|266:195|271:183|143:132,1,280
201,243,77256,1,0,0:0:0:0:
321,145,77920,1,0,0:0:0:0:
153,106,78318,1,0,0:0:0:0:
153,106,78849,1,0,0:0:0:0:
308,175,79380,1,0,0:0:0:0:
164,268,80442,1,0,0:0:0:0:
106,124,81637,1,0,0:0:0:0:
