osu file format v14

[General]
AudioFilename: audio.mp3
AudioLeadIn: 0
PreviewTime: 30293
Countdown: 0
SampleSet: Normal
StackLeniency: 0.7
Mode: 1
LetterboxInBreaks: 0
WidescreenStoryboard: 1

[Editor]
DistanceSpacing: 0.8
BeatDivisor: 4
GridSize: 32
TimelineZoom: 2.900002

[Metadata]
Title:Lamp feat. PLUIE (7_7 bootleg) (Cut Ver.)
TitleUnicode:ランプ feat. PLUIE (7_7 bootleg) (Cut Ver.)
Artist:Atelier LadyBird
ArtistUnicode:Atelier LadyBird
Creator:iloveyou4ever
Version:Muzukashii
Source:
Tags:カワサキヤスヒロ Kawasaki Yasuhiro - Life is so good - speedcore japanese electronic short version
BeatmapID:3920874
BeatmapSetID:1901201

[Difficulty]
HPDrainRate:6
CircleSize:5
OverallDifficulty:5
ApproachRate:5
SliderMultiplier:1.3
SliderTickRate:1

[Events]
//Background and Video events
0,0,"1146894.jpg",0,0
//Break Periods
//Storyboard Layer 0 (Background)
//Storyboard Layer 1 (Fail)
//Storyboard Layer 2 (Pass)
//Storyboard Layer 3 (Foreground)
//Storyboard Layer 4 (Overlay)
//Storyboard Sound Samples

[TimingPoints]
6,230.769230769231,4,1,0,100,1,0
698,-111.111111111111,4,1,0,100,0,0
929,230.769230769231,4,1,0,100,1,0
929,-111.111111111111,4,1,0,100,0,0
7502,-109.649122807018,4,1,0,100,0,0
7618,-108.264909410228,4,1,0,100,0,0
7733,-106.926700542231,4,1,0,100,0,0
7791,-106.264249906996,4,1,0,100,0,0
7849,-105.609956987279,4,1,0,100,0,0
7906,-104.974747842287,4,1,0,100,0,0
7964,-104.336190372862,4,1,0,100,0,0
8022,-103.705354575257,4,1,0,100,0,0
8079,-103.092783505155,4,1,0,100,0,0
8313,-100,4,1,0,100,0,0
15813,-111.111111111111,4,1,0,100,0,0
22621,-114.942528735632,4,1,0,90,0,0
22852,-119.047619047619,4,1,0,80,0,0
22967,-121.951219512195,4,1,0,60,0,0
23079,-125,4,1,0,60,0,0
23310,-123.455469376839,4,1,0,60,0,0
23541,-121.948642079679,4,1,0,60,0,0
23656,-121.212121212121,4,1,0,60,0,0
23772,-120.478154199509,4,1,0,60,0,0
23887,-119.759236197592,4,1,0,60,0,0
24002,-119.048847165626,4,1,0,70,0,0
24118,-118.340768086961,4,1,0,70,0,0
24233,-117.647058823529,4,1,0,70,0,0
24464,-116.277898130888,4,1,0,70,0,0
24695,-114.940239043825,4,1,0,70,0,0
24810,-114.285714285714,4,1,0,70,0,0
24926,-113.633006745113,4,1,0,80,0,0
25156,-112.360644564529,4,1,0,80,0,0
25272,-111.729680011618,4,1,0,80,0,0
25387,-111.111111111111,4,1,0,80,0,0
25502,-110.499353664959,4,1,0,80,0,0
25618,-109.889063467124,4,1,0,80,0,0
25733,-109.290652523913,4,1,0,80,0,0
25849,-108.693604596402,4,1,0,90,0,0
26079,-107.528885575848,4,1,0,90,0,0
26195,-106.950880444856,4,1,0,90,0,0
26310,-106.383959437658,4,1,0,90,0,0
26426,-105.818165146027,4,1,0,90,0,0
26541,-105.263157894737,4,1,0,90,0,0
26775,-100,4,1,0,100,0,0
28676,-100.54161738156,4,1,0,100,0,0
28733,-101.079643248318,4,1,0,100,0,0
28791,-101.63305119411,4,1,0,100,0,0
28849,-102.192552282722,4,1,0,100,0,0
28964,-103.320324995202,4,1,0,100,0,0
29022,-103.898610396294,4,1,0,100,0,0
29079,-104.473267134586,4,1,0,100,0,0
29137,-105.064567543831,4,1,0,100,0,0
29195,-105.66259936537,4,1,0,100,0,0
29252,-106.256990591486,4,1,0,100,0,0
29310,-106.868713605082,4,1,0,100,0,0
29426,-108.113535948587,4,1,0,100,0,0
29541,-109.376587315025,4,1,0,100,0,0
29656,-110.669499074899,4,1,0,100,0,0
29772,-112.004993411471,4,1,0,100,0,0
29887,-113.361176429298,4,1,0,100,0,0
30002,-114.750603950547,4,1,0,100,0,0
30118,-116.187050359712,4,1,0,100,0,0
30233,-117.647058823529,4,1,0,100,0,0
30467,-100,4,1,0,100,0,1
36005,-100,4,1,0,100,0,0
36352,-108.695652173913,4,1,0,90,0,0
36467,-106.382978723404,4,1,0,90,0,0
36698,-104.166666666667,4,1,0,90,0,0
36813,-102.040816326531,4,1,0,90,0,0
36929,-100,4,1,0,90,0,0
37852,-100,4,1,0,100,0,1
39698,-100,4,1,0,100,0,0
39813,-111.111111111111,4,1,0,100,0,0
40849,-109.091702485109,4,1,0,100,0,0
40964,-107.146683810136,4,1,0,100,0,0
41079,-105.263157894737,4,1,0,100,0,0
41310,-103.455410717981,4,1,0,100,0,0
41426,-101.695259983932,4,1,0,100,0,0
41544,-100,4,1,0,100,0,1
43390,-100,4,1,0,90,0,0
43736,-117.647058823529,4,1,0,80,0,0
45236,-133.333333333333,4,1,0,70,0,0
50079,-130.718954248366,4,1,0,85,0,0
50195,-128.332145072731,4,1,0,85,0,0
50310,-126.050420168067,4,1,0,85,0,0
50426,-123.829604745908,4,1,0,85,0,0
50541,-121.703853955375,4,1,0,85,0,0
50656,-119.649855833146,4,1,0,85,0,0
50772,-117.647058823529,4,1,0,95,0,0
58159,-111.111111111111,4,1,0,95,0,0
69236,-107.146683810136,4,1,0,95,0,0
70159,-103.455410717981,4,1,0,95,0,0
71082,-100,4,1,0,95,0,0
72698,-108.108108108108,4,1,0,70,0,0
72929,-117.647058823529,4,1,0,60,0,0
73156,-115.606936416185,4,1,0,60,0,0
73387,-113.084095799584,4,1,0,60,0,0
73502,-111.868748053027,4,1,0,60,0,0
73618,-110.669013361092,4,1,0,60,0,0
73849,-108.354929445251,4,1,0,75,0,0
74079,-106.145049574861,4,1,0,75,0,0
74195,-105.064348662803,4,1,0,75,0,0
74310,-104.014469339547,4,1,0,75,0,0
74426,-102.976505298575,4,1,0,75,0,0
74541,-101.967737559273,4,1,0,75,0,0
74772,-100,4,1,0,90,0,0
75698,-100,4,1,0,100,0,0
76621,-100,4,1,0,100,0,1
90579,-101.010101010101,4,1,0,100,0,1
90695,-102.345847899883,4,1,0,100,0,1
90926,-105.113895068233,4,1,0,100,0,1
90983,-105.820105820106,4,1,0,100,0,1
91041,-106.548513859219,4,1,0,100,0,1
91099,-107.287019332908,4,1,0,100,0,1
91156,-108.022834529873,4,1,0,100,0,1
91272,-109.551894786794,4,1,0,100,0,1
91387,-111.111111111111,4,1,0,100,0,1
91621,-100,4,1,0,100,0,0
92772,-105.113895068233,4,1,0,100,0,0
92829,-105.820105820106,4,1,0,100,0,0
92887,-106.548513859219,4,1,0,100,0,0
92945,-107.287019332908,4,1,0,100,0,0
93002,-108.022834529873,4,1,0,100,0,0
93118,-109.551894786794,4,1,0,100,0,0
93233,-111.111111111111,4,1,0,100,0,0
93467,-100,4,1,0,100,0,0
94618,-103.626943005181,4,1,0,100,0,0
94791,-107.52688172043,4,1,0,100,0,0
94849,-109.89010989011,4,1,0,90,0,0
94964,-113.636363636364,4,1,0,85,0,0
95079,-117.647058823529,4,1,0,80,0,0
95310,-116.279069767442,4,1,0,80,0,0
95426,-114.935988620199,4,1,0,80,0,0
95541,-113.634765487659,4,1,0,80,0,0
95656,-112.362675566681,4,1,0,80,0,0
95772,-111.108055334012,4,1,0,80,0,0
95887,-109.891604444626,4,1,0,80,0,0
96002,-108.701501372222,4,1,0,90,0,0
96233,-106.387180871374,4,1,0,90,0,0
96349,-105.261786584333,4,1,0,90,0,0
96464,-104.169352551376,4,1,0,90,0,0
96579,-103.099360732924,4,1,0,90,0,0
96695,-102.042104997285,4,1,0,90,0,0
96752,-101.53049684602,4,1,0,90,0,0
96810,-101.015152272841,4,1,0,90,0,0
96868,-100.505012811901,4,1,0,90,0,0
96926,-100,4,1,0,90,0,0
97275,-108.695652173913,4,1,0,90,0,0
97390,-106.382978723404,4,1,0,90,0,0
97621,-104.166666666667,4,1,0,90,0,0
97736,-102.040816326531,4,1,0,90,0,0
97852,-100,4,1,0,90,0,0
98775,-100,4,1,0,100,0,1
100621,-100,4,1,0,100,0,0
100736,-111.111111111111,4,1,0,100,0,0
101775,-109.091702485109,4,1,0,100,0,0
101890,-107.146683810136,4,1,0,100,0,0
102005,-105.263157894737,4,1,0,100,0,0
102236,-103.455410717981,4,1,0,100,0,0
102352,-101.698362656361,4,1,0,100,0,0
102467,-100,4,1,0,100,0,1
104313,-100,4,1,0,100,0,0
104544,-100,4,1,0,100,0,1
109852,-100,4,1,0,100,0,0
110198,-108.695652173913,4,1,0,90,0,0
110313,-106.382978723404,4,1,0,90,0,0
110544,-104.166666666667,4,1,0,90,0,0
110659,-102.040816326531,4,1,0,90,0,0
110775,-100,4,1,0,90,0,0
111698,-100,4,1,0,100,0,1
113544,-100,4,1,0,100,0,0
113659,-111.111111111111,4,1,0,100,0,0
114698,-109.091702485109,4,1,0,100,0,0
114813,-107.146683810136,4,1,0,100,0,0
114928,-105.263157894737,4,1,0,100,0,0
115044,-104.602510460251,4,1,0,100,0,0
115159,-102.986611740474,4,1,0,100,0,0
115275,-101.471334348047,4,1,0,100,0,0
115390,-100,4,1,0,100,0,1
117236,-100,4,1,0,100,0,0
117467,-111.111111111111,4,1,0,95,0,0
124041,-109.649122807018,4,1,0,95,0,0
124099,-108.595820284269,4,1,0,95,0,0
124156,-107.580209716152,4,1,0,95,0,0
124272,-105.570924632972,4,1,0,95,0,0
124387,-103.651701540584,4,1,0,95,0,0
124445,-102.709976930307,4,1,0,95,0,0
124502,-101.801013422914,4,1,0,95,0,0
124618,-100,4,1,0,95,0,0
124736,-111.111111111111,4,1,0,95,0,0
128313,-100,4,1,0,100,0,1
129121,-100,4,1,0,100,0,0

[HitObjects]
427,196,698,5,0,0:0:0:0:
383,205,929,1,4,0:0:0:0:
465,169,1159,1,8,0:0:0:0:
465,169,1275,1,8,0:0:0:0:
444,204,1390,1,0,0:0:0:0:
457,177,1621,1,8,0:0:0:0:
406,159,2082,1,0,0:0:0:0:
461,203,2313,1,0,0:0:0:0:
387,170,2544,1,8,0:0:0:0:
481,172,2775,1,0,0:0:0:0:
343,155,3005,1,0,0:0:0:0:
320,192,3121,1,8,0:0:0:0:
457,159,3236,1,8,0:0:0:0:
343,155,3467,1,0,0:0:0:0:
360,133,3929,1,0,0:0:0:0:
470,170,4159,1,8,0:0:0:0:
455,163,4390,1,0,0:0:0:0:
435,167,4621,1,8,0:0:0:0:
463,175,4852,1,8,0:0:0:0:
381,164,4967,1,8,0:0:0:0:
445,163,5198,1,8,0:0:0:0:
464,168,5313,1,0,0:0:0:0:
432,168,5775,1,0,0:0:0:0:
439,163,6005,1,8,0:0:0:0:
473,163,6236,1,8,0:0:0:0:
448,192,6467,1,0,0:0:0:0:
461,251,6698,1,0,0:0:0:0:
448,192,6813,1,8,0:0:0:0:
450,169,6929,1,8,0:0:0:0:
416,160,7044,1,8,0:0:0:0:
444,199,7159,1,0,0:0:0:0:
448,192,7390,1,8,0:0:0:0:
480,192,7621,1,12,0:0:0:0:
384,192,7852,1,0,0:0:0:0:
512,160,7967,1,0,0:0:0:0:
512,160,8082,1,8,0:0:0:0:
448,160,8313,1,4,0:0:0:0:
448,192,8544,1,8,0:0:0:0:
444,173,8659,1,8,0:0:0:0:
431,173,8890,1,8,0:0:0:0:
448,192,9121,1,8,0:0:0:0:
480,160,9236,1,0,0:0:0:0:
416,160,9467,1,8,0:0:0:0:
448,160,9698,1,0,0:0:0:0:
448,160,9929,1,8,0:0:0:0:
417,167,10159,1,0,0:0:0:0:
448,160,10390,1,8,0:0:0:0:
440,186,10505,1,0,0:0:0:0:
439,160,10736,1,0,0:0:0:0:
461,169,10852,1,8,0:0:0:0:
416,160,11082,1,0,0:0:0:0:
384,160,11544,1,8,0:0:0:0:
448,192,11775,1,8,0:0:0:0:
416,160,11890,1,8,0:0:0:0:
416,160,12005,1,0,0:0:0:0:
480,160,12236,1,0,0:0:0:0:
416,160,12352,1,8,0:0:0:0:
408,183,12582,1,0,0:0:0:0:
448,192,12813,1,8,0:0:0:0:
480,160,12929,1,0,0:0:0:0:
480,192,13159,1,8,0:0:0:0:
448,160,13390,1,8,0:0:0:0:
416,160,13621,1,0,0:0:0:0:
448,160,13852,1,8,0:0:0:0:
480,160,14082,1,0,0:0:0:0:
480,160,14198,1,8,0:0:0:0:
448,192,14429,1,8,0:0:0:0:
448,160,14544,1,0,0:0:0:0:
448,160,14775,1,12,0:0:0:0:
448,160,15005,1,8,0:0:0:0:
466,186,15121,1,8,0:0:0:0:
404,164,15236,1,0,0:0:0:0:
387,164,15294,1,0,0:0:0:0:
448,160,15352,1,0,0:0:0:0:
448,160,15467,1,8,0:0:0:0:
384,224,15698,1,4,0:0:0:0:
416,192,16044,1,0,0:0:0:0:
384,192,16159,1,8,0:0:0:0:
418,170,16390,1,0,0:0:0:0:
448,160,16852,1,0,0:0:0:0:
448,192,17082,1,8,0:0:0:0:
416,224,17313,1,8,0:0:0:0:
482,206,17429,1,0,0:0:0:0:
416,188,17544,1,8,0:0:0:0:
401,169,17775,1,0,0:0:0:0:
448,256,18236,1,0,0:0:0:0:
448,160,18352,1,8,0:0:0:0:
480,160,18582,1,8,0:0:0:0:
448,192,18698,1,0,0:0:0:0:
448,160,18929,1,8,0:0:0:0:
416,192,19044,1,8,0:0:0:0:
416,192,19159,1,8,0:0:0:0:
480,192,19390,1,4,0:0:0:0:
448,192,19621,1,8,0:0:0:0:
448,192,19736,1,8,0:0:0:0:
512,160,19852,1,0,0:0:0:0:
480,160,19967,1,8,0:0:0:0:
480,192,20198,1,0,0:0:0:0:
448,192,20544,1,0,0:0:0:0:
448,192,20775,1,8,0:0:0:0:
448,224,21236,1,8,0:0:0:0:
448,160,21467,1,8,0:0:0:0:
485,218,21582,1,0,0:0:0:0:
409,178,21813,1,0,0:0:0:0:
459,173,21929,1,8,0:0:0:0:
408,257,22159,1,0,0:0:0:0:
434,214,22275,1,0,0:0:0:0:
434,214,22390,1,0,0:0:0:0:
448,177,22621,1,8,0:0:0:0:
448,177,22852,1,8,0:0:0:0:
476,177,22967,1,8,0:0:0:0:
468,183,23082,1,0,0:0:0:0:
422,168,23313,1,8,0:0:0:0:
460,208,23544,1,0,0:0:0:0:
458,183,23775,1,8,0:0:0:0:
440,166,23890,1,0,0:0:0:0:
459,160,24121,1,8,0:0:0:0:
456,159,24236,1,8,0:0:0:0:
444,167,24698,1,8,0:0:0:0:
444,167,24813,1,8,0:0:0:0:
477,157,24929,1,0,0:0:0:0:
435,241,25159,1,0,0:0:0:0:
392,190,25390,1,8,0:0:0:0:
435,241,25621,1,0,0:0:0:0:
443,158,25736,1,8,0:0:0:0:
442,154,25852,1,0,0:0:0:0:
462,177,26082,1,8,0:0:0:0:
468,173,26313,1,0,0:0:0:0:
457,173,26429,1,0,0:0:0:0:
499,171,26544,1,8,0:0:0:0:
473,196,26775,1,0,0:0:0:0:
430,227,26890,1,0,0:0:0:0:
433,178,27005,1,8,0:0:0:0:
480,192,27121,1,8,0:0:0:0:
416,160,27236,1,0,0:0:0:0:
416,160,27352,1,0,0:0:0:0:
455,175,27467,1,8,0:0:0:0:
448,160,27698,1,8,0:0:0:0:
448,160,27813,1,0,0:0:0:0:
448,192,27929,1,8,0:0:0:0:
480,160,28044,1,8,0:0:0:0:
416,160,28159,1,0,0:0:0:0:
416,160,28217,1,0,0:0:0:0:
416,160,28275,1,0,0:0:0:0:
406,172,28390,1,8,0:0:0:0:
256,192,28621,12,0,30236,0:0:0:0:
448,192,30467,5,4,0:0:0:0:
416,160,30698,1,8,0:0:0:0:
467,165,30929,1,0,0:0:0:0:
448,160,31044,1,0,0:0:0:0:
448,160,31159,1,8,0:0:0:0:
448,160,31390,1,0,0:0:0:0:
416,160,31852,1,8,0:0:0:0:
411,188,31967,1,8,0:0:0:0:
448,160,32082,1,0,0:0:0:0:
448,160,32198,1,8,0:0:0:0:
416,160,32313,1,0,0:0:0:0:
448,160,32544,1,8,0:0:0:0:
416,160,32775,1,0,0:0:0:0:
448,160,32890,1,0,0:0:0:0:
448,160,33005,1,8,0:0:0:0:
480,160,33236,1,0,0:0:0:0:
512,160,33467,1,8,0:0:0:0:
352,192,33582,1,0,0:0:0:0:
480,160,33929,1,8,0:0:0:0:
448,160,34044,1,8,0:0:0:0:
480,192,34159,1,0,0:0:0:0:
421,167,34390,1,8,0:0:0:0:
421,167,34621,1,0,0:0:0:0:
448,160,34852,1,8,0:0:0:0:
416,160,34967,1,0,0:0:0:0:
448,160,35082,1,8,0:0:0:0:
480,192,35313,1,8,0:0:0:0:
480,160,35544,1,0,0:0:0:0:
480,160,35659,1,0,0:0:0:0:
448,160,35775,1,8,0:0:0:0:
429,256,35890,1,8,0:0:0:0:
480,192,36005,1,0,0:0:0:0:
416,209,36352,1,0,0:0:0:0:
416,160,36467,1,8,0:0:0:0:
440,188,36698,1,8,0:0:0:0:
440,188,36813,1,8,0:0:0:0:
480,192,36929,1,0,0:0:0:0:
480,192,37159,1,0,0:0:0:0:
448,160,37390,1,8,0:0:0:0:
448,160,37621,1,8,0:0:0:0:
448,160,37736,1,8,0:0:0:0:
416,160,37852,1,4,0:0:0:0:
352,160,38082,1,8,0:0:0:0:
416,160,38198,1,0,0:0:0:0:
448,160,38313,1,8,0:0:0:0:
350,168,38429,1,8,0:0:0:0:
416,160,38659,1,8,0:0:0:0:
448,160,38775,1,0,0:0:0:0:
416,160,39005,1,8,0:0:0:0:
448,160,39236,1,8,0:0:0:0:
480,160,39352,1,0,0:0:0:0:
416,160,39467,1,8,0:0:0:0:
416,160,39582,1,8,0:0:0:0:
400,173,39698,1,4,0:0:0:0:
448,160,40159,1,8,0:0:0:0:
416,160,40390,1,8,0:0:0:0:
369,165,40621,1,0,0:0:0:0:
416,192,40852,1,0,0:0:0:0:
428,168,40967,1,0,0:0:0:0:
459,169,41082,1,8,0:0:0:0:
449,154,41313,1,8,0:0:0:0:
440,154,41429,1,8,0:0:0:0:
381,161,41544,1,0,0:0:0:0:
384,160,41775,1,8,0:0:0:0:
416,192,41890,1,0,0:0:0:0:
448,160,42005,1,8,0:0:0:0:
416,160,42121,1,8,0:0:0:0:
384,160,42236,1,0,0:0:0:0:
448,256,42352,1,12,0:0:0:0:
416,192,42698,1,8,0:0:0:0:
416,192,42929,1,0,0:0:0:0:
480,160,43159,1,8,0:0:0:0:
448,160,43275,1,8,0:0:0:0:
448,192,43390,1,4,0:0:0:0:
448,160,43852,1,8,0:0:0:0:
448,224,45236,1,0,0:0:0:0:
480,192,45582,1,8,0:0:0:0:
448,192,45929,1,8,0:0:0:0:
416,192,47082,1,8,0:0:0:0:
480,192,47429,1,0,0:0:0:0:
416,192,47775,1,0,0:0:0:0:
416,256,48929,1,0,0:0:0:0:
480,160,50082,1,8,0:0:0:0:
480,192,50198,1,0,0:0:0:0:
448,192,50313,1,8,0:0:0:0:
416,192,50429,1,0,0:0:0:0:
448,224,50544,1,0,0:0:0:0:
352,192,50775,1,12,0:0:0:0:
416,256,51005,1,0,0:0:0:0:
352,160,51236,1,8,0:0:0:0:
416,256,51467,1,0,0:0:0:0:
416,256,51582,1,0,0:0:0:0:
384,160,51929,1,0,0:0:0:0:
448,192,52159,1,8,0:0:0:0:
416,160,52621,1,8,0:0:0:0:
480,192,52852,1,0,0:0:0:0:
448,160,53082,1,8,0:0:0:0:
480,160,53313,1,0,0:0:0:0:
416,160,53429,1,8,0:0:0:0:
384,192,53659,1,8,0:0:0:0:
416,160,53775,1,0,0:0:0:0:
448,160,54005,1,8,0:0:0:0:
448,160,54467,1,8,0:0:0:0:
480,192,54698,1,0,0:0:0:0:
480,160,54929,1,8,0:0:0:0:
448,160,55159,1,0,0:0:0:0:
448,160,55275,1,0,0:0:0:0:
480,192,55621,1,0,0:0:0:0:
448,192,55852,1,8,0:0:0:0:
480,192,56313,1,8,0:0:0:0:
448,192,56544,1,0,0:0:0:0:
410,185,56775,1,8,0:0:0:0:
448,160,57005,1,8,0:0:0:0:
320,128,57121,1,0,0:0:0:0:
384,192,57352,1,0,0:0:0:0:
384,224,57467,1,0,0:0:0:0:
416,160,57698,1,8,0:0:0:0:
352,160,58159,1,12,0:0:0:0:
480,224,58390,1,0,0:0:0:0:
480,224,58505,1,0,0:0:0:0:
501,179,58852,1,8,0:0:0:0:
416,160,58967,1,8,0:0:0:0:
416,192,59082,1,0,0:0:0:0:
467,205,59313,1,0,0:0:0:0:
486,175,59544,1,8,0:0:0:0:
448,192,59775,1,0,0:0:0:0:
512,160,59890,1,8,0:0:0:0:
480,160,60005,1,0,0:0:0:0:
480,160,60236,1,0,0:0:0:0:
256,192,60352,1,8,0:0:0:0:
452,172,60698,1,8,0:0:0:0:
404,175,60813,1,8,0:0:0:0:
474,168,60929,1,0,0:0:0:0:
467,169,61159,1,0,0:0:0:0:
503,173,61390,1,8,0:0:0:0:
448,175,61621,1,0,0:0:0:0:
446,175,61736,1,0,0:0:0:0:
503,173,61852,1,8,0:0:0:0:
487,166,62082,1,8,0:0:0:0:
448,160,62198,1,0,0:0:0:0:
448,224,62544,1,0,0:0:0:0:
424,168,62659,1,8,0:0:0:0:
481,163,62775,1,0,0:0:0:0:
448,224,63005,1,0,0:0:0:0:
416,192,63236,1,8,0:0:0:0:
473,158,63467,1,8,0:0:0:0:
470,159,63582,1,8,0:0:0:0:
450,171,63698,1,0,0:0:0:0:
453,147,63929,1,0,0:0:0:0:
480,160,64044,1,8,0:0:0:0:
426,160,64390,1,8,0:0:0:0:
430,163,64621,1,0,0:0:0:0:
495,172,64852,1,0,0:0:0:0:
480,152,65082,1,8,0:0:0:0:
416,179,65198,1,0,0:0:0:0:
480,152,65313,1,8,0:0:0:0:
452,175,65544,1,4,0:0:0:0:
463,156,65775,1,8,0:0:0:0:
451,157,66005,1,0,0:0:0:0:
451,157,66121,1,0,0:0:0:0:
509,164,66236,1,8,0:0:0:0:
458,171,66698,1,8,0:0:0:0:
448,256,66929,1,0,0:0:0:0:
491,160,67044,1,8,0:0:0:0:
486,159,67275,1,8,0:0:0:0:
448,192,67390,1,8,0:0:0:0:
416,160,67621,1,8,0:0:0:0:
416,160,67736,1,0,0:0:0:0:
480,160,67967,1,0,0:0:0:0:
480,160,68082,1,8,0:0:0:0:
446,175,68775,1,8,0:0:0:0:
446,176,69005,1,8,0:0:0:0:
421,182,69236,1,4,0:0:0:0:
467,183,69467,1,8,0:0:0:0:
467,183,69698,1,8,0:0:0:0:
430,178,69929,1,0,0:0:0:0:
466,166,70159,1,12,0:0:0:0:
459,178,70621,1,8,0:0:0:0:
360,197,70852,1,0,0:0:0:0:
459,178,70967,1,8,0:0:0:0:
490,167,71082,1,4,0:0:0:0:
464,177,71313,1,8,0:0:0:0:
451,164,71544,1,0,0:0:0:0:
471,170,71775,1,8,0:0:0:0:
471,170,71890,1,8,0:0:0:0:
467,207,72005,1,0,0:0:0:0:
416,192,72121,1,8,0:0:0:0:
417,181,72236,1,0,0:0:0:0:
501,189,72467,1,8,0:0:0:0:
457,180,72698,1,0,0:0:0:0:
442,214,72929,1,0,0:0:0:0:
463,166,73159,1,8,0:0:0:0:
501,164,73390,1,0,0:0:0:0:
488,168,73621,1,8,0:0:0:0:
493,165,74082,1,8,0:0:0:0:
477,165,74313,1,0,0:0:0:0:
416,192,74429,1,0,0:0:0:0:
416,160,74544,1,8,0:0:0:0:
467,139,74775,1,8,0:0:0:0:
432,151,74890,1,0,0:0:0:0:
456,159,75005,1,8,0:0:0:0:
448,160,75121,1,8,0:0:0:0:
444,161,75236,1,0,0:0:0:0:
438,161,75352,1,0,0:0:0:0:
510,157,75467,1,8,0:0:0:0:
466,179,75698,1,0,0:0:0:0:
448,192,75755,1,0,0:0:0:0:
448,192,75813,1,0,0:0:0:0:
416,160,75929,1,8,0:0:0:0:
448,160,76044,1,8,0:0:0:0:
480,160,76159,1,0,0:0:0:0:
448,160,76275,1,0,0:0:0:0:
453,175,76390,1,8,0:0:0:0:
487,163,76621,1,4,0:0:0:0:
484,175,76967,1,8,0:0:0:0:
484,175,77082,1,8,0:0:0:0:
416,160,77198,1,0,0:0:0:0:
484,175,77313,1,8,0:0:0:0:
448,192,77429,1,0,0:0:0:0:
484,175,77544,1,8,0:0:0:0:
484,175,77775,1,8,0:0:0:0:
480,224,77890,1,0,0:0:0:0:
438,162,78005,1,8,0:0:0:0:
448,160,78121,1,8,0:0:0:0:
480,160,78236,1,0,0:0:0:0:
452,173,78467,1,8,0:0:0:0:
480,160,78698,1,8,0:0:0:0:
480,160,78813,1,0,0:0:0:0:
480,160,78929,1,8,0:0:0:0:
448,192,79044,1,0,0:0:0:0:
480,160,79159,1,8,0:0:0:0:
448,256,79275,1,0,0:0:0:0:
480,160,79390,1,8,0:0:0:0:
416,192,79621,1,8,0:0:0:0:
480,160,79736,1,0,0:0:0:0:
480,192,79852,1,8,0:0:0:0:
480,192,79909,1,8,0:0:0:0:
480,192,79967,1,8,0:0:0:0:
416,192,80082,1,0,0:0:0:0:
473,168,80198,1,8,0:0:0:0:
448,271,80313,1,0,0:0:0:0:
492,175,80659,1,0,0:0:0:0:
466,176,80775,1,8,0:0:0:0:
480,192,80890,1,0,0:0:0:0:
492,175,81005,1,8,0:0:0:0:
440,185,81121,1,8,0:0:0:0:
409,190,81236,1,0,0:0:0:0:
457,175,81467,1,0,0:0:0:0:
465,187,81582,1,0,0:0:0:0:
450,168,81698,1,8,0:0:0:0:
448,192,81813,1,0,0:0:0:0:
430,148,81929,1,8,0:0:0:0:
436,175,82044,1,8,0:0:0:0:
365,172,82159,1,0,0:0:0:0:
506,186,82390,1,8,0:0:0:0:
491,175,82505,1,0,0:0:0:0:
474,177,82621,1,8,0:0:0:0:
474,167,82736,1,0,0:0:0:0:
432,171,82852,1,8,0:0:0:0:
473,172,82967,1,8,0:0:0:0:
464,164,83082,1,0,0:0:0:0:
416,224,83313,1,0,0:0:0:0:
511,173,83429,1,0,0:0:0:0:
485,174,83544,1,8,0:0:0:0:
484,174,83602,1,8,0:0:0:0:
479,171,83659,1,8,0:0:0:0:
471,183,83775,1,0,0:0:0:0:
475,168,83890,1,8,0:0:0:0:
469,172,84005,1,0,0:0:0:0:
448,288,84352,1,8,0:0:0:0:
493,187,84467,1,8,0:0:0:0:
416,192,84582,1,8,0:0:0:0:
454,161,84698,1,0,0:0:0:0:
500,182,84813,1,8,0:0:0:0:
450,185,84929,1,0,0:0:0:0:
464,183,85159,1,8,0:0:0:0:
504,167,85275,1,0,0:0:0:0:
433,173,85390,1,8,0:0:0:0:
430,174,85505,1,8,0:0:0:0:
449,168,85621,1,0,0:0:0:0:
455,170,85852,1,8,0:0:0:0:
491,181,86082,1,8,0:0:0:0:
426,260,86198,1,0,0:0:0:0:
470,168,86313,1,8,0:0:0:0:
470,168,86429,1,8,0:0:0:0:
441,178,86544,1,0,0:0:0:0:
480,160,86659,1,0,0:0:0:0:
448,160,86775,1,8,0:0:0:0:
482,175,87005,1,8,0:0:0:0:
448,192,87121,1,0,0:0:0:0:
448,192,87236,1,8,0:0:0:0:
448,160,87294,1,8,0:0:0:0:
445,168,87352,1,8,0:0:0:0:
421,162,87467,1,0,0:0:0:0:
431,156,87582,1,8,0:0:0:0:
480,160,87698,1,0,0:0:0:0:
391,164,88044,1,0,0:0:0:0:
445,173,88159,1,8,0:0:0:0:
475,157,88275,1,8,0:0:0:0:
441,164,88390,1,0,0:0:0:0:
445,220,88505,1,0,0:0:0:0:
480,192,88621,1,8,0:0:0:0:
455,156,88852,1,8,0:0:0:0:
467,162,88967,1,0,0:0:0:0:
473,156,89082,1,8,0:0:0:0:
418,169,89198,1,8,0:0:0:0:
450,162,89313,1,0,0:0:0:0:
456,235,89429,1,0,0:0:0:0:
444,167,89659,1,12,0:0:0:0:
444,167,89775,1,12,0:0:0:0:
444,167,90005,1,12,0:0:0:0:
444,167,90121,1,12,0:0:0:0:
433,168,90352,1,4,0:0:0:0:
463,164,90582,1,0,0:0:0:0:
446,155,90698,1,8,0:0:0:0:
468,167,90929,1,8,0:0:0:0:
413,197,90986,1,8,0:0:0:0:
500,173,91044,1,8,0:0:0:0:
395,170,91159,1,8,0:0:0:0:
500,173,91275,1,8,0:0:0:0:
437,172,91390,1,0,0:0:0:0:
450,259,91621,1,12,0:0:0:0:
419,256,92198,1,12,0:0:0:0:
434,176,92775,1,8,0:0:0:0:
484,172,92832,1,8,0:0:0:0:
484,172,92890,1,8,0:0:0:0:
456,219,93005,1,8,0:0:0:0:
439,172,93121,1,8,0:0:0:0:
511,166,93236,1,0,0:0:0:0:
405,171,93467,1,4,0:0:0:0:
408,160,94044,1,12,0:0:0:0:
484,166,94621,1,0,0:0:0:0:
458,147,94852,1,8,0:0:0:0:
458,147,94967,1,8,0:0:0:0:
459,163,95082,1,0,0:0:0:0:
434,174,95313,1,0,0:0:0:0:
414,158,95429,1,8,0:0:0:0:
378,173,95659,1,8,0:0:0:0:
352,128,95775,1,0,0:0:0:0:
449,145,95890,1,8,0:0:0:0:
448,158,96005,1,0,0:0:0:0:
472,164,96236,1,8,0:0:0:0:
459,160,96467,1,8,0:0:0:0:
432,160,96582,1,0,0:0:0:0:
461,168,96698,1,8,0:0:0:0:
457,180,96813,1,8,0:0:0:0:
395,178,96929,1,0,0:0:0:0:
414,215,97275,1,0,0:0:0:0:
361,182,97390,1,8,0:0:0:0:
437,193,97621,1,8,0:0:0:0:
437,193,97736,1,8,0:0:0:0:
409,205,97852,1,0,0:0:0:0:
406,177,98082,1,0,0:0:0:0:
458,175,98313,1,8,0:0:0:0:
423,175,98544,1,8,0:0:0:0:
433,169,98659,1,8,0:0:0:0:
407,157,98775,1,4,0:0:0:0:
427,167,99005,1,8,0:0:0:0:
472,147,99121,1,0,0:0:0:0:
495,162,99236,1,8,0:0:0:0:
473,192,99467,1,0,0:0:0:0:
480,192,99698,1,0,0:0:0:0:
423,204,99813,1,0,0:0:0:0:
447,151,99929,1,8,0:0:0:0:
423,170,100159,1,8,0:0:0:0:
458,147,100275,1,0,0:0:0:0:
509,170,100390,1,8,0:0:0:0:
448,256,100505,1,8,0:0:0:0:
390,184,100621,1,4,0:0:0:0:
374,169,101082,1,8,0:0:0:0:
416,160,101313,1,8,0:0:0:0:
369,165,101544,1,0,0:0:0:0:
446,184,101775,1,0,0:0:0:0:
448,224,101890,1,0,0:0:0:0:
421,150,102005,1,8,0:0:0:0:
449,154,102236,1,8,0:0:0:0:
440,154,102352,1,8,0:0:0:0:
381,161,102467,1,0,0:0:0:0:
462,166,102698,1,8,0:0:0:0:
462,166,102813,1,8,0:0:0:0:
475,162,102929,1,0,0:0:0:0:
499,160,103044,1,0,0:0:0:0:
433,160,103159,1,8,0:0:0:0:
417,199,103275,1,4,0:0:0:0:
417,199,103621,1,0,0:0:0:0:
470,188,103852,1,8,0:0:0:0:
470,188,103967,1,8,0:0:0:0:
416,192,104082,1,8,0:0:0:0:
462,259,104198,1,0,0:0:0:0:
379,157,104544,1,12,0:0:0:0:
439,175,104775,1,0,0:0:0:0:
488,164,105005,1,8,0:0:0:0:
467,176,105121,1,8,0:0:0:0:
441,171,105236,1,0,0:0:0:0:
488,164,105467,1,8,0:0:0:0:
470,191,105698,1,8,0:0:0:0:
434,199,105813,1,8,0:0:0:0:
470,185,105929,1,0,0:0:0:0:
483,171,106044,1,8,0:0:0:0:
460,226,106159,1,0,0:0:0:0:
489,188,106390,1,8,0:0:0:0:
453,219,106621,1,0,0:0:0:0:
414,164,106736,1,0,0:0:0:0:
465,172,106852,1,8,0:0:0:0:
465,172,106967,1,8,0:0:0:0:
512,160,107082,1,0,0:0:0:0:
480,160,107313,1,8,0:0:0:0:
416,160,107429,1,0,0:0:0:0:
448,160,107775,1,8,0:0:0:0:
425,169,107890,1,8,0:0:0:0:
460,163,108005,1,0,0:0:0:0:
430,192,108236,1,0,0:0:0:0:
479,179,108352,1,8,0:0:0:0:
473,164,108467,1,0,0:0:0:0:
439,159,108698,1,8,0:0:0:0:
438,162,108813,1,0,0:0:0:0:
474,162,108929,1,8,0:0:0:0:
457,154,109159,1,0,0:0:0:0:
423,206,109275,1,0,0:0:0:0:
454,185,109390,1,8,0:0:0:0:
452,181,109505,1,0,0:0:0:0:
460,171,109621,1,8,0:0:0:0:
448,192,109736,1,8,0:0:0:0:
490,171,109852,1,0,0:0:0:0:
433,173,110198,1,0,0:0:0:0:
473,180,110313,1,8,0:0:0:0:
512,160,110544,1,8,0:0:0:0:
494,168,110659,1,8,0:0:0:0:
496,170,110775,1,0,0:0:0:0:
479,185,111005,1,0,0:0:0:0:
439,171,111236,1,8,0:0:0:0:
466,163,111467,1,8,0:0:0:0:
466,163,111582,1,8,0:0:0:0:
437,162,111698,1,4,0:0:0:0:
424,172,111929,1,8,0:0:0:0:
448,160,112159,1,0,0:0:0:0:
457,172,112275,1,0,0:0:0:0:
456,168,112390,1,8,0:0:0:0:
474,170,112505,1,8,0:0:0:0:
496,158,112621,1,0,0:0:0:0:
404,176,112852,1,8,0:0:0:0:
459,168,112967,1,0,0:0:0:0:
460,171,113082,1,8,0:0:0:0:
448,160,113198,1,8,0:0:0:0:
480,160,113313,1,0,0:0:0:0:
440,173,113429,1,8,0:0:0:0:
476,152,113544,1,4,0:0:0:0:
440,188,114005,1,8,0:0:0:0:
448,174,114236,1,8,0:0:0:0:
442,186,114352,1,8,0:0:0:0:
448,192,114467,1,0,0:0:0:0:
450,192,114698,1,0,0:0:0:0:
485,180,114813,1,0,0:0:0:0:
460,166,114929,1,8,0:0:0:0:
480,192,115044,1,0,0:0:0:0:
461,170,115159,1,8,0:0:0:0:
461,170,115275,1,8,0:0:0:0:
467,173,115390,1,0,0:0:0:0:
438,164,115621,1,8,0:0:0:0:
448,187,115736,1,0,0:0:0:0:
448,160,115852,1,8,0:0:0:0:
480,192,115967,1,8,0:0:0:0:
480,192,116025,1,8,0:0:0:0:
499,165,116082,1,8,0:0:0:0:
430,173,116198,1,4,0:0:0:0:
468,172,116429,1,8,0:0:0:0:
453,172,116544,1,0,0:0:0:0:
453,172,116659,1,0,0:0:0:0:
463,165,116775,1,8,0:0:0:0:
450,211,116890,1,0,0:0:0:0:
448,192,117005,1,8,0:0:0:0:
399,177,117236,1,4,0:0:0:0:
448,160,117698,1,8,0:0:0:0:
480,192,117929,1,0,0:0:0:0:
480,192,118044,1,0,0:0:0:0:
448,160,118390,1,0,0:0:0:0:
448,192,118621,1,8,0:0:0:0:
480,192,118852,1,8,0:0:0:0:
424,189,119082,1,4,0:0:0:0:
512,160,119313,1,0,0:0:0:0:
448,160,119544,1,8,0:0:0:0:
480,192,119775,1,0,0:0:0:0:
480,192,119890,1,0,0:0:0:0:
512,160,120236,1,0,0:0:0:0:
480,192,120467,1,0,0:0:0:0:
435,186,120698,1,8,0:0:0:0:
467,192,120929,1,4,0:0:0:0:
512,160,121159,1,0,0:0:0:0:
493,173,121390,1,8,0:0:0:0:
461,269,121621,1,0,0:0:0:0:
416,160,121736,1,0,0:0:0:0:
448,320,122082,1,0,0:0:0:0:
463,167,122313,1,8,0:0:0:0:
434,188,122544,1,8,0:0:0:0:
473,158,122775,1,12,0:0:0:0:
472,159,123005,1,0,0:0:0:0:
475,168,123121,1,8,0:0:0:0:
401,192,123467,1,8,0:0:0:0:
480,224,123698,1,0,0:0:0:0:
479,177,123929,1,8,0:0:0:0:
448,170,124159,1,0,0:0:0:0:
452,170,124275,1,0,0:0:0:0:
454,164,124390,1,8,0:0:0:0:
441,159,124621,1,4,0:0:0:0:
494,169,124852,1,0,0:0:0:0:
461,168,125082,1,8,0:0:0:0:
329,133,125313,1,0,0:0:0:0:
416,192,125429,1,0,0:0:0:0:
452,200,125775,1,0,0:0:0:0:
384,168,126005,1,8,0:0:0:0:
453,166,126236,1,8,0:0:0:0:
438,192,126467,1,0,0:0:0:0:
439,172,126698,1,8,0:0:0:0:
493,156,127159,1,0,0:0:0:0:
470,157,127390,1,8,0:0:0:0:
449,225,127621,1,0,0:0:0:0:
399,170,127852,1,8,0:0:0:0:
448,192,128082,1,8,0:0:0:0:
459,163,128313,1,4,0:0:0:0:
411,153,128544,1,0,0:0:0:0:
411,153,128659,1,0,0:0:0:0:
411,153,128775,1,0,0:0:0:0:
411,153,128890,1,0,0:0:0:0:
411,153,129005,1,0,0:0:0:0:
387,200,129121,1,4,0:0:0:0:
