osu file format v14

[General]
AudioFilename: audio.mp3
AudioLeadIn: 0
PreviewTime: 30293
Countdown: 0
SampleSet: Normal
StackLeniency: 0.7
Mode: 1
LetterboxInBreaks: 0
WidescreenStoryboard: 1

[Editor]
DistanceSpacing: 0.8
BeatDivisor: 4
GridSize: 32
TimelineZoom: 3.999999

[Metadata]
Title:Lamp feat. PLUIE (7_7 bootleg) (Cut Ver.)
TitleUnicode:ランプ feat. PLUIE (7_7 bootleg) (Cut Ver.)
Artist:Atelier LadyBird
ArtistUnicode:Atelier LadyBird
Creator:iloveyou4ever
Version:Inner Oni
Source:
Tags:カワサキヤスヒロ Kawasaki Yasuhiro - Life is so good - speedcore japanese electronic short version
BeatmapID:3919461
BeatmapSetID:1901201

[Difficulty]
HPDrainRate:6
CircleSize:5
OverallDifficulty:6.5
ApproachRate:5
SliderMultiplier:1.4
SliderTickRate:1

[Events]
//Background and Video events
0,0,"1146894.jpg",0,0
//Break Periods
//Storyboard Layer 0 (Background)
//Storyboard Layer 1 (Fail)
//Storyboard Layer 2 (Pass)
//Storyboard Layer 3 (Foreground)
//Storyboard Layer 4 (Overlay)
//Storyboard Sound Samples

[TimingPoints]
6,230.769230769231,4,1,0,100,1,0
698,-111.111111111111,4,1,0,100,0,0
929,230.769230769231,4,1,0,100,1,0
929,-111.111111111111,4,1,0,100,0,0
7502,-109.649122807018,4,1,0,100,0,0
7618,-108.264909410228,4,1,0,100,0,0
7733,-106.926700542231,4,1,0,100,0,0
7791,-106.264249906996,4,1,0,100,0,0
7849,-105.609956987279,4,1,0,100,0,0
7906,-104.974747842287,4,1,0,100,0,0
7964,-104.336190372862,4,1,0,100,0,0
8022,-103.705354575257,4,1,0,100,0,0
8079,-103.092783505155,4,1,0,100,0,0
8313,-100,4,1,0,100,0,0
15813,-111.111111111111,4,1,0,100,0,0
22159,-105.263157894737,4,1,0,100,0,0
22621,-114.942528735632,4,1,0,90,0,0
22852,-119.047619047619,4,1,0,80,0,0
22967,-121.951219512195,4,1,0,60,0,0
23079,-125,4,1,0,60,0,0
23310,-123.455469376839,4,1,0,60,0,0
23541,-121.948642079679,4,1,0,60,0,0
23656,-121.212121212121,4,1,0,60,0,0
23772,-120.478154199509,4,1,0,60,0,0
23887,-119.759236197592,4,1,0,60,0,0
24002,-119.048847165626,4,1,0,70,0,0
24118,-118.340768086961,4,1,0,70,0,0
24233,-117.647058823529,4,1,0,70,0,0
24464,-116.277898130888,4,1,0,70,0,0
24695,-114.940239043825,4,1,0,70,0,0
24810,-114.285714285714,4,1,0,70,0,0
24926,-113.633006745113,4,1,0,80,0,0
25156,-112.360644564529,4,1,0,80,0,0
25272,-111.729680011618,4,1,0,80,0,0
25387,-111.111111111111,4,1,0,80,0,0
25502,-110.499353664959,4,1,0,80,0,0
25618,-109.889063467124,4,1,0,80,0,0
25733,-109.290652523913,4,1,0,80,0,0
25849,-108.693604596402,4,1,0,90,0,0
26079,-107.528885575848,4,1,0,90,0,0
26195,-106.950880444856,4,1,0,90,0,0
26310,-106.383959437658,4,1,0,90,0,0
26426,-105.818165146027,4,1,0,90,0,0
26541,-105.263157894737,4,1,0,90,0,0
26775,-100,4,1,0,100,0,0
28676,-100.54161738156,4,1,0,100,0,0
28733,-101.079643248318,4,1,0,100,0,0
28791,-101.63305119411,4,1,0,100,0,0
28849,-102.192552282722,4,1,0,100,0,0
28964,-103.320324995202,4,1,0,100,0,0
29022,-103.898610396294,4,1,0,100,0,0
29079,-104.473267134586,4,1,0,100,0,0
29137,-105.064567543831,4,1,0,100,0,0
29195,-105.66259936537,4,1,0,100,0,0
29252,-106.256990591486,4,1,0,100,0,0
29310,-106.868713605082,4,1,0,100,0,0
29426,-108.113535948587,4,1,0,100,0,0
29541,-109.376587315025,4,1,0,100,0,0
29656,-110.669499074899,4,1,0,100,0,0
29772,-112.004993411471,4,1,0,100,0,0
29887,-113.361176429298,4,1,0,100,0,0
30002,-114.750603950547,4,1,0,100,0,0
30118,-116.187050359712,4,1,0,100,0,0
30233,-117.647058823529,4,1,0,100,0,0
30467,-100,4,1,0,100,0,1
36005,-106.382978723404,4,1,0,100,0,0
36059,-105.95844227329,4,1,0,100,0,0
36117,-105.537280701754,4,1,0,100,0,0
36175,-105.119453924915,4,1,0,100,0,0
36232,-104.712041884817,4,1,0,100,0,0
36290,-104.300711141212,4,1,0,100,0,0
36348,-103.892599338865,4,1,0,100,0,0
36405,-103.494623655914,4,1,0,100,0,0
36463,-103.092783505155,4,1,0,100,0,0
36521,-102.694051747133,4,1,0,100,0,0
36578,-102.305188334551,4,1,0,100,0,0
36636,-101.912514062603,4,1,0,100,0,0
36694,-101.522842639594,4,1,0,100,0,0
36751,-101.142782083279,4,1,0,100,0,0
36809,-100.758963622088,4,1,0,100,0,0
36867,-100.378047190718,4,1,0,100,0,0
36925,-100,4,1,0,100,0,0
37852,-100,4,1,0,100,0,1
39698,-100,4,1,0,100,0,0
39813,-111.111111111111,4,1,0,100,0,0
40733,-109.89010989011,4,1,0,100,0,0
40791,-109.115462525321,4,1,0,100,0,0
40849,-108.351660140535,4,1,0,100,0,0
40964,-106.868411655005,4,1,0,100,0,0
41079,-105.425223767647,4,1,0,100,0,0
41137,-104.712041884817,4,1,0,100,0,0
41195,-104.008444249929,4,1,0,100,0,0
41252,-103.326129490147,4,1,0,100,0,0
41310,-102.640972548621,4,1,0,100,0,0
41426,-101.297561587162,4,1,0,100,0,0
41483,-100.650240414559,4,1,0,100,0,0
41544,-100,4,1,0,100,0,1
43390,-100,4,1,0,90,0,0
43736,-117.647058823529,4,1,0,80,0,0
45236,-133.333333333333,4,1,0,70,0,0
50079,-130.718954248366,4,1,0,85,0,0
50195,-128.332145072731,4,1,0,85,0,0
50310,-126.050420168067,4,1,0,85,0,0
50426,-123.829604745908,4,1,0,85,0,0
50541,-121.703853955375,4,1,0,85,0,0
50656,-119.649855833146,4,1,0,85,0,0
50772,-117.647058823529,4,1,0,95,0,0
58159,-111.111111111111,4,1,0,95,0,0
69236,-107.146683810136,4,1,0,95,0,0
70159,-103.455410717981,4,1,0,95,0,0
71082,-100,4,1,0,95,0,0
72698,-108.108108108108,4,1,0,70,0,0
72929,-117.647058823529,4,1,0,60,0,0
73156,-115.606936416185,4,1,0,60,0,0
73387,-113.084095799584,4,1,0,60,0,0
73502,-111.868748053027,4,1,0,60,0,0
73618,-110.669013361092,4,1,0,60,0,0
73849,-108.354929445251,4,1,0,75,0,0
74079,-106.145049574861,4,1,0,75,0,0
74195,-105.064348662803,4,1,0,75,0,0
74310,-104.014469339547,4,1,0,75,0,0
74426,-102.976505298575,4,1,0,75,0,0
74541,-101.967737559273,4,1,0,75,0,0
74772,-100,4,1,0,90,0,0
75698,-100,4,1,0,100,0,0
76621,-100,4,1,0,100,0,1
83541,-99.2063492063492,4,1,0,100,0,1
83599,-98.6874568242377,4,1,0,100,0,1
83656,-98.1836033382425,4,1,0,100,0,1
83714,-97.6753272123462,4,1,0,100,0,1
83772,-97.1817298347911,4,1,0,100,0,1
83887,-96.2000962000962,4,1,0,100,0,1
83945,-95.7120980091884,4,1,0,100,0,1
84002,-95.2380952380952,4,1,0,100,0,1
89656,-96.3391136801541,4,1,0,100,0,1
89772,-97.2051415960511,4,1,0,100,0,1
90002,-98.9691428963483,4,1,0,100,0,1
90118,-99.8833251972566,4,1,0,100,0,1
90349,-101.755054245849,4,1,0,100,0,1
90579,-103.68970003666,4,1,0,100,0,1
90695,-104.693612419529,4,1,0,100,0,1
90926,-106.75182144139,4,1,0,100,0,1
90983,-107.272199953893,4,1,0,100,0,1
91041,-107.806941496517,4,1,0,100,0,1
91099,-108.347041017899,4,1,0,100,0,1
91156,-108.88312707812,4,1,0,100,0,1
91272,-109.990659372081,4,1,0,100,0,1
91387,-111.111111111111,4,1,0,100,0,1
91621,-100,4,1,0,100,0,0
92198,-90.9090909090909,4,1,0,100,0,0
92656,-95.2380952380952,4,1,0,100,0,0
92772,-97.571277719113,4,1,0,100,0,0
92829,-98.7601539119282,4,1,0,100,0,0
92887,-100,4,1,0,100,0,0
92945,-101.271372205173,4,1,0,100,0,0
93002,-102.552719200888,4,1,0,100,0,0
93118,-105.263157894737,4,1,0,100,0,0
93233,-108.095460926533,4,1,0,100,0,0
93349,-111.111111111111,4,1,0,100,0,0
93467,-100,4,1,0,100,0,0
93929,-90.9090909090909,4,1,0,100,0,0
94618,-100,4,1,0,100,0,0
94791,-105.964831628548,4,1,0,100,0,0
94849,-108.127125601032,4,1,0,90,0,0
94964,-112.686384747006,4,1,0,85,0,0
95079,-117.647058823529,4,1,0,80,0,0
95310,-116.279069767442,4,1,0,80,0,0
95426,-114.935988620199,4,1,0,80,0,0
95541,-113.634765487659,4,1,0,80,0,0
95656,-112.362675566681,4,1,0,80,0,0
95772,-111.108055334012,4,1,0,80,0,0
95887,-109.891604444626,4,1,0,80,0,0
96002,-108.701501372222,4,1,0,90,0,0
96233,-106.387180871374,4,1,0,90,0,0
96349,-105.261786584333,4,1,0,90,0,0
96464,-104.169352551376,4,1,0,90,0,0
96579,-103.099360732924,4,1,0,90,0,0
96695,-102.042104997285,4,1,0,90,0,0
96752,-101.53049684602,4,1,0,90,0,0
96810,-101.015152272841,4,1,0,90,0,0
96868,-100.505012811901,4,1,0,90,0,0
96926,-100,4,1,0,90,0,0
97044,-106.382978723404,4,1,0,90,0,0
97102,-105.897771952818,4,1,0,90,0,0
97159,-105.425223767647,4,1,0,90,0,0
97217,-104.948694635667,4,1,0,90,0,0
97275,-104.476454007086,4,1,0,90,0,0
97332,-104.016477857878,4,1,0,90,0,0
97390,-103.552570871995,4,1,0,90,0,0
97448,-103.092783505155,4,1,0,90,0,0
97505,-102.644884270434,4,1,0,90,0,0
97563,-102.193104494979,4,1,0,90,0,0
97621,-101.745284206815,4,1,0,90,0,0
97679,-101.301371580452,4,1,0,90,0,0
97736,-100.868870468391,4,1,0,90,0,0
97794,-100.432556058271,4,1,0,90,0,0
97852,-100,4,1,0,90,0,0
98775,-100,4,1,0,100,0,1
100621,-100,4,1,0,100,0,0
100736,-111.111111111111,4,1,0,100,0,0
101887,-109.89010989011,4,1,0,100,0,0
101945,-108.808387863245,4,1,0,100,0,0
102002,-107.765866049083,4,1,0,100,0,0
102060,-106.725362533294,4,1,0,100,0,0
102118,-105.704759462133,4,1,0,100,0,0
102175,-104.720593840179,4,1,0,100,0,0
102233,-103.737796875281,4,1,0,100,0,0
102291,-102.773275386068,4,1,0,100,0,0
102349,-101.826524309539,4,1,0,100,0,0
102406,-100.912938542796,4,1,0,100,0,0
102467,-100,4,1,0,100,0,1
104313,-100,4,1,0,100,0,0
104544,-100,4,1,0,100,0,1
109852,-106.382978723404,4,1,0,100,0,0
109906,-105.95844227329,4,1,0,100,0,0
109964,-105.537280701754,4,1,0,100,0,0
110022,-105.119453924915,4,1,0,100,0,0
110079,-104.712041884817,4,1,0,100,0,0
110137,-104.300711141212,4,1,0,100,0,0
110195,-103.892599338865,4,1,0,100,0,0
110252,-103.494623655914,4,1,0,100,0,0
110310,-103.092783505155,4,1,0,100,0,0
110368,-102.694051747133,4,1,0,100,0,0
110425,-102.305188334551,4,1,0,100,0,0
110483,-101.912514062603,4,1,0,100,0,0
110541,-101.522842639594,4,1,0,100,0,0
110598,-101.142782083279,4,1,0,100,0,0
110656,-100.758963622088,4,1,0,100,0,0
110714,-100.378047190718,4,1,0,100,0,0
110772,-100,4,1,0,100,0,0
111698,-100,4,1,0,100,0,1
113544,-100,4,1,0,100,0,0
113659,-111.111111111111,4,1,0,100,0,0
114810,-109.89010989011,4,1,0,100,0,0
114868,-108.808387863245,4,1,0,100,0,0
114925,-107.765866049083,4,1,0,100,0,0
114983,-106.725362533294,4,1,0,100,0,0
115041,-105.704759462133,4,1,0,100,0,0
115098,-104.720593840179,4,1,0,100,0,0
115156,-103.737796875281,4,1,0,100,0,0
115214,-102.773275386068,4,1,0,100,0,0
115272,-101.826524309539,4,1,0,100,0,0
115329,-100.912938542796,4,1,0,100,0,0
115390,-100,4,1,0,100,0,1
117236,-100,4,1,0,100,0,0
117467,-111.111111111111,4,1,0,95,0,0
124041,-109.649122807018,4,1,0,95,0,0
124099,-108.595820284269,4,1,0,95,0,0
124156,-107.580209716152,4,1,0,95,0,0
124272,-105.570924632972,4,1,0,95,0,0
124387,-103.651701540584,4,1,0,95,0,0
124445,-102.709976930307,4,1,0,95,0,0
124502,-101.801013422914,4,1,0,95,0,0
124618,-100,4,1,0,95,0,0
124736,-111.111111111111,4,1,0,95,0,0
128313,-100,4,1,0,100,0,1
129121,-100,4,1,0,100,0,0

[HitObjects]
427,196,698,5,0,0:0:0:0:
383,205,929,1,4,0:0:0:0:
431,184,1159,1,8,0:0:0:0:
411,176,1275,1,0,0:0:0:0:
403,174,1332,1,0,0:0:0:0:
447,174,1390,1,8,0:0:0:0:
432,170,1505,1,0,0:0:0:0:
457,177,1621,1,8,0:0:0:0:
421,212,1736,1,8,0:0:0:0:
333,194,1852,1,0,0:0:0:0:
421,212,2082,1,8,0:0:0:0:
428,174,2198,1,0,0:0:0:0:
452,183,2313,1,8,0:0:0:0:
422,182,2371,1,8,0:0:0:0:
413,168,2429,1,0,0:0:0:0:
460,171,2544,1,8,0:0:0:0:
487,183,2659,1,0,0:0:0:0:
449,163,2775,1,8,0:0:0:0:
420,168,3005,1,8,0:0:0:0:
427,167,3121,1,0,0:0:0:0:
428,236,3179,1,0,0:0:0:0:
457,159,3236,1,8,0:0:0:0:
428,176,3352,1,0,0:0:0:0:
447,171,3467,1,8,0:0:0:0:
439,211,3582,1,8,0:0:0:0:
356,154,3698,1,0,0:0:0:0:
463,178,3929,1,8,0:0:0:0:
461,169,4044,1,0,0:0:0:0:
441,190,4102,1,8,0:0:0:0:
456,168,4159,1,0,0:0:0:0:
477,162,4275,1,0,0:0:0:0:
484,163,4390,1,8,0:0:0:0:
435,167,4621,1,8,0:0:0:0:
447,175,4736,1,0,0:0:0:0:
463,175,4852,1,8,0:0:0:0:
467,169,4967,1,0,0:0:0:0:
467,169,5025,1,0,0:0:0:0:
445,163,5082,1,8,0:0:0:0:
445,163,5198,1,8,0:0:0:0:
464,168,5313,1,0,0:0:0:0:
435,167,5429,1,8,0:0:0:0:
452,168,5544,1,0,0:0:0:0:
421,168,5775,1,8,0:0:0:0:
442,168,5890,1,0,0:0:0:0:
427,170,5948,1,0,0:0:0:0:
439,163,6005,1,8,0:0:0:0:
408,161,6121,1,0,0:0:0:0:
473,163,6236,1,8,0:0:0:0:
446,160,6467,1,8,0:0:0:0:
434,194,6525,1,8,0:0:0:0:
452,185,6582,1,0,0:0:0:0:
461,251,6698,1,0,0:0:0:0:
448,192,6813,1,8,0:0:0:0:
448,192,6871,1,0,0:0:0:0:
450,169,6929,1,8,0:0:0:0:
416,160,7044,1,8,0:0:0:0:
482,161,7159,1,8,0:0:0:0:
448,160,7217,1,8,0:0:0:0:
384,192,7275,1,0,0:0:0:0:
448,192,7390,1,8,0:0:0:0:
448,160,7505,1,0,0:0:0:0:
480,192,7621,1,12,0:0:0:0:
448,160,7736,1,0,0:0:0:0:
408,195,7852,1,8,0:0:0:0:
465,223,7909,1,0,0:0:0:0:
512,160,7967,1,0,0:0:0:0:
438,197,8025,1,0,0:0:0:0:
512,160,8082,1,8,0:0:0:0:
448,160,8313,1,4,0:0:0:0:
448,192,8544,1,8,0:0:0:0:
480,160,8659,1,0,0:0:0:0:
480,160,8717,1,0,0:0:0:0:
480,192,8775,1,8,0:0:0:0:
448,192,8890,1,8,0:0:0:0:
448,160,9005,1,0,0:0:0:0:
416,192,9121,1,8,0:0:0:0:
416,160,9236,1,0,0:0:0:0:
448,160,9467,1,8,0:0:0:0:
480,160,9582,1,0,0:0:0:0:
416,160,9698,1,8,0:0:0:0:
416,160,9755,1,8,0:0:0:0:
480,160,9813,1,0,0:0:0:0:
448,160,9929,1,8,0:0:0:0:
448,160,10044,1,0,0:0:0:0:
400,173,10102,1,0,0:0:0:0:
480,160,10159,1,8,0:0:0:0:
448,160,10275,1,0,0:0:0:0:
448,160,10390,1,8,0:0:0:0:
408,165,10505,1,8,0:0:0:0:
448,160,10563,1,0,0:0:0:0:
416,160,10621,1,8,0:0:0:0:
448,160,10679,1,8,0:0:0:0:
433,173,10736,1,0,0:0:0:0:
461,169,10852,1,8,0:0:0:0:
416,160,10967,1,8,0:0:0:0:
416,160,11082,1,0,0:0:0:0:
448,160,11313,1,8,0:0:0:0:
448,160,11429,1,0,0:0:0:0:
448,160,11486,1,0,0:0:0:0:
384,160,11544,1,8,0:0:0:0:
384,160,11659,1,8,0:0:0:0:
384,160,11717,1,8,0:0:0:0:
448,160,11775,1,0,0:0:0:0:
448,160,11890,1,8,0:0:0:0:
416,160,12005,1,0,0:0:0:0:
480,160,12236,1,0,0:0:0:0:
416,192,12352,1,8,0:0:0:0:
416,192,12409,1,8,0:0:0:0:
480,160,12467,1,0,0:0:0:0:
480,160,12582,1,8,0:0:0:0:
448,160,12698,1,0,0:0:0:0:
448,160,12755,1,0,0:0:0:0:
448,192,12813,1,8,0:0:0:0:
480,160,12929,1,0,0:0:0:0:
480,192,13044,1,0,0:0:0:0:
480,192,13159,1,8,0:0:0:0:
480,160,13275,1,0,0:0:0:0:
448,160,13390,1,8,0:0:0:0:
416,192,13448,1,8,0:0:0:0:
448,160,13505,1,0,0:0:0:0:
448,160,13563,1,0,0:0:0:0:
480,160,13621,1,8,0:0:0:0:
448,160,13736,1,0,0:0:0:0:
448,160,13852,1,8,0:0:0:0:
480,160,14082,1,0,0:0:0:0:
480,160,14198,1,8,0:0:0:0:
480,160,14313,1,0,0:0:0:0:
448,224,14429,1,0,0:0:0:0:
448,192,14486,1,0,0:0:0:0:
448,160,14544,1,8,0:0:0:0:
480,192,14659,1,0,0:0:0:0:
448,160,14775,1,12,0:0:0:0:
448,192,14890,1,0,0:0:0:0:
480,160,14948,1,0,0:0:0:0:
448,160,15005,1,8,0:0:0:0:
416,224,15121,1,0,0:0:0:0:
448,160,15236,1,8,0:0:0:0:
448,160,15294,1,8,0:0:0:0:
448,160,15352,1,0,0:0:0:0:
448,160,15409,1,0,0:0:0:0:
448,160,15467,1,8,0:0:0:0:
448,160,15582,1,8,0:0:0:0:
384,224,15698,1,4,0:0:0:0:
416,192,16044,1,0,0:0:0:0:
384,192,16159,1,8,0:0:0:0:
384,192,16390,1,8,0:0:0:0:
416,192,16505,1,8,0:0:0:0:
352,160,16621,1,0,0:0:0:0:
448,160,16736,1,8,0:0:0:0:
448,160,16852,1,0,0:0:0:0:
448,192,17082,1,8,0:0:0:0:
416,224,17313,1,8,0:0:0:0:
416,224,17429,1,8,0:0:0:0:
416,160,17544,1,0,0:0:0:0:
448,160,17775,1,8,0:0:0:0:
480,224,17890,1,0,0:0:0:0:
480,160,18005,1,8,0:0:0:0:
448,256,18236,1,0,0:0:0:0:
448,160,18352,1,8,0:0:0:0:
480,160,18582,1,8,0:0:0:0:
448,192,18698,1,0,0:0:0:0:
416,160,18813,1,0,0:0:0:0:
448,160,18929,1,8,0:0:0:0:
416,192,19044,1,8,0:0:0:0:
416,192,19159,1,8,0:0:0:0:
480,192,19390,1,4,0:0:0:0:
448,192,19621,1,8,0:0:0:0:
448,192,19736,1,8,0:0:0:0:
512,160,19852,1,0,0:0:0:0:
480,160,19967,1,8,0:0:0:0:
480,192,20198,1,0,0:0:0:0:
480,192,20313,1,0,0:0:0:0:
448,192,20544,1,0,0:0:0:0:
448,192,20659,1,0,0:0:0:0:
448,192,20775,1,8,0:0:0:0:
480,192,20890,1,0,0:0:0:0:
448,192,21005,1,8,0:0:0:0:
448,224,21236,1,8,0:0:0:0:
448,160,21467,1,8,0:0:0:0:
448,160,21582,1,8,0:0:0:0:
480,160,21698,1,0,0:0:0:0:
448,192,21929,1,0,0:0:0:0:
480,192,22044,1,8,0:0:0:0:
448,160,22159,1,4,0:0:0:0:
448,160,22275,1,4,0:0:0:0:
448,160,22390,1,4,0:0:0:0:
448,177,22621,1,8,0:0:0:0:
448,177,22852,1,8,0:0:0:0:
476,177,22967,1,8,0:0:0:0:
468,183,23082,1,0,0:0:0:0:
422,168,23313,1,8,0:0:0:0:
460,208,23544,1,0,0:0:0:0:
458,183,23775,1,8,0:0:0:0:
440,166,23890,1,0,0:0:0:0:
438,166,24005,1,0,0:0:0:0:
459,160,24121,1,8,0:0:0:0:
456,159,24236,1,8,0:0:0:0:
480,162,24467,1,0,0:0:0:0:
444,167,24698,1,8,0:0:0:0:
444,167,24813,1,8,0:0:0:0:
477,157,24929,1,0,0:0:0:0:
476,167,25159,1,8,0:0:0:0:
409,162,25390,1,8,0:0:0:0:
450,162,25505,1,0,0:0:0:0:
453,158,25621,1,8,0:0:0:0:
443,158,25736,1,8,0:0:0:0:
442,154,25852,1,0,0:0:0:0:
462,177,26082,1,8,0:0:0:0:
468,173,26313,1,0,0:0:0:0:
457,173,26429,1,0,0:0:0:0:
499,171,26544,1,8,0:0:0:0:
473,196,26775,1,0,0:0:0:0:
430,227,26890,1,0,0:0:0:0:
433,178,27005,1,8,0:0:0:0:
432,178,27121,1,8,0:0:0:0:
501,175,27236,1,0,0:0:0:0:
494,175,27352,1,0,0:0:0:0:
455,175,27467,1,8,0:0:0:0:
455,175,27582,1,8,0:0:0:0:
473,175,27698,1,0,0:0:0:0:
473,175,27755,1,0,0:0:0:0:
466,197,27813,1,8,0:0:0:0:
473,175,27871,1,0,0:0:0:0:
466,197,27929,1,8,0:0:0:0:
452,166,28044,1,0,0:0:0:0:
455,175,28159,1,8,0:0:0:0:
448,160,28217,1,8,0:0:0:0:
471,171,28275,1,0,0:0:0:0:
457,170,28332,1,0,0:0:0:0:
406,172,28390,1,8,0:0:0:0:
448,192,28448,1,0,0:0:0:0:
448,192,28505,1,8,0:0:0:0:
463,142,28621,1,0,0:0:0:0:
483,164,28736,1,0,0:0:0:0:
468,173,28794,1,8,0:0:0:0:
461,173,28852,1,8,0:0:0:0:
455,175,28967,1,0,0:0:0:0:
487,166,29082,1,0,0:0:0:0:
502,170,29140,1,8,0:0:0:0:
496,169,29198,1,8,0:0:0:0:
469,167,29255,1,0,0:0:0:0:
466,161,29313,1,8,0:0:0:0:
466,161,29429,1,8,0:0:0:0:
447,182,29544,1,0,0:0:0:0:
438,166,29659,1,8,0:0:0:0:
449,165,29775,1,0,0:0:0:0:
448,169,29890,1,8,0:0:0:0:
440,165,30005,1,0,0:0:0:0:
416,160,30121,1,8,0:0:0:0:
416,160,30236,1,8,0:0:0:0:
448,192,30467,1,4,0:0:0:0:
416,160,30698,1,8,0:0:0:0:
480,160,30813,1,8,0:0:0:0:
416,160,30871,1,8,0:0:0:0:
467,165,30929,1,0,0:0:0:0:
448,160,31044,1,0,0:0:0:0:
448,160,31102,1,0,0:0:0:0:
448,160,31159,1,8,0:0:0:0:
456,251,31275,1,8,0:0:0:0:
448,160,31390,1,0,0:0:0:0:
448,160,31621,1,8,0:0:0:0:
448,160,31736,1,0,0:0:0:0:
416,160,31852,1,8,0:0:0:0:
416,192,31909,1,0,0:0:0:0:
416,160,31967,1,8,0:0:0:0:
416,160,32025,1,8,0:0:0:0:
448,160,32082,1,0,0:0:0:0:
448,160,32198,1,8,0:0:0:0:
416,160,32313,1,0,0:0:0:0:
448,192,32429,1,0,0:0:0:0:
448,192,32486,1,0,0:0:0:0:
448,160,32544,1,8,0:0:0:0:
448,160,32659,1,8,0:0:0:0:
448,160,32717,1,8,0:0:0:0:
416,160,32775,1,0,0:0:0:0:
448,160,32890,1,0,0:0:0:0:
448,160,33005,1,8,0:0:0:0:
480,160,33236,1,0,0:0:0:0:
448,192,33352,1,0,0:0:0:0:
480,192,33467,1,8,0:0:0:0:
416,160,33582,1,0,0:0:0:0:
384,160,33640,1,0,0:0:0:0:
474,170,33698,1,8,0:0:0:0:
448,160,33813,1,0,0:0:0:0:
480,160,33929,1,8,0:0:0:0:
416,192,33986,1,8,0:0:0:0:
448,160,34044,1,8,0:0:0:0:
448,192,34102,1,8,0:0:0:0:
480,192,34159,1,0,0:0:0:0:
448,192,34275,1,0,0:0:0:0:
480,160,34390,1,8,0:0:0:0:
416,160,34505,1,8,0:0:0:0:
416,160,34563,1,8,0:0:0:0:
448,160,34621,1,0,0:0:0:0:
480,160,34736,1,0,0:0:0:0:
448,160,34852,1,8,0:0:0:0:
448,160,34909,1,8,0:0:0:0:
416,160,34967,1,0,0:0:0:0:
416,160,35025,1,0,0:0:0:0:
448,160,35082,1,8,0:0:0:0:
480,160,35198,1,0,0:0:0:0:
480,192,35313,1,8,0:0:0:0:
480,192,35429,1,0,0:0:0:0:
416,256,35486,1,8,0:0:0:0:
480,160,35544,1,0,0:0:0:0:
480,160,35659,1,0,0:0:0:0:
448,160,35775,1,8,0:0:0:0:
429,256,35890,1,8,0:0:0:0:
480,192,36005,1,0,0:0:0:0:
480,192,36121,1,0,0:0:0:0:
416,192,36179,1,0,0:0:0:0:
448,192,36236,1,8,0:0:0:0:
480,160,36352,1,8,0:0:0:0:
448,160,36409,1,8,0:0:0:0:
448,192,36467,1,0,0:0:0:0:
416,192,36582,1,0,0:0:0:0:
448,256,36640,1,0,0:0:0:0:
448,160,36698,1,8,0:0:0:0:
448,160,36755,1,8,0:0:0:0:
480,160,36813,1,8,0:0:0:0:
416,160,36871,1,8,0:0:0:0:
448,160,36929,1,0,0:0:0:0:
480,192,37044,1,0,0:0:0:0:
448,192,37159,1,8,0:0:0:0:
512,160,37275,1,0,0:0:0:0:
416,160,37332,1,0,0:0:0:0:
448,160,37390,1,8,0:0:0:0:
416,192,37505,1,8,0:0:0:0:
416,192,37563,1,8,0:0:0:0:
448,192,37621,1,0,0:0:0:0:
480,192,37736,1,8,0:0:0:0:
416,160,37852,1,4,0:0:0:0:
352,160,38082,1,8,0:0:0:0:
416,160,38198,1,0,0:0:0:0:
448,160,38313,1,8,0:0:0:0:
448,160,38371,1,8,0:0:0:0:
448,160,38429,1,0,0:0:0:0:
416,160,38486,1,0,0:0:0:0:
448,192,38544,1,8,0:0:0:0:
416,160,38659,1,8,0:0:0:0:
416,160,38717,1,8,0:0:0:0:
448,160,38775,1,0,0:0:0:0:
416,160,38890,1,0,0:0:0:0:
416,160,38948,1,0,0:0:0:0:
416,160,39005,1,8,0:0:0:0:
480,160,39121,1,0,0:0:0:0:
448,160,39236,1,8,0:0:0:0:
480,224,39294,1,0,0:0:0:0:
480,160,39352,1,0,0:0:0:0:
448,160,39409,1,0,0:0:0:0:
416,160,39467,1,8,0:0:0:0:
416,160,39582,1,8,0:0:0:0:
400,173,39698,1,4,0:0:0:0:
390,175,39929,1,8,0:0:0:0:
416,160,40044,1,0,0:0:0:0:
416,160,40102,1,0,0:0:0:0:
448,160,40159,1,8,0:0:0:0:
416,160,40275,1,0,0:0:0:0:
416,160,40390,1,8,0:0:0:0:
416,160,40505,1,8,0:0:0:0:
384,167,40563,1,8,0:0:0:0:
369,165,40621,1,0,0:0:0:0:
434,171,40736,1,0,0:0:0:0:
417,179,40794,1,0,0:0:0:0:
480,167,40852,1,8,0:0:0:0:
428,168,40967,1,0,0:0:0:0:
459,169,41082,1,8,0:0:0:0:
475,162,41140,1,0,0:0:0:0:
475,162,41198,1,0,0:0:0:0:
475,162,41255,1,0,0:0:0:0:
449,154,41313,1,8,0:0:0:0:
440,154,41429,1,8,0:0:0:0:
440,154,41486,1,8,0:0:0:0:
381,161,41544,1,0,0:0:0:0:
512,192,41659,1,0,0:0:0:0:
384,160,41775,1,8,0:0:0:0:
416,192,41890,1,0,0:0:0:0:
416,192,41948,1,0,0:0:0:0:
448,160,42005,1,8,0:0:0:0:
384,160,42063,1,0,0:0:0:0:
416,160,42121,1,8,0:0:0:0:
416,160,42179,1,8,0:0:0:0:
384,160,42236,1,0,0:0:0:0:
448,256,42352,1,12,0:0:0:0:
448,192,42582,1,0,0:0:0:0:
480,224,42640,1,0,0:0:0:0:
416,192,42698,1,8,0:0:0:0:
448,160,42813,1,0,0:0:0:0:
480,160,42929,1,8,0:0:0:0:
448,192,42986,1,8,0:0:0:0:
416,160,43044,1,0,0:0:0:0:
448,256,43102,1,0,0:0:0:0:
480,160,43159,1,8,0:0:0:0:
448,160,43275,1,8,0:0:0:0:
448,192,43390,1,4,0:0:0:0:
448,160,43852,1,8,0:0:0:0:
448,224,45236,1,0,0:0:0:0:
448,256,45467,1,0,0:0:0:0:
480,192,45582,1,8,0:0:0:0:
448,192,45929,1,8,0:0:0:0:
416,192,47082,1,8,0:0:0:0:
480,192,47429,1,0,0:0:0:0:
416,192,47775,1,0,0:0:0:0:
416,256,48929,1,0,0:0:0:0:
480,160,50082,1,8,0:0:0:0:
480,192,50198,1,0,0:0:0:0:
448,192,50313,1,8,0:0:0:0:
416,192,50429,1,0,0:0:0:0:
448,224,50544,1,0,0:0:0:0:
416,256,50659,1,0,0:0:0:0:
352,192,50775,1,12,0:0:0:0:
416,256,51005,1,0,0:0:0:0:
416,192,51121,1,0,0:0:0:0:
352,160,51236,1,8,0:0:0:0:
416,256,51467,1,0,0:0:0:0:
416,256,51582,1,0,0:0:0:0:
384,160,51929,1,0,0:0:0:0:
448,192,52159,1,8,0:0:0:0:
448,192,52390,1,0,0:0:0:0:
416,160,52621,1,8,0:0:0:0:
480,192,52852,1,0,0:0:0:0:
480,192,52967,1,0,0:0:0:0:
448,160,53082,1,8,0:0:0:0:
480,160,53313,1,0,0:0:0:0:
416,160,53429,1,8,0:0:0:0:
384,192,53659,1,8,0:0:0:0:
416,160,53775,1,0,0:0:0:0:
448,160,54005,1,8,0:0:0:0:
416,160,54121,1,8,0:0:0:0:
448,192,54236,1,0,0:0:0:0:
448,160,54467,1,8,0:0:0:0:
480,192,54698,1,0,0:0:0:0:
480,192,54813,1,0,0:0:0:0:
480,160,54929,1,8,0:0:0:0:
448,160,55159,1,0,0:0:0:0:
448,160,55275,1,0,0:0:0:0:
480,192,55621,1,0,0:0:0:0:
448,192,55852,1,8,0:0:0:0:
480,192,56082,1,0,0:0:0:0:
480,192,56313,1,8,0:0:0:0:
448,192,56544,1,0,0:0:0:0:
474,255,56659,1,8,0:0:0:0:
410,185,56775,1,8,0:0:0:0:
448,160,57005,1,8,0:0:0:0:
320,128,57121,1,0,0:0:0:0:
416,192,57352,1,8,0:0:0:0:
480,192,57467,1,0,0:0:0:0:
454,174,57582,1,0,0:0:0:0:
416,160,57698,1,8,0:0:0:0:
439,188,57813,1,8,0:0:0:0:
384,160,57929,1,0,0:0:0:0:
352,160,58159,1,12,0:0:0:0:
479,171,58390,1,0,0:0:0:0:
479,171,58505,1,0,0:0:0:0:
431,175,58621,1,8,0:0:0:0:
501,179,58852,1,8,0:0:0:0:
501,178,58967,1,8,0:0:0:0:
448,288,59025,1,8,0:0:0:0:
436,170,59082,1,0,0:0:0:0:
506,172,59198,1,8,0:0:0:0:
501,179,59313,1,0,0:0:0:0:
478,174,59429,1,0,0:0:0:0:
486,175,59544,1,8,0:0:0:0:
448,224,59659,1,0,0:0:0:0:
512,160,59775,1,8,0:0:0:0:
512,160,59890,1,8,0:0:0:0:
480,160,60005,1,0,0:0:0:0:
480,160,60236,1,0,0:0:0:0:
384,224,60352,1,8,0:0:0:0:
480,192,60467,1,8,0:0:0:0:
352,224,60582,1,0,0:0:0:0:
416,256,60698,1,0,0:0:0:0:
416,160,60755,1,0,0:0:0:0:
452,172,60813,1,8,0:0:0:0:
474,168,60929,1,0,0:0:0:0:
459,171,61044,1,8,0:0:0:0:
467,169,61159,1,0,0:0:0:0:
503,173,61390,1,8,0:0:0:0:
482,167,61505,1,8,0:0:0:0:
448,175,61621,1,0,0:0:0:0:
446,175,61736,1,0,0:0:0:0:
503,173,61852,1,8,0:0:0:0:
487,166,62082,1,8,0:0:0:0:
487,166,62198,1,8,0:0:0:0:
352,192,62255,1,8,0:0:0:0:
471,175,62313,1,0,0:0:0:0:
424,168,62429,1,8,0:0:0:0:
471,179,62544,1,0,0:0:0:0:
424,168,62659,1,8,0:0:0:0:
481,163,62775,1,0,0:0:0:0:
416,256,62890,1,0,0:0:0:0:
459,162,63005,1,8,0:0:0:0:
416,256,63121,1,0,0:0:0:0:
448,160,63236,1,8,0:0:0:0:
473,158,63467,1,8,0:0:0:0:
470,159,63582,1,8,0:0:0:0:
450,171,63698,1,0,0:0:0:0:
453,147,63929,1,0,0:0:0:0:
453,147,64044,1,0,0:0:0:0:
480,192,64102,1,0,0:0:0:0:
419,167,64159,1,8,0:0:0:0:
452,174,64275,1,0,0:0:0:0:
426,160,64390,1,8,0:0:0:0:
426,160,64505,1,8,0:0:0:0:
430,163,64621,1,0,0:0:0:0:
495,172,64852,1,0,0:0:0:0:
495,172,64967,1,0,0:0:0:0:
480,152,65082,1,8,0:0:0:0:
416,179,65198,1,0,0:0:0:0:
480,152,65313,1,8,0:0:0:0:
452,175,65544,1,4,0:0:0:0:
463,156,65775,1,8,0:0:0:0:
463,156,65890,1,8,0:0:0:0:
451,157,66005,1,0,0:0:0:0:
451,157,66121,1,0,0:0:0:0:
509,164,66236,1,8,0:0:0:0:
446,249,66352,1,8,0:0:0:0:
446,249,66409,1,8,0:0:0:0:
497,173,66467,1,0,0:0:0:0:
470,173,66582,1,0,0:0:0:0:
458,171,66698,1,8,0:0:0:0:
491,160,66929,1,8,0:0:0:0:
491,160,67044,1,8,0:0:0:0:
486,159,67275,1,8,0:0:0:0:
474,154,67390,1,0,0:0:0:0:
460,154,67505,1,0,0:0:0:0:
467,164,67621,1,8,0:0:0:0:
483,185,67736,1,0,0:0:0:0:
329,219,67794,1,0,0:0:0:0:
463,172,67852,1,8,0:0:0:0:
448,192,67967,1,8,0:0:0:0:
480,166,68082,1,8,0:0:0:0:
512,172,68313,1,0,0:0:0:0:
446,176,68429,1,8,0:0:0:0:
421,174,68544,1,0,0:0:0:0:
446,175,68775,1,8,0:0:0:0:
446,176,69005,1,8,0:0:0:0:
421,182,69236,1,4,0:0:0:0:
467,183,69467,1,8,0:0:0:0:
467,183,69698,1,8,0:0:0:0:
467,183,69813,1,8,0:0:0:0:
430,178,69929,1,0,0:0:0:0:
466,166,70159,1,12,0:0:0:0:
478,190,70390,1,0,0:0:0:0:
459,178,70621,1,8,0:0:0:0:
427,175,70736,1,0,0:0:0:0:
442,177,70852,1,8,0:0:0:0:
427,175,70967,1,8,0:0:0:0:
490,167,71082,1,4,0:0:0:0:
464,177,71313,1,8,0:0:0:0:
451,164,71544,1,0,0:0:0:0:
451,164,71659,1,0,0:0:0:0:
471,170,71775,1,8,0:0:0:0:
471,170,71890,1,8,0:0:0:0:
467,207,72005,1,0,0:0:0:0:
491,188,72121,1,8,0:0:0:0:
417,181,72236,1,0,0:0:0:0:
501,189,72467,1,8,0:0:0:0:
457,180,72698,1,0,0:0:0:0:
442,214,72929,1,0,0:0:0:0:
463,166,73159,1,8,0:0:0:0:
501,164,73390,1,0,0:0:0:0:
501,164,73505,1,0,0:0:0:0:
488,168,73621,1,8,0:0:0:0:
494,162,73852,1,0,0:0:0:0:
493,165,74082,1,8,0:0:0:0:
470,189,74198,1,8,0:0:0:0:
477,165,74313,1,0,0:0:0:0:
461,170,74429,1,0,0:0:0:0:
504,163,74544,1,8,0:0:0:0:
467,139,74775,1,8,0:0:0:0:
432,151,74890,1,0,0:0:0:0:
456,159,75005,1,8,0:0:0:0:
429,169,75121,1,8,0:0:0:0:
444,161,75236,1,0,0:0:0:0:
438,161,75352,1,0,0:0:0:0:
510,157,75467,1,8,0:0:0:0:
501,188,75582,1,8,0:0:0:0:
466,179,75698,1,0,0:0:0:0:
422,135,75755,1,0,0:0:0:0:
458,172,75813,1,8,0:0:0:0:
456,173,75871,1,8,0:0:0:0:
475,176,75929,1,0,0:0:0:0:
468,167,76044,1,8,0:0:0:0:
448,192,76102,1,8,0:0:0:0:
496,164,76159,1,0,0:0:0:0:
477,195,76275,1,0,0:0:0:0:
453,175,76390,1,8,0:0:0:0:
487,163,76621,1,4,0:0:0:0:
446,162,76852,1,8,0:0:0:0:
416,160,76967,1,0,0:0:0:0:
484,175,77082,1,8,0:0:0:0:
416,160,77140,1,8,0:0:0:0:
416,160,77198,1,0,0:0:0:0:
484,175,77313,1,8,0:0:0:0:
448,192,77429,1,0,0:0:0:0:
484,175,77544,1,8,0:0:0:0:
448,192,77602,1,8,0:0:0:0:
448,160,77659,1,0,0:0:0:0:
484,175,77775,1,8,0:0:0:0:
448,256,77832,1,0,0:0:0:0:
480,224,77890,1,0,0:0:0:0:
480,160,77948,1,0,0:0:0:0:
438,162,78005,1,8,0:0:0:0:
448,160,78121,1,8,0:0:0:0:
448,160,78179,1,8,0:0:0:0:
480,160,78236,1,0,0:0:0:0:
478,181,78352,1,0,0:0:0:0:
452,173,78467,1,8,0:0:0:0:
480,160,78698,1,8,0:0:0:0:
480,160,78813,1,0,0:0:0:0:
480,160,78929,1,8,0:0:0:0:
480,192,78986,1,8,0:0:0:0:
448,192,79044,1,0,0:0:0:0:
480,160,79159,1,8,0:0:0:0:
448,256,79275,1,0,0:0:0:0:
480,160,79390,1,8,0:0:0:0:
480,192,79448,1,8,0:0:0:0:
448,192,79505,1,0,0:0:0:0:
448,192,79563,1,0,0:0:0:0:
416,192,79621,1,8,0:0:0:0:
480,160,79736,1,0,0:0:0:0:
480,192,79852,1,8,0:0:0:0:
448,192,79967,1,0,0:0:0:0:
480,160,80025,1,0,0:0:0:0:
416,160,80082,1,8,0:0:0:0:
448,160,80140,1,8,0:0:0:0:
473,168,80198,1,8,0:0:0:0:
448,160,80255,1,8,0:0:0:0:
448,271,80313,1,0,0:0:0:0:
425,184,80544,1,8,0:0:0:0:
492,175,80659,1,0,0:0:0:0:
492,175,80717,1,0,0:0:0:0:
466,176,80775,1,8,0:0:0:0:
480,192,80890,1,0,0:0:0:0:
492,175,81005,1,8,0:0:0:0:
512,192,81121,1,0,0:0:0:0:
512,192,81179,1,0,0:0:0:0:
480,192,81236,1,8,0:0:0:0:
453,172,81352,1,8,0:0:0:0:
438,174,81409,1,8,0:0:0:0:
457,175,81467,1,0,0:0:0:0:
465,187,81582,1,0,0:0:0:0:
450,168,81698,1,8,0:0:0:0:
450,142,81755,1,0,0:0:0:0:
448,192,81813,1,0,0:0:0:0:
448,192,81871,1,0,0:0:0:0:
430,148,81929,1,8,0:0:0:0:
416,162,82044,1,8,0:0:0:0:
484,189,82159,1,0,0:0:0:0:
506,186,82390,1,8,0:0:0:0:
491,175,82505,1,0,0:0:0:0:
373,150,82563,1,0,0:0:0:0:
474,177,82621,1,8,0:0:0:0:
474,167,82736,1,0,0:0:0:0:
432,171,82852,1,8,0:0:0:0:
448,192,82967,1,0,0:0:0:0:
448,192,83025,1,0,0:0:0:0:
448,192,83082,1,8,0:0:0:0:
463,178,83140,1,0,0:0:0:0:
463,177,83198,1,8,0:0:0:0:
467,179,83313,1,8,0:0:0:0:
511,173,83429,1,0,0:0:0:0:
511,173,83486,1,0,0:0:0:0:
485,174,83544,1,8,0:0:0:0:
484,174,83602,1,8,0:0:0:0:
479,171,83659,1,8,0:0:0:0:
496,174,83717,1,8,0:0:0:0:
471,183,83775,1,0,0:0:0:0:
475,168,83890,1,8,0:0:0:0:
448,171,83948,1,8,0:0:0:0:
469,172,84005,1,0,0:0:0:0:
472,193,84236,1,8,0:0:0:0:
471,160,84352,1,0,0:0:0:0:
480,192,84467,1,8,0:0:0:0:
480,192,84525,1,8,0:0:0:0:
449,166,84582,1,0,0:0:0:0:
444,166,84640,1,0,0:0:0:0:
455,173,84698,1,8,0:0:0:0:
500,182,84813,1,8,0:0:0:0:
500,182,84871,1,8,0:0:0:0:
450,185,84929,1,0,0:0:0:0:
447,185,85044,1,0,0:0:0:0:
448,192,85102,1,0,0:0:0:0:
464,183,85159,1,8,0:0:0:0:
504,167,85275,1,0,0:0:0:0:
433,173,85390,1,8,0:0:0:0:
453,198,85448,1,0,0:0:0:0:
430,174,85505,1,8,0:0:0:0:
420,171,85563,1,8,0:0:0:0:
449,168,85621,1,0,0:0:0:0:
449,168,85736,1,0,0:0:0:0:
455,170,85852,1,8,0:0:0:0:
491,181,86082,1,8,0:0:0:0:
480,192,86198,1,0,0:0:0:0:
480,192,86255,1,0,0:0:0:0:
420,171,86313,1,8,0:0:0:0:
480,160,86429,1,0,0:0:0:0:
448,160,86544,1,8,0:0:0:0:
480,192,86602,1,8,0:0:0:0:
480,160,86659,1,0,0:0:0:0:
448,160,86775,1,8,0:0:0:0:
472,179,86832,1,0,0:0:0:0:
481,171,86890,1,8,0:0:0:0:
481,172,86948,1,8,0:0:0:0:
473,172,87005,1,0,0:0:0:0:
448,192,87121,1,0,0:0:0:0:
448,192,87236,1,8,0:0:0:0:
448,160,87294,1,8,0:0:0:0:
480,160,87352,1,0,0:0:0:0:
448,160,87409,1,0,0:0:0:0:
448,160,87467,1,8,0:0:0:0:
448,160,87525,1,8,0:0:0:0:
448,160,87582,1,8,0:0:0:0:
448,160,87640,1,8,0:0:0:0:
480,160,87698,1,0,0:0:0:0:
480,160,87929,1,8,0:0:0:0:
480,160,88044,1,0,0:0:0:0:
480,160,88102,1,0,0:0:0:0:
480,160,88159,1,8,0:0:0:0:
352,160,88275,1,0,0:0:0:0:
448,192,88390,1,8,0:0:0:0:
488,175,88448,1,8,0:0:0:0:
465,169,88505,1,0,0:0:0:0:
427,172,88563,1,0,0:0:0:0:
480,192,88621,1,8,0:0:0:0:
448,192,88736,1,8,0:0:0:0:
448,192,88794,1,8,0:0:0:0:
448,160,88852,1,0,0:0:0:0:
467,162,88967,1,0,0:0:0:0:
473,156,89082,1,8,0:0:0:0:
468,156,89140,1,8,0:0:0:0:
468,156,89198,1,8,0:0:0:0:
482,164,89255,1,8,0:0:0:0:
450,162,89313,1,0,0:0:0:0:
445,162,89371,1,0,0:0:0:0:
480,224,89429,1,8,0:0:0:0:
438,160,89544,1,0,0:0:0:0:
444,167,89659,1,12,0:0:0:0:
444,167,89775,1,12,0:0:0:0:
444,167,90005,1,12,0:0:0:0:
444,167,90121,1,12,0:0:0:0:
433,168,90352,1,4,0:0:0:0:
463,164,90582,1,0,0:0:0:0:
446,155,90698,1,8,0:0:0:0:
468,167,90929,1,8,0:0:0:0:
467,167,90986,1,8,0:0:0:0:
467,167,91044,1,8,0:0:0:0:
467,167,91102,1,8,0:0:0:0:
442,152,91159,1,0,0:0:0:0:
500,173,91275,1,8,0:0:0:0:
437,172,91390,1,0,0:0:0:0:
450,259,91621,1,12,0:0:0:0:
419,256,92198,1,12,0:0:0:0:
395,185,92659,1,0,0:0:0:0:
434,176,92775,1,8,0:0:0:0:
484,172,92832,1,8,0:0:0:0:
484,172,92890,1,8,0:0:0:0:
484,172,92948,1,8,0:0:0:0:
476,177,93005,1,0,0:0:0:0:
439,172,93121,1,8,0:0:0:0:
511,166,93236,1,0,0:0:0:0:
438,184,93352,1,8,0:0:0:0:
405,171,93467,1,4,0:0:0:0:
385,217,93929,1,0,0:0:0:0:
408,160,94044,1,12,0:0:0:0:
484,166,94621,1,0,0:0:0:0:
463,163,94794,1,0,0:0:0:0:
458,147,94852,1,8,0:0:0:0:
458,147,94967,1,8,0:0:0:0:
459,163,95082,1,0,0:0:0:0:
434,174,95313,1,0,0:0:0:0:
414,158,95429,1,8,0:0:0:0:
448,192,95544,1,0,0:0:0:0:
417,231,95659,1,0,0:0:0:0:
404,186,95775,1,8,0:0:0:0:
449,145,95890,1,8,0:0:0:0:
448,158,96005,1,0,0:0:0:0:
472,164,96236,1,8,0:0:0:0:
444,154,96352,1,0,0:0:0:0:
459,160,96467,1,8,0:0:0:0:
432,160,96582,1,0,0:0:0:0:
461,168,96698,1,8,0:0:0:0:
457,180,96755,1,8,0:0:0:0:
457,180,96813,1,8,0:0:0:0:
457,180,96871,1,8,0:0:0:0:
395,178,96929,1,0,0:0:0:0:
482,156,97044,1,0,0:0:0:0:
480,224,97102,1,0,0:0:0:0:
456,172,97159,1,8,0:0:0:0:
448,160,97275,1,8,0:0:0:0:
434,175,97332,1,8,0:0:0:0:
464,171,97390,1,0,0:0:0:0:
480,160,97505,1,0,0:0:0:0:
464,161,97563,1,0,0:0:0:0:
489,171,97621,1,8,0:0:0:0:
489,171,97679,1,8,0:0:0:0:
489,171,97736,1,8,0:0:0:0:
489,171,97794,1,8,0:0:0:0:
461,154,97852,1,0,0:0:0:0:
506,163,97967,1,0,0:0:0:0:
429,157,98082,1,8,0:0:0:0:
512,192,98140,1,8,0:0:0:0:
464,178,98198,1,0,0:0:0:0:
415,168,98313,1,8,0:0:0:0:
450,156,98371,1,0,0:0:0:0:
461,154,98429,1,8,0:0:0:0:
452,151,98486,1,8,0:0:0:0:
462,163,98544,1,0,0:0:0:0:
433,169,98659,1,8,0:0:0:0:
407,157,98775,1,4,0:0:0:0:
427,167,99005,1,8,0:0:0:0:
472,147,99121,1,0,0:0:0:0:
495,162,99236,1,8,0:0:0:0:
498,174,99294,1,8,0:0:0:0:
461,160,99352,1,0,0:0:0:0:
407,157,99409,1,0,0:0:0:0:
478,165,99467,1,8,0:0:0:0:
470,160,99582,1,8,0:0:0:0:
460,160,99640,1,8,0:0:0:0:
450,164,99698,1,0,0:0:0:0:
444,165,99813,1,0,0:0:0:0:
444,165,99871,1,0,0:0:0:0:
447,151,99929,1,8,0:0:0:0:
467,192,100044,1,0,0:0:0:0:
482,162,100159,1,8,0:0:0:0:
482,162,100217,1,8,0:0:0:0:
458,147,100275,1,0,0:0:0:0:
470,160,100332,1,0,0:0:0:0:
509,170,100390,1,8,0:0:0:0:
458,147,100448,1,0,0:0:0:0:
414,149,100505,1,8,0:0:0:0:
390,184,100621,1,4,0:0:0:0:
390,175,100852,1,8,0:0:0:0:
416,160,100967,1,8,0:0:0:0:
416,160,101025,1,8,0:0:0:0:
448,160,101082,1,0,0:0:0:0:
416,160,101198,1,0,0:0:0:0:
416,160,101313,1,8,0:0:0:0:
416,160,101371,1,8,0:0:0:0:
416,160,101428,1,8,0:0:0:0:
480,192,101486,1,8,0:0:0:0:
369,165,101544,1,0,0:0:0:0:
410,133,101659,1,0,0:0:0:0:
480,167,101775,1,8,0:0:0:0:
428,168,101890,1,0,0:0:0:0:
433,170,101948,1,0,0:0:0:0:
421,150,102005,1,8,0:0:0:0:
475,162,102121,1,0,0:0:0:0:
449,154,102236,1,8,0:0:0:0:
440,154,102294,1,8,0:0:0:0:
440,154,102352,1,8,0:0:0:0:
440,154,102409,1,8,0:0:0:0:
381,161,102467,1,0,0:0:0:0:
481,199,102582,1,0,0:0:0:0:
481,199,102640,1,0,0:0:0:0:
462,166,102698,1,8,0:0:0:0:
462,166,102813,1,8,0:0:0:0:
475,162,102929,1,0,0:0:0:0:
442,158,102986,1,8,0:0:0:0:
499,160,103044,1,0,0:0:0:0:
489,160,103102,1,0,0:0:0:0:
433,160,103159,1,8,0:0:0:0:
417,199,103275,1,4,0:0:0:0:
509,169,103505,1,0,0:0:0:0:
509,168,103563,1,0,0:0:0:0:
464,174,103621,1,8,0:0:0:0:
453,182,103736,1,0,0:0:0:0:
470,188,103852,1,8,0:0:0:0:
470,188,103967,1,8,0:0:0:0:
462,162,104082,1,0,0:0:0:0:
462,162,104140,1,0,0:0:0:0:
490,167,104198,1,8,0:0:0:0:
481,166,104255,1,8,0:0:0:0:
470,161,104313,1,0,0:0:0:0:
379,157,104544,1,12,0:0:0:0:
483,140,104659,1,0,0:0:0:0:
480,192,104717,1,0,0:0:0:0:
400,164,104775,1,8,0:0:0:0:
480,192,104890,1,0,0:0:0:0:
488,164,105005,1,8,0:0:0:0:
464,171,105063,1,0,0:0:0:0:
467,176,105121,1,8,0:0:0:0:
488,164,105179,1,8,0:0:0:0:
441,171,105236,1,0,0:0:0:0:
427,183,105352,1,0,0:0:0:0:
488,164,105467,1,8,0:0:0:0:
466,179,105582,1,0,0:0:0:0:
477,173,105640,1,0,0:0:0:0:
470,191,105698,1,8,0:0:0:0:
434,199,105813,1,8,0:0:0:0:
512,192,105871,1,8,0:0:0:0:
470,185,105929,1,0,0:0:0:0:
483,171,106044,1,8,0:0:0:0:
460,226,106159,1,0,0:0:0:0:
332,171,106275,1,0,0:0:0:0:
489,188,106390,1,8,0:0:0:0:
414,170,106448,1,8,0:0:0:0:
448,160,106505,1,0,0:0:0:0:
416,160,106563,1,0,0:0:0:0:
448,160,106621,1,8,0:0:0:0:
414,164,106736,1,0,0:0:0:0:
465,172,106852,1,8,0:0:0:0:
465,172,106909,1,8,0:0:0:0:
465,172,106967,1,8,0:0:0:0:
463,218,107025,1,8,0:0:0:0:
512,160,107082,1,0,0:0:0:0:
512,160,107198,1,0,0:0:0:0:
416,160,107255,1,0,0:0:0:0:
480,160,107313,1,8,0:0:0:0:
416,160,107429,1,0,0:0:0:0:
448,160,107544,1,8,0:0:0:0:
419,281,107602,1,0,0:0:0:0:
448,160,107659,1,0,0:0:0:0:
416,160,107717,1,0,0:0:0:0:
448,160,107775,1,8,0:0:0:0:
425,169,107890,1,8,0:0:0:0:
460,163,108005,1,0,0:0:0:0:
432,244,108121,1,0,0:0:0:0:
432,244,108179,1,0,0:0:0:0:
468,155,108236,1,8,0:0:0:0:
479,179,108352,1,8,0:0:0:0:
473,164,108467,1,0,0:0:0:0:
442,160,108582,1,8,0:0:0:0:
460,163,108640,1,0,0:0:0:0:
439,159,108698,1,8,0:0:0:0:
430,170,108755,1,8,0:0:0:0:
438,162,108813,1,0,0:0:0:0:
438,162,108871,1,0,0:0:0:0:
474,162,108929,1,8,0:0:0:0:
446,175,109044,1,8,0:0:0:0:
457,154,109159,1,0,0:0:0:0:
423,206,109275,1,0,0:0:0:0:
423,206,109332,1,0,0:0:0:0:
454,185,109390,1,8,0:0:0:0:
452,181,109505,1,0,0:0:0:0:
460,171,109621,1,8,0:0:0:0:
390,213,109736,1,8,0:0:0:0:
490,171,109852,1,0,0:0:0:0:
416,256,109967,1,0,0:0:0:0:
448,256,110025,1,0,0:0:0:0:
418,176,110082,1,8,0:0:0:0:
416,192,110198,1,8,0:0:0:0:
384,192,110255,1,8,0:0:0:0:
384,160,110313,1,0,0:0:0:0:
467,263,110429,1,0,0:0:0:0:
480,192,110486,1,0,0:0:0:0:
512,160,110544,1,8,0:0:0:0:
480,160,110602,1,8,0:0:0:0:
494,168,110659,1,8,0:0:0:0:
472,169,110717,1,8,0:0:0:0:
496,170,110775,1,0,0:0:0:0:
497,189,110890,1,0,0:0:0:0:
497,189,110948,1,0,0:0:0:0:
496,177,111005,1,8,0:0:0:0:
504,169,111121,1,0,0:0:0:0:
439,171,111236,1,8,0:0:0:0:
439,171,111294,1,8,0:0:0:0:
486,168,111352,1,0,0:0:0:0:
479,169,111409,1,0,0:0:0:0:
466,163,111467,1,8,0:0:0:0:
466,163,111582,1,8,0:0:0:0:
437,162,111698,1,4,0:0:0:0:
424,172,111929,1,8,0:0:0:0:
416,160,112044,1,8,0:0:0:0:
416,160,112102,1,8,0:0:0:0:
448,160,112159,1,0,0:0:0:0:
457,172,112275,1,0,0:0:0:0:
456,168,112390,1,8,0:0:0:0:
496,158,112448,1,0,0:0:0:0:
438,169,112505,1,8,0:0:0:0:
438,169,112563,1,8,0:0:0:0:
496,158,112621,1,0,0:0:0:0:
393,108,112736,1,0,0:0:0:0:
404,176,112852,1,8,0:0:0:0:
462,168,112909,1,0,0:0:0:0:
459,168,112967,1,0,0:0:0:0:
457,172,113025,1,0,0:0:0:0:
460,171,113082,1,8,0:0:0:0:
456,168,113140,1,0,0:0:0:0:
457,168,113198,1,8,0:0:0:0:
471,173,113313,1,0,0:0:0:0:
464,173,113371,1,0,0:0:0:0:
440,173,113429,1,8,0:0:0:0:
476,152,113544,1,4,0:0:0:0:
428,173,113775,1,8,0:0:0:0:
456,168,113890,1,8,0:0:0:0:
457,168,113948,1,8,0:0:0:0:
423,167,114005,1,0,0:0:0:0:
418,168,114121,1,0,0:0:0:0:
418,168,114179,1,0,0:0:0:0:
448,174,114236,1,8,0:0:0:0:
442,186,114352,1,8,0:0:0:0:
450,179,114409,1,0,0:0:0:0:
439,160,114467,1,8,0:0:0:0:
416,160,114525,1,8,0:0:0:0:
438,173,114582,1,0,0:0:0:0:
454,179,114698,1,8,0:0:0:0:
485,180,114813,1,0,0:0:0:0:
485,180,114871,1,0,0:0:0:0:
460,166,114929,1,8,0:0:0:0:
480,192,115044,1,0,0:0:0:0:
471,171,115102,1,0,0:0:0:0:
461,170,115159,1,8,0:0:0:0:
461,170,115217,1,8,0:0:0:0:
461,170,115275,1,8,0:0:0:0:
461,170,115332,1,8,0:0:0:0:
467,173,115390,1,0,0:0:0:0:
502,170,115505,1,0,0:0:0:0:
502,170,115563,1,0,0:0:0:0:
438,164,115621,1,8,0:0:0:0:
430,164,115736,1,8,0:0:0:0:
445,168,115852,1,0,0:0:0:0:
461,170,115909,1,8,0:0:0:0:
495,165,115967,1,0,0:0:0:0:
463,165,116025,1,0,0:0:0:0:
499,165,116082,1,8,0:0:0:0:
430,173,116198,1,4,0:0:0:0:
468,172,116429,1,8,0:0:0:0:
384,157,116486,1,8,0:0:0:0:
453,172,116544,1,0,0:0:0:0:
453,172,116602,1,0,0:0:0:0:
453,172,116659,1,0,0:0:0:0:
453,172,116717,1,0,0:0:0:0:
463,165,116775,1,8,0:0:0:0:
450,211,116890,1,0,0:0:0:0:
448,192,117005,1,8,0:0:0:0:
399,177,117236,1,4,0:0:0:0:
480,192,117467,1,0,0:0:0:0:
480,192,117582,1,0,0:0:0:0:
448,160,117698,1,8,0:0:0:0:
480,192,117929,1,0,0:0:0:0:
480,192,118044,1,0,0:0:0:0:
448,192,118275,1,8,0:0:0:0:
448,160,118390,1,0,0:0:0:0:
448,192,118621,1,8,0:0:0:0:
448,192,118736,1,0,0:0:0:0:
480,192,118852,1,8,0:0:0:0:
448,192,118967,1,8,0:0:0:0:
424,189,119082,1,4,0:0:0:0:
512,160,119313,1,0,0:0:0:0:
512,160,119429,1,0,0:0:0:0:
448,160,119544,1,8,0:0:0:0:
480,192,119775,1,0,0:0:0:0:
480,192,119890,1,0,0:0:0:0:
480,192,120121,1,8,0:0:0:0:
512,160,120236,1,0,0:0:0:0:
512,160,120352,1,8,0:0:0:0:
480,192,120467,1,0,0:0:0:0:
480,192,120582,1,0,0:0:0:0:
435,186,120698,1,8,0:0:0:0:
467,192,120929,1,4,0:0:0:0:
512,160,121159,1,0,0:0:0:0:
512,160,121275,1,0,0:0:0:0:
493,173,121390,1,8,0:0:0:0:
409,164,121621,1,8,0:0:0:0:
416,160,121736,1,0,0:0:0:0:
472,165,121967,1,0,0:0:0:0:
420,158,122082,1,8,0:0:0:0:
453,184,122198,1,8,0:0:0:0:
420,166,122313,1,0,0:0:0:0:
431,197,122429,1,0,0:0:0:0:
434,188,122544,1,8,0:0:0:0:
473,158,122775,1,12,0:0:0:0:
472,159,123005,1,0,0:0:0:0:
473,170,123121,1,8,0:0:0:0:
423,170,123236,1,0,0:0:0:0:
384,160,123352,1,0,0:0:0:0:
416,192,123467,1,8,0:0:0:0:
452,170,123582,1,0,0:0:0:0:
437,180,123698,1,8,0:0:0:0:
479,177,123929,1,8,0:0:0:0:
452,166,124044,1,0,0:0:0:0:
448,170,124102,1,0,0:0:0:0:
448,170,124159,1,0,0:0:0:0:
452,170,124275,1,0,0:0:0:0:
454,164,124390,1,8,0:0:0:0:
448,224,124505,1,8,0:0:0:0:
441,159,124621,1,4,0:0:0:0:
494,169,124852,1,0,0:0:0:0:
494,169,124967,1,0,0:0:0:0:
461,168,125082,1,8,0:0:0:0:
504,167,125313,1,0,0:0:0:0:
452,170,125429,1,8,0:0:0:0:
404,181,125544,1,0,0:0:0:0:
416,177,125659,1,0,0:0:0:0:
472,177,125775,1,8,0:0:0:0:
468,154,125890,1,0,0:0:0:0:
464,157,126005,1,8,0:0:0:0:
453,166,126236,1,8,0:0:0:0:
446,166,126352,1,8,0:0:0:0:
438,192,126467,1,0,0:0:0:0:
460,166,126698,1,8,0:0:0:0:
503,167,126813,1,0,0:0:0:0:
461,165,126929,1,8,0:0:0:0:
493,156,127159,1,0,0:0:0:0:
493,156,127275,1,0,0:0:0:0:
470,157,127390,1,8,0:0:0:0:
484,159,127505,1,0,0:0:0:0:
449,164,127621,1,8,0:0:0:0:
447,167,127736,1,0,0:0:0:0:
399,170,127852,1,8,0:0:0:0:
448,192,128082,1,8,0:0:0:0:
501,164,128198,1,8,0:0:0:0:
459,163,128313,1,4,0:0:0:0:
411,153,128544,1,0,0:0:0:0:
411,153,128659,1,0,0:0:0:0:
411,153,128775,1,0,0:0:0:0:
411,153,128890,1,0,0:0:0:0:
411,153,129005,1,0,0:0:0:0:
387,200,129121,1,4,0:0:0:0:
